VERSION	0.00.00	1.04.00
FES_MODE	0
BPM_DEF	136.000	136.000	136.000	136.000
MET_DEF	4	4
RESOLUTION	384
CLK_DEF	384
COMPATIBLE_CODE	MA2

BPM	0	0	136.000
MET	0	0	4	4

EXTAP	1	336	3
EXTAP	1	336	4
EXTAP	2	0	3
EXTAP	2	0	4
EXTAP	2	144	0
EXTAP	2	144	7
EXSTR	2	240	1
NMSCL	2	240	1	96	336	2
EXTAP	2	240	6
NMTTP	2	336	0	C	1	M1
EXTAP	4	0	0
EXTAP	4	0	2
EXTAP	4	144	5
EXTAP	4	144	7
BXTAP	4	288	1
BXTAP	4	288	6
NMTAP	5	0	2
NMTAP	5	96	2
NMTAP	5	96	3
NMTAP	5	192	5
NMTAP	5	240	5
NMTAP	5	288	4
NMTAP	5	288	5
NMTAP	6	0	1
NMTAP	6	96	1
NMTAP	6	96	3
NMTAP	6	192	6
NMTAP	6	240	6
NMTAP	6	288	4
NMTAP	6	288	6
NMTAP	7	0	2
NMTAP	7	96	0
NMTAP	7	96	2
NMTAP	7	192	5
NMTAP	7	240	5
NMTAP	7	288	5
NMTAP	7	288	7
NMTAP	8	0	0
NMTAP	8	0	6
NMHLD	8	96	1	72
NMTAP	8	96	4
EXHLD	8	168	2	72
EXHLD	8	240	3	72
EXTAP	8	312	4
EXTAP	9	0	5
NMTAP	9	96	4
NMTAP	9	96	5
NMTAP	9	192	2
NMTAP	9	240	2
NMTAP	9	288	2
NMTAP	9	288	3
NMTAP	10	0	6
NMTAP	10	96	4
NMTAP	10	96	6
NMTAP	10	192	1
NMTAP	10	240	1
NMTAP	10	288	1
NMTAP	10	288	3
NMTAP	11	0	5
NMTAP	11	96	5
NMTAP	11	96	7
NMTAP	11	192	2
NMTAP	11	240	2
NMTAP	11	288	0
NMTAP	11	288	2
NMTAP	12	0	1
NMSTR	12	0	7
NMSXL	12	0	7	96	192	4
BRTAP	12	288	3
NMTAP	13	0	2
NMHLD	13	96	2	672
NMTAP	13	192	3
NMTAP	13	288	3
NMTAP	14	0	4
NMTAP	14	96	4
NMTAP	14	192	3
NMTAP	14	288	3
NMTAP	15	0	5
NMHLD	15	96	5	672
NMTAP	15	192	4
NMTAP	15	288	4
NMTAP	16	0	3
NMTAP	16	96	3
NMTAP	16	192	4
NMTAP	16	288	4
NMHLD	17	0	1	384
NMTAP	17	96	2
NMTAP	17	192	3
NMTAP	17	288	4
NMHLD	18	0	6	288
NMTAP	18	96	5
NMTAP	18	192	4
NMSTR	18	288	3
NMSXL	18	288	3	96	288	6
NMSXR	18	288	3	96	288	0
NMTTP	20	0	0	C	1	M1
NMTAP	21	0	2
NMTAP	21	96	1
NMTAP	21	96	3
NMTAP	21	192	0
NMTAP	21	240	0
NMTAP	21	288	1
NMTAP	21	288	7
NMTAP	22	0	6
NMTAP	22	96	4
NMTAP	22	96	5
NMTAP	22	192	2
NMTAP	22	240	2
NMTAP	22	288	2
NMTAP	22	288	3
NMTAP	23	0	5
NMTAP	23	96	4
NMTAP	23	96	6
NMTAP	23	192	7
NMTAP	23	240	7
NMTAP	23	288	0
NMTAP	23	288	6
NMTAP	24	0	1
NMTAP	24	96	2
NMTAP	24	96	3
NMTAP	24	192	5
NMTAP	24	240	5
NMTAP	24	288	4
NMTAP	24	288	5
NMHLD	25	0	3	384
NMSTR	25	96	1
NMSI_	25	96	1	96	96	5
NMHLD	26	0	4	288
NMSTR	26	96	5
NMSI_	26	96	5	96	96	1
NMTAP	27	0	1
NMTAP	27	0	3
NMTAP	27	96	3
NMTAP	27	96	4
NMTAP	27	192	4
NMTAP	27	192	6
NMSTR	27	288	0
NMSI_	27	288	0	96	192	3
NMSTR	27	288	7
NMSI_	27	288	7	96	192	4
BRTAP	28	288	2
BRTAP	28	288	5
NMHLD	29	0	1	72
NMHLD	29	72	2	72
NMHLD	29	144	3	144
NMTAP	29	240	5
NMTAP	29	288	5
NMHLD	30	0	6	72
NMHLD	30	72	5	72
NMHLD	30	144	4	144
NMTAP	30	240	2
NMTAP	30	288	2
NMSTR	31	0	1
NMSI_	31	0	1	96	48	4
NMTAP	31	0	5
NMTAP	31	192	2
NMSTR	31	192	6
NMSI_	31	192	6	96	48	3
NMSTR	32	0	0
NMSI_	32	0	0	96	48	3
NMTAP	32	0	4
BRTAP	32	192	2
BRTAP	32	192	5
NMTAP	33	0	4
NMHLD	33	48	4	96
NMTAP	33	144	2
NMHLD	33	192	2	96
NMTAP	33	288	0
NMSTR	34	0	0
NMSCL	34	0	0	96	96	5
NMTAP	34	0	1
NMSTR	34	192	4
NMSCL	34	192	4	96	96	1
NMTAP	35	0	0
NMTAP	35	96	1
NMHLD	35	144	1	192
NMTAP	35	240	3
NMTAP	35	288	3
NMHLD	35	336	3	192
NMTAP	36	48	4
NMTAP	36	96	4
NMHLD	36	144	4	144
NMTAP	36	240	6
NMTAP	36	288	6
NMTAP	37	0	4
NMTAP	37	0	5
NMTAP	37	96	1
NMTAP	37	96	3
NMTAP	37	144	1
NMTAP	37	144	3
NMTAP	37	240	4
NMTAP	37	240	6
NMTAP	37	288	4
NMTAP	37	288	6
NMTHO	38	0	0	168	C	1	M1
NMSTR	39	0	0
NMSI_	39	0	0	96	48	4
NMTAP	39	0	7
NMSTR	39	96	6
NMSI_	39	96	6	96	48	3
NMSTR	39	192	1
NMSI_	39	192	1	96	48	4
NMTAP	39	288	6
NMSTR	40	0	6
NMSI_	40	0	6	96	48	3
NMSTR	40	0	7
NMSI_	40	0	7	96	48	3
NMSTR	40	192	0
NMSI_	40	192	0	96	48	4
NMSTR	40	192	1
NMSI_	40	192	1	96	48	4
NMHLD	41	0	3	96
NMSTR	41	0	6
BRSI_	41	0	6	96	48	1
NMSTR	41	192	2
NMSI_	41	192	2	96	48	5
NMHLD	41	192	7	96
NMTAP	42	0	4
NMTAP	42	0	6
NMTAP	42	96	3
NMTAP	42	96	4
NMTAP	42	192	1
NMTAP	42	192	3
BRSTR	42	288	0
NMSI_	42	288	0	96	48	4
BRTAP	42	288	7
NMSTR	43	0	7
NMSI_	43	0	7	96	48	3
NMSTR	43	96	1
NMSI_	43	96	1	96	48	4
NMSTR	43	192	6
NMSI_	43	192	6	96	48	3
NMTAP	43	288	1
NMSTR	44	0	0
NMSI_	44	0	0	96	48	4
NMSTR	44	0	1
NMSI_	44	0	1	96	48	4
NMSTR	44	192	6
NMSI_	44	192	6	96	48	3
NMSTR	44	192	7
NMSI_	44	192	7	96	48	3
NMSTR	45	0	1
NMSV_	45	0	1	96	48	4
NMSTR	45	0	5
NMSI_	45	0	5	96	48	0
NMSTR	45	192	2
NMSI_	45	192	2	96	48	7
NMSTR	45	192	6
NMSV_	45	192	6	96	48	3
NMTAP	46	0	0
NMTAP	46	96	2
NMTAP	46	96	3
NMTAP	46	192	4
NMTAP	46	192	5
NMSTR	46	288	0
NMSCR	46	288	0	96	288	7
NMTAP	46	288	7
NMTTP	47	0	0	C	1	M1
NMTAP	48	0	0
NMTAP	48	48	1
NMHLD	48	96	2	72
NMHLD	48	168	3	120
NMTAP	48	240	2
NMTAP	48	288	2
NMTAP	49	0	3
NMTAP	49	48	4
NMHLD	49	96	5	72
NMHLD	49	168	4	120
NMTAP	49	240	5
NMTAP	49	288	5
NMTTP	50	0	6	B	0	M1
NMTTP	50	0	7	B	0	M1
NMTTP	50	0	7	E	1	M1
NMTTP	50	96	4	B	0	M1
NMTTP	50	96	5	B	0	M1
NMTTP	50	96	5	E	1	M1
NMTTP	50	192	2	B	0	M1
NMTTP	50	192	3	B	0	M1
NMTTP	50	192	3	E	1	M1
NMTTP	50	288	0	B	0	M1
NMTTP	50	288	1	B	0	M1
NMTTP	50	288	1	E	1	M1
NMTAP	51	0	7
NMTAP	51	48	6
NMHLD	51	96	5	72
NMHLD	51	168	4	120
NMTAP	51	240	5
NMTAP	51	288	5
NMTAP	52	0	4
NMTAP	52	48	3
NMHLD	52	96	2	72
NMHLD	52	168	3	120
NMTAP	52	240	1
NMTAP	52	288	1
NMTAP	53	0	0
NMTAP	53	48	7
NMHLD	53	96	6	72
NMTAP	53	168	1
NMTAP	53	240	2
NMTAP	53	240	5
NMTAP	53	288	2
NMTAP	53	288	5
EXTAP	54	0	3
EXTAP	54	24	4
EXTAP	54	72	2
EXTAP	54	72	5
EXTAP	54	120	2
EXTAP	54	120	5
NMTTP	54	168	0	A	0	M1
NMTTP	54	168	0	D	1	M1
NMTTP	54	168	1	D	0	M1
NMTTP	54	168	7	A	0	M1
NMTTP	54	168	7	D	0	M1
NMHLD	55	0	2	1152
NMTTP	55	192	4	E	0	M1
NMTTP	56	0	3	E	0	M1
NMTTP	56	192	2	B	0	M1
NMTTP	57	0	3	B	0	M1
NMTTP	57	192	4	B	0	M1
NMTAP	58	0	3
NMTAP	58	72	4
NMTAP	58	72	5
NMTAP	58	144	0
NMTAP	58	144	7
NMTAP	58	192	0
NMTAP	58	192	7
BRTAP	58	288	1
BRSTR	58	288	6
NMSI_	58	288	6	96	48	3
NMSTR	59	0	1
NMSI_	59	0	1	96	48	4
NMSTR	59	96	7
NMSI_	59	96	7	96	48	3
NMSTR	59	192	0
NMSI_	59	192	0	96	48	4
NMTAP	59	288	6
NMSTR	60	0	6
NMSI_	60	0	6	96	48	3
NMSTR	60	0	7
NMSI_	60	0	7	96	48	2
NMSTR	60	192	0
NMSI_	60	192	0	96	48	5
NMSTR	60	192	1
NMSI_	60	192	1	96	48	4
NMSTR	61	0	2
NMSCL	61	0	2	96	48	7
NMSTR	61	0	6
NMSUR	61	0	6	96	48	3
NMSTR	61	192	1
NMSUL	61	192	1	96	48	4
NMSTR	61	192	5
NMSCR	61	192	5	96	48	0
EXTAP	62	0	0
EXTAP	62	0	1
NMTAP	62	96	4
NMTAP	62	96	5
NMTAP	62	192	0
NMTAP	62	192	6
BRSTR	62	288	3
NMSI_	62	288	3	96	48	7
BRTAP	62	288	4
NMSTR	63	0	4
NMSI_	63	0	4	96	48	0
NMSTR	63	96	2
NMSI_	63	96	2	96	48	7
NMSTR	63	192	5
NMSI_	63	192	5	96	48	0
NMTAP	63	288	2
NMSTR	64	0	2
NMSI_	64	0	2	96	48	7
NMSTR	64	0	3
NMSI_	64	0	3	96	48	6
NMSTR	64	192	4
NMSI_	64	192	4	96	48	1
NMSTR	64	192	5
NMSI_	64	192	5	96	48	0
NMSTR	65	0	2
NMSUR	65	0	2	96	48	7
NMSTR	65	0	6
NMSCL	65	0	6	96	48	3
NMSTR	65	192	1
NMSCR	65	192	1	96	48	4
NMSTR	65	192	5
NMSUL	65	192	5	96	48	0
EXTAP	66	0	4
EXTAP	66	0	5
NMTAP	66	96	0
NMTAP	66	96	7
NMTAP	66	192	2
NMTAP	66	192	3
NMTAP	66	288	3
NMSTR	66	288	4
NMSCR	66	288	4	96	336	3
NMTTP	67	0	0	C	1	M1
CNSUR	67	336	3	0	336	6
NMTAP	69	0	5
NMTAP	69	48	5
NMTAP	69	96	4
NMTAP	69	96	6
NMTAP	69	192	2
NMTAP	69	240	2
NMTAP	69	288	1
NMTAP	69	288	3
NMTAP	70	0	6
NMTAP	70	48	5
NMTAP	70	96	4
NMTAP	70	96	5
NMTAP	70	192	3
NMTAP	70	192	4
NMTTP	70	288	1	B	0	M1
NMTTP	70	288	2	B	0	M1
NMTTP	70	288	5	B	0	M1
NMTTP	70	288	6	B	0	M1
BRTAP	71	0	0
BRTAP	71	0	7
NMTAP	71	96	1
NMTAP	71	96	3
NMTAP	71	192	2
NMTAP	71	240	3
NMTAP	71	288	2
NMTAP	71	288	4
NMTAP	72	0	0
NMTAP	72	0	7
NMTAP	72	96	4
NMTAP	72	96	6
NMTAP	72	192	5
NMTAP	72	240	4
NMTAP	72	288	3
NMTAP	72	288	5
NMTAP	73	0	1
NMTAP	73	48	3
NMTAP	73	96	2
NMTAP	73	96	4
NMTAP	73	192	6
NMTAP	73	240	4
NMTAP	73	288	3
NMTAP	73	288	5
NMTAP	74	0	2
NMTAP	74	0	4
NMTAP	74	72	0
NMTAP	74	72	6
NMTAP	74	144	1
NMTAP	74	144	5
NMTAP	74	240	3
NMTAP	74	240	4
NMHLD	74	288	3	96
NMHLD	74	288	4	96
BRSTR	75	96	2
BRSXR	75	96	2	96	624	4
BRSTR	75	96	5
BRSXL	75	96	5	96	624	3
CNSCL	77	48	3	0	720	4
CNSCR	77	48	4	0	720	3

T_REC_TAP	227
T_REC_BRK	10
T_REC_XTP	23
T_REC_BXX	2
T_REC_HLD	32
T_REC_XHO	2
T_REC_BHO	0
T_REC_BXH	0
T_REC_STR	55
T_REC_BST	5
T_REC_XST	1
T_REC_XBS	0
T_REC_TTP	30
T_REC_THO	1
T_REC_SLD	59
T_REC_BSL	3
T_REC_ALL	450
T_NUM_TAP	336
T_NUM_BRK	20
T_NUM_HLD	35
T_NUM_SLD	59
T_NUM_ALL	450
T_JUDGE_TAP	353
T_JUDGE_HLD	149
T_JUDGE_SLD	62
T_JUDGE_ALL	564
TTM_EACHPAIRS	103
TTM_SCR_TAP	168000
TTM_SCR_BRK	52000
TTM_SCR_HLD	35000
TTM_SCR_SLD	88500
TTM_SCR_ALL	343500
TTM_SCR_S	331300
TTM_SCR_SS	341500
TTM_RAT_ACV	10058

