VERSION	0.00.00	1.04.00
FES_MODE	0
BPM_DEF	120.000	120.000	120.000	120.000
MET_DEF	4	4
RESOLUTION	384
CLK_DEF	384
COMPATIBLE_CODE	MA2

BPM	0	0	120.000
MET	0	0	4	4
MET	62	0	4	2
MET	62	192	4	4

NMSTR	2	0	2
NMSCR	2	0	2	96	72	4
NMHLD	2	96	5	72
NMTTP	2	288	3	B	0	M1
NMTTP	2	288	3	E	0	M1
NMSTR	3	0	6
NMSCL	3	0	6	96	72	4
NMHLD	3	96	3	72
NMTTP	3	288	4	B	0	M1
NMTTP	3	288	5	E	0	M1
NMSTR	4	0	3
NMSCL	4	0	3	96	72	1
NMHLD	4	96	4	72
NMTTP	4	288	2	B	0	M1
NMTTP	4	288	3	E	0	M1
NMSTR	5	0	5
NMSXR	5	0	5	96	96	4
NMSTR	5	96	4
NMSUR	5	96	4	96	96	1
NMTAP	5	192	1
NMTTP	5	288	3	B	0	M1
NMTTP	5	288	3	E	0	M1
NMSTR	6	0	2
NMSCR	6	0	2	96	72	4
NMHLD	6	96	5	72
NMTAP	6	240	5
NMTTP	6	288	3	B	0	M1
NMTTP	6	288	3	E	0	M1
NMSTR	7	0	6
NMSCL	7	0	6	96	72	4
NMHLD	7	96	3	72
NMTAP	7	240	3
NMTTP	7	288	4	B	0	M1
NMTTP	7	288	5	E	0	M1
NMSTR	8	0	2
NMSCL	8	0	2	96	72	0
NMHLD	8	96	4	72
NMTAP	8	240	4
NMTTP	8	288	1	B	0	M1
NMTTP	8	288	1	E	0	M1
NMSTR	9	0	4
NMSUR	9	0	4	96	96	1
NMSTR	9	96	1
NMSUR	9	96	1	96	96	7
NMTAP	9	192	7
NMTTP	9	288	0	E	0	M1
BXTAP	10	0	0
BXTAP	10	0	7
NMTAP	10	48	1
NMTAP	10	96	2
NMTAP	10	96	4
NMTAP	10	144	4
NMTAP	10	168	3
NMTAP	10	216	2
NMTAP	10	240	3
NMTAP	10	264	2
NMHLD	10	288	4	48
NMTAP	10	336	3
NMTAP	11	0	2
NMTAP	11	0	3
NMTAP	11	48	1
NMTAP	11	96	0
NMTAP	11	96	6
NMTAP	11	144	6
NMTAP	11	168	7
NMTAP	11	216	0
NMTAP	11	240	7
NMTAP	11	264	0
NMHLD	11	288	5	48
NMTAP	11	336	4
NMTAP	12	0	0
NMTAP	12	0	7
NMTAP	12	48	6
NMTAP	12	96	3
NMTAP	12	96	5
NMTAP	12	144	3
NMTAP	12	168	4
NMTAP	12	216	5
NMTAP	12	240	4
NMTAP	12	264	5
NMHLD	12	288	3	48
NMTAP	12	336	4
NMTAP	13	0	4
NMTAP	13	0	5
NMTAP	13	48	6
NMTAP	13	96	1
NMTAP	13	96	7
NMTAP	13	144	1
NMTAP	13	168	0
NMTAP	13	216	7
NMTAP	13	240	0
NMTAP	13	264	7
NMHLD	13	288	1	48
NMTAP	13	336	2
NMSTR	14	0	0
NMSUL	14	0	0	96	144	2
NMTAP	14	0	3
NMTAP	14	96	3
NMTAP	14	192	3
NMSTR	14	288	2
NMSXR	14	288	2	96	240	5
NMTAP	14	288	3
NMTAP	15	0	3
NMTAP	15	96	3
NMTAP	15	192	3
NMTAP	15	288	3
NMSTR	15	288	5
NMSUL	15	288	5	96	120	0
NMTAP	16	0	3
NMTAP	16	96	3
CNSUL	16	120	0	0	120	2
NMTAP	16	192	3
NMTAP	16	288	2
NMSTR	16	288	3
NMSI_	16	288	3	96	48	5
NMSTR	17	0	2
NMSI_	17	0	2	96	48	0
NMSTR	17	96	3
NMSI_	17	96	3	96	48	7
NMSI_	17	96	3	96	48	7
NMTAP	17	192	3
CNSCL	17	240	7	0	48	5
CNSCR	17	240	7	0	48	1
NMSTR	18	0	2
NMSI_	18	0	2	96	48	4
NMTAP	18	48	1
NMSTR	18	96	6
NMSI_	18	96	6	96	48	3
NMTAP	18	144	7
NMTAP	18	192	1
NMTAP	18	240	1
NMTAP	18	288	2
NMTAP	18	288	3
NMSTR	19	0	5
NMSI_	19	0	5	96	48	3
NMTAP	19	48	5
NMSTR	19	96	1
NMSI_	19	96	1	96	48	4
NMTAP	19	144	1
NMTAP	19	192	5
NMTAP	19	240	5
NMTAP	19	288	3
NMTAP	19	288	6
NMSTR	20	0	2
NMSCR	20	0	2	96	48	4
NMTAP	20	48	1
NMSTR	20	96	7
NMSI_	20	96	7	96	48	3
NMTAP	20	144	6
NMTAP	20	192	2
NMTAP	20	240	2
NMTAP	20	288	1
NMTAP	20	288	4
NMTAP	21	0	4
NMTAP	21	0	6
NMTAP	21	48	3
NMTAP	21	48	7
NMSTR	21	96	0
NMSLL	21	96	0	96	96	2
NMSTR	21	96	2
NMSLR	21	96	2	96	96	0
EXHLD	22	0	1	192
NMTAP	22	96	2
NMHLD	22	192	3	192
NMTAP	22	288	4
NMHLD	23	0	5	192
NMTAP	23	96	6
NMHLD	23	192	7	192
NMTAP	23	288	0
NMTAP	24	0	1
NMTAP	24	48	2
NMTAP	24	96	3
NMTAP	24	96	4
NMTAP	24	144	5
NMTAP	24	192	4
NMTAP	24	192	6
NMTAP	24	240	7
NMTAP	24	288	0
NMTAP	24	288	1
NMTAP	24	336	2
NMTAP	25	0	3
NMTAP	25	0	5
NMTAP	25	48	4
NMTAP	25	48	6
NMTAP	25	96	0
NMTAP	25	96	7
NMTAP	25	144	1
NMTAP	25	144	3
NMTAP	25	192	4
NMTAP	25	192	5
NMTAP	25	240	0
NMTAP	25	240	7
EXTAP	25	288	2
EXSTR	25	288	5
BRSCR	25	288	5	96	48	0
BXSTR	26	0	1
NMSCR	26	0	1	96	48	4
BXTAP	26	0	5
NMSTR	26	96	6
NMSLL	26	96	6	96	96	0
NMTAP	26	144	7
NMTAP	26	192	3
NMTAP	26	240	3
NMTAP	26	288	2
NMTAP	26	336	1
NMHLD	26	336	7	96
NMSTR	27	48	4
NMSXL	27	48	4	96	48	6
NMSTR	27	96	3
NMSXR	27	96	3	96	48	1
NMTAP	27	144	4
NMTAP	27	192	3
NMTAP	27	240	5
NMSTR	27	288	3
NMSCL	27	288	3	96	48	0
NMTAP	27	288	5
EXSTR	28	0	3
NMSCR	28	0	3	96	48	6
EXTAP	28	0	4
EXTAP	28	96	1
EXTAP	28	96	3
NMTAP	28	192	0
NMTAP	28	240	1
NMTAP	28	240	7
NMTAP	28	288	2
NMTAP	28	288	6
NMSTR	28	336	2
NMSI_	28	336	2	96	48	4
NMTAP	28	336	6
NMTAP	29	48	4
CNSI_	29	96	4	0	48	1
NMTAP	29	96	5
CNSI_	29	144	1	0	48	5
NMTAP	29	144	6
NMTAP	29	192	7
NMTAP	29	240	0
EXTAP	29	240	6
NMSTR	29	288	1
BRSCL	29	288	1	96	48	6
EXTAP	29	288	6
NMTAP	29	336	2
BXTAP	30	0	1
BXSTR	30	0	5
NMSCL	30	0	5	96	48	3
NMSTR	30	96	0
NMSLL	30	96	0	96	96	2
NMTAP	30	144	1
NMTAP	30	192	3
NMTAP	30	240	3
NMTAP	30	288	4
NMHLD	30	336	1	96
NMTAP	30	336	5
NMSTR	31	48	0
NMSI_	31	48	0	96	48	5
NMSTR	31	96	7
NMSI_	31	96	7	96	48	2
NMTAP	31	144	0
NMTAP	31	192	7
NMTAP	31	240	3
NMSTR	31	288	3
NMSCL	31	288	3	96	48	0
NMSTR	31	288	4
NMSUL	31	288	4	96	48	7
EXSTR	32	0	3
NMSUR	32	0	3	96	48	0
EXSTR	32	0	4
NMSCR	32	0	4	96	48	7
EXTAP	32	96	3
EXTAP	32	96	4
NMTAP	32	192	1
NMTAP	32	240	0
NMTAP	32	240	2
NMTAP	32	288	7
NMTAP	32	336	0
NMTAP	32	336	6
NMSTR	33	0	1
NMSI_	33	0	1	96	48	5
NMTAP	33	0	5
NMTAP	33	48	2
NMSTR	33	96	6
NMSV_	33	96	6	96	48	3
NMTAP	33	144	7
NMTAP	33	192	0
NMTAP	33	240	1
NMTAP	33	288	4
NMSTR	33	336	2
NMSCL	33	336	2	96	144	3
NMTAP	33	336	5
NMTAP	34	0	3
NMTAP	34	0	6
BRHLD	34	48	7	144
NMTAP	34	288	3
NMTAP	34	288	6
NMTAP	34	336	2
NMSTR	34	336	5
NMSCR	34	336	5	96	144	4
NMTAP	35	0	1
NMTAP	35	0	4
BRHLD	35	48	0	144
NMTAP	35	288	1
NMTAP	35	288	4
NMTAP	35	336	3
NMTAP	35	336	5
NMTAP	36	0	4
NMTAP	36	0	6
NMTAP	36	48	4
NMTAP	36	48	6
NMTAP	36	144	0
NMTAP	36	144	7
NMSTR	36	192	1
NMSLL	36	192	1	96	96	5
NMTAP	36	192	6
NMTAP	36	240	2
NMSTR	36	288	5
NMSUR	36	288	5	96	96	2
NMSTR	37	0	2
BRSCL	37	0	2	96	192	3
NMTTP	37	96	0	C	1	M1
NMHLD	38	0	2	384
NMTTP	38	96	2	B	0	M1
NMTTP	38	99	3	E	0	M1
NMTTP	38	288	2	B	0	M1
NMTTP	38	291	3	E	0	M1
NMHLD	39	0	4	384
NMTTP	39	96	5	B	0	M1
NMTTP	39	99	5	E	0	M1
NMTTP	39	288	5	B	0	M1
NMTTP	39	291	5	E	0	M1
NMHLD	40	0	3	384
NMTTP	40	96	2	B	0	M1
NMTTP	40	99	3	E	0	M1
NMTTP	40	288	2	B	0	M1
NMTTP	40	291	3	E	0	M1
NMTAP	41	0	5
NMTAP	41	48	5
NMTAP	41	72	4
NMTAP	41	120	4
NMTAP	41	144	6
NMTAP	41	192	6
NMTAP	41	216	3
NMTAP	41	264	3
EXTAP	41	288	2
EXTAP	41	288	7
NMSTR	42	0	1
NMSI_	42	0	1	96	48	7
NMTAP	42	48	1
NMTAP	42	96	7
NMHLD	42	168	6	72
NMTAP	42	240	7
NMTAP	42	288	6
NMTAP	42	288	7
NMSTR	43	0	5
NMSI_	43	0	5	96	48	3
NMTAP	43	48	5
NMTAP	43	96	3
NMHLD	43	168	2	72
NMTAP	43	240	3
NMTAP	43	288	2
NMTAP	43	288	4
NMSTR	44	0	5
NMSI_	44	0	5	96	48	7
NMTAP	44	48	5
NMTAP	44	96	7
NMHLD	44	168	0	72
NMTAP	44	240	7
NMTAP	44	288	1
NMTAP	44	288	7
NMSTR	45	0	2
NMSI_	45	0	2	96	48	4
NMTAP	45	48	2
NMTAP	45	96	4
NMHLD	45	168	5	72
NMTAP	45	240	4
NMTAP	45	288	4
NMTAP	45	288	5
NMTAP	46	0	5
NMTAP	46	24	4
NMTAP	46	48	5
NMTAP	46	72	4
NMTAP	46	96	6
NMTAP	46	120	4
NMTAP	46	144	6
NMTAP	46	168	4
NMSTR	46	192	5
NMSI_	46	192	5	96	48	2
NMTAP	46	240	3
NMTAP	46	264	3
NMTAP	47	0	1
NMTAP	47	24	0
NMTAP	47	48	1
NMTAP	47	72	0
NMTAP	47	96	2
NMTAP	47	120	3
NMTAP	47	144	2
NMTAP	47	168	3
NMSTR	47	192	1
NMSCL	47	192	1	96	48	7
NMTAP	47	216	4
NMTAP	47	264	4
NMTAP	48	0	6
NMTAP	48	24	7
NMTAP	48	48	6
NMTAP	48	72	7
NMTAP	48	96	5
NMTAP	48	120	0
NMTAP	48	144	4
NMTAP	48	168	1
NMSTR	48	192	5
NMSI_	48	192	5	96	48	7
NMTAP	48	240	3
NMTAP	48	264	3
EXTAP	49	0	0
EXTAP	49	0	7
NMTAP	49	48	2
EXTAP	49	72	2
EXTAP	49	72	3
NMTAP	49	120	5
EXTAP	49	144	4
EXTAP	49	144	5
NMTAP	49	192	6
EXTAP	49	216	6
EXTAP	49	216	7
NMTAP	49	264	1
EXTAP	49	288	0
EXTAP	49	288	1
NMTAP	49	336	3
NMTAP	49	336	4
EXSTR	50	0	2
NMSCL	50	0	2	96	48	0
EXTAP	50	0	5
NMTAP	50	96	3
NMSTR	50	192	4
NMSCL	50	192	4	96	48	2
NMTAP	50	288	5
NMSTR	51	0	6
NMSCL	51	0	6	96	48	4
NMTAP	51	96	7
NMSTR	51	192	0
NMSCL	51	192	0	96	48	6
NMTAP	51	288	1
NMTAP	52	0	2
NMTAP	52	48	1
NMTAP	52	48	3
NMTAP	52	96	0
NMTAP	52	96	4
NMTAP	52	144	5
NMTAP	52	144	7
NMTAP	52	192	0
NMTAP	52	192	6
NMTAP	52	240	1
NMTAP	52	240	7
NMTAP	52	288	0
NMTAP	52	288	2
NMTAP	52	336	3
NMTAP	52	336	4
NMTAP	53	0	5
NMTAP	53	0	6
NMTAP	53	48	0
NMTAP	53	48	7
NMTAP	53	96	1
NMTAP	53	96	2
NMTAP	53	144	4
NMTAP	53	144	5
NMTAP	53	192	0
NMTAP	53	192	7
NMTAP	53	240	2
NMTAP	53	240	3
BRTAP	53	288	0
BRTAP	53	288	6
NMSTR	54	0	3
NMSI_	54	0	3	96	576	0
NMSTR	56	0	4
NMSI_	56	0	4	96	576	7
NMHLD	58	0	2	288
NMHLD	58	0	3	288
NMTAP	58	336	3
NMTAP	58	336	4
NMHLD	59	0	4	288
NMHLD	59	0	5	288
EXTAP	59	336	0
EXTAP	59	336	7
NMTAP	60	0	1
NMTAP	60	48	1
NMTAP	60	48	3
NMTAP	60	96	6
NMTAP	60	144	4
NMTAP	60	144	6
NMTAP	60	192	0
NMTAP	60	192	1
NMTAP	60	240	2
NMTAP	60	240	3
NMTAP	60	288	4
NMTAP	60	288	5
NMTAP	60	336	6
NMTAP	60	336	7
BRHLD	61	0	0	480
BRSTR	61	0	2
NMSXR	61	0	2	96	192	5
CNSXL	61	288	5	0	192	3
NMSTR	62	192	3
NMSI_	62	192	3	96	32	7
NMSTR	62	192	4
NMSI_	62	192	4	96	32	0
BRTAP	62	288	3
BRTAP	62	288	4
NMTTP	62	304	0	C	1	M1
EXTAP	63	48	1
EXTAP	63	48	6
EXSTR	63	96	1
BRSCL	63	96	1	96	48	6
EXTAP	63	96	6
NMTAP	63	144	2
BRTAP	63	192	1
BRSTR	63	192	4
NMSI_	63	192	4	96	48	7
NMTAP	63	240	5
NMSTR	63	288	0
NMSV_	63	288	0	96	48	3
NMSV_	63	288	0	96	48	5
NMTAP	63	336	1
NMTAP	64	0	0
NMTAP	64	96	2
NMSTR	64	96	7
NMSUL	64	96	7	96	48	3
NMSTR	64	192	1
NMSV_	64	192	1	96	48	6
NMTAP	64	192	7
NMSTR	64	288	4
NMSCR	64	288	4	96	48	7
NMTAP	64	336	3
NMSTR	65	0	0
NMSUR	65	0	0	96	48	4
NMTAP	65	48	1
NMSTR	65	96	5
NMSV_	65	96	5	96	48	2
NMTAP	65	144	6
NMSTR	65	192	3
NMSUL	65	192	3	96	48	7
NMTAP	65	240	4
NMTAP	65	288	6
NMTAP	65	336	5
NMTAP	66	0	0
NMTAP	66	0	4
EXTAP	66	48	1
EXTAP	66	48	5
EXSTR	66	96	2
BRSCL	66	96	2	96	48	7
EXTAP	66	96	6
BRTAP	66	192	2
BRSTR	66	192	5
NMSUR	66	192	5	96	48	1
NMSTR	66	288	2
NMSI_	66	288	2	96	48	4
NMTAP	66	336	3
NMSTR	67	0	6
NMSCL	67	0	6	96	48	3
NMSTR	67	48	7
NMSCR	67	48	7	96	48	2
NMTAP	67	96	6
NMTAP	67	144	7
NMTAP	67	240	3
NMTAP	67	240	4
NMSTR	67	288	2
NMSI_	67	288	2	96	48	5
NMTAP	67	288	5
NMTAP	67	336	1
NMSTR	68	0	7
NMSV_	68	0	7	96	48	2
NMSV_	68	0	7	96	48	4
NMTAP	68	48	6
NMSTR	68	96	7
NMSCR	68	96	7	96	48	3
NMSUR	68	96	7	96	48	3
EXSTR	68	192	7
NMSCL	68	192	7	96	48	3
NMSUL	68	192	7	96	48	3
EXTAP	68	288	7
NMSTR	69	0	2
NMSV_	69	0	2	96	48	5
NMTAP	69	0	4
NMTAP	69	48	1
NMTAP	69	96	2
NMSTR	69	96	6
NMSCL	69	96	6	96	48	3
NMTAP	69	144	7
BRSTR	69	192	0
NMSUR	69	192	0	96	48	4
BRTAP	69	192	6
NMTAP	69	240	7
BRTAP	69	288	0
BRSTR	69	288	6
NMSV_	69	288	6	96	48	3
NMTAP	69	336	7
BRTAP	70	0	4
BRTAP	70	0	6
NMTAP	70	48	2
NMTAP	70	96	1
NMTAP	70	96	4
NMSTR	70	144	2
NMSXL	70	144	2	96	96	2
NMTAP	70	144	5
NMTAP	70	192	3
NMTAP	70	192	6
BRSTR	70	240	2
NMSCL	70	240	2	96	96	4
BRHLD	70	240	7	192
NMTAP	71	96	3
NMTAP	71	96	6
NMTAP	71	144	2
NMSTR	71	144	5
NMSXR	71	144	5	96	96	5
NMTAP	71	192	1
NMTAP	71	192	4
BRHLD	71	240	0	192
BRSTR	71	240	5
NMSCR	71	240	5	96	96	3
NMTAP	72	96	1
NMTAP	72	96	4
NMTAP	72	144	3
NMTAP	72	144	5
NMTAP	72	192	4
NMTAP	72	192	6
NMTAP	72	240	4
NMTAP	72	240	6
NMTAP	72	336	0
NMTAP	72	336	7
NMSTR	73	0	1
NMSLL	73	0	1	96	96	5
NMTAP	73	0	6
NMTAP	73	48	2
NMTAP	73	48	4
NMSTR	73	96	5
NMSUR	73	96	5	96	96	2
NMSTR	73	192	2
BRSCL	73	192	2	96	144	4
NMTHO	73	288	0	144	C	0	M1
BXTAP	74	96	0
BXTAP	74	96	7

T_REC_TAP	333
T_REC_BRK	10
T_REC_XTP	30
T_REC_BXX	6
T_REC_HLD	26
T_REC_XHO	1
T_REC_BHO	5
T_REC_BXH	0
T_REC_STR	76
T_REC_BST	7
T_REC_XST	8
T_REC_XBS	2
T_REC_TTP	29
T_REC_THO	1
T_REC_SLD	92
T_REC_BSL	6
T_REC_ALL	632
T_NUM_TAP	476
T_NUM_BRK	36
T_NUM_HLD	28
T_NUM_SLD	92
T_NUM_ALL	632
T_JUDGE_TAP	501
T_JUDGE_HLD	119
T_JUDGE_SLD	98
T_JUDGE_ALL	718
TTM_EACHPAIRS	128
TTM_SCR_TAP	238000
TTM_SCR_BRK	93600
TTM_SCR_HLD	28000
TTM_SCR_SLD	138000
TTM_SCR_ALL	497600
TTM_SCR_S	479200
TTM_SCR_SS	494000
TTM_RAT_ACV	10072

