VERSION	0.00.00	1.04.00
FES_MODE	0
BPM_DEF	120.000	120.000	120.000	120.000
MET_DEF	4	4
RESOLUTION	384
CLK_DEF	384
COMPATIBLE_CODE	MA2

BPM	0	0	120.000
MET	0	0	4	4
MET	62	0	4	2
MET	62	192	4	4

NMHLD	2	0	3	384
NMTAP	2	96	4
NMTAP	2	288	4
NMHLD	3	0	4	384
NMTAP	3	96	3
NMTAP	3	288	3
NMHLD	4	0	2	384
NMTAP	4	96	3
NMTAP	4	288	3
NMHLD	5	0	5	384
NMTAP	5	96	4
NMTAP	5	288	4
NMTAP	6	0	3
NMHLD	6	96	2	288
NMTAP	6	96	4
NMTAP	6	288	3
NMTAP	7	0	4
NMTAP	7	96	3
NMHLD	7	96	5	384
NMTAP	7	288	4
NMHLD	8	0	3	96
NMHLD	8	192	2	96
NMHLD	8	192	4	96
NMSTR	9	0	3
NMSI_	9	0	3	96	96	0
NMSTR	9	0	4
NMSI_	9	0	4	96	96	7
EXTAP	9	288	0
BXTAP	10	0	1
BXTAP	10	0	7
NMTAP	10	96	2
NMTAP	10	96	3
NMTAP	10	192	5
NMTAP	10	240	5
NMTAP	10	288	4
NMTAP	11	0	7
NMTAP	11	96	4
NMTAP	11	96	5
NMTAP	11	192	2
NMTAP	11	240	2
NMTAP	11	288	3
NMTAP	12	0	5
NMTAP	12	96	6
NMTAP	12	96	7
NMTAP	12	192	1
NMTAP	12	240	1
NMTAP	12	288	0
NMTAP	13	0	1
NMTAP	13	0	7
EXTAP	13	96	2
EXTAP	13	96	6
EXTAP	13	144	2
EXSTR	13	144	6
NMSUL	13	144	6	96	96	2
NMTTP	14	0	2	E	0	M1
NMTTP	14	96	1	E	0	M1
NMTTP	14	192	0	E	0	M1
NMTTP	14	288	7	E	0	M1
NMTTP	15	0	0	C	0	M1
NMTTP	15	96	3	E	0	M1
NMTTP	15	192	4	E	0	M1
NMTTP	15	288	5	B	0	M1
NMTTP	15	288	5	E	0	M1
NMTAP	16	0	6
NMSTR	16	96	6
NMSCR	16	96	6	96	96	1
NMTAP	17	0	2
NMTAP	17	96	2
NMTAP	17	96	3
NMTAP	17	192	4
NMTAP	17	288	3
NMTAP	17	288	5
NMTAP	18	0	6
NMTAP	18	96	4
NMTAP	18	96	5
NMTAP	18	192	2
NMTAP	18	192	3
NMTAP	18	288	1
NMTAP	18	288	4
NMTAP	19	0	5
NMTAP	19	96	6
NMTAP	19	96	7
NMTAP	19	192	0
NMTAP	19	192	1
NMTAP	19	288	2
NMTAP	20	0	2
NMTAP	20	0	3
NMTAP	20	96	1
NMTAP	20	144	1
NMTAP	20	192	0
NMTAP	20	288	6
NMTAP	20	336	6
BRTAP	21	0	7
BRTAP	21	96	7
BRTAP	21	192	1
BRTAP	21	192	5
NMHLD	22	0	4	288
EXHLD	22	0	6	96
NMHLD	22	192	5	96
EXHLD	23	0	2	96
NMHLD	23	0	3	288
NMHLD	23	192	1	96
NMTAP	24	0	1
NMTAP	24	48	1
NMTAP	24	96	0
NMTAP	24	192	6
NMTAP	24	240	6
NMTAP	24	288	7
NMTAP	25	0	0
NMTAP	25	48	0
NMTAP	25	96	7
NMTAP	25	144	7
NMTAP	25	192	0
NMTAP	25	240	7
EXTAP	25	288	1
EXTAP	25	288	6
NMTAP	26	0	4
NMHLD	26	0	5	96
NMTAP	26	96	7
NMTAP	26	144	0
NMHLD	26	192	1	96
NMTAP	26	288	7
NMTAP	26	336	7
NMTAP	27	48	2
NMTAP	27	48	3
NMTAP	27	96	2
NMTAP	27	96	3
NMTAP	27	192	1
NMTAP	27	192	4
NMTAP	27	288	0
NMTAP	27	288	5
EXTAP	28	0	6
EXTAP	28	0	7
EXTAP	28	96	4
EXTAP	28	96	5
NMTAP	28	192	2
NMTAP	28	240	2
NMTAP	28	288	3
NMHLD	28	336	1	96
NMTAP	29	48	0
NMTAP	29	96	0
NMTAP	29	96	1
BXTAP	29	192	2
BXTAP	29	192	7
NMTAP	29	288	4
NMTAP	29	288	5
NMHLD	30	0	2	96
NMTAP	30	0	3
NMTAP	30	96	0
NMTAP	30	144	7
NMHLD	30	192	6	96
NMTAP	30	288	0
NMTAP	30	336	0
NMTAP	31	48	4
NMTAP	31	48	5
NMTAP	31	96	4
NMTAP	31	96	5
NMTAP	31	192	3
NMTAP	31	192	6
NMTAP	31	288	2
NMTAP	31	288	7
EXTAP	32	0	0
EXTAP	32	0	1
EXTAP	32	96	3
EXTAP	32	96	4
NMTAP	32	192	6
NMTAP	32	240	6
NMTAP	32	288	7
NMTAP	33	0	4
NMTAP	33	0	5
NMTAP	33	96	1
NMTAP	33	96	3
NMTAP	33	192	0
NMTAP	33	192	7
NMTAP	33	288	4
NMSTR	33	288	6
NMSCL	33	288	6	96	192	1
NMTTP	34	0	0	C	1	M1
NMSTR	34	288	0
NMSCR	34	288	0	96	192	5
NMHLD	35	0	7	192
NMTAP	35	288	6
NMTAP	35	288	7
NMTAP	36	0	0
NMTAP	36	0	5
NMTAP	36	48	0
NMTAP	36	48	5
NMTAP	36	144	1
NMTAP	36	192	1
NMTAP	36	240	3
NMTAP	36	288	2
NMTAP	36	336	4
NMSTR	37	0	4
NMSF_	37	0	4	96	96	0
NMHLD	38	0	5	384
NMTAP	38	96	4
NMTAP	38	288	4
NMHLD	39	0	2	384
NMTAP	39	96	3
NMTAP	39	288	3
NMHLD	40	0	4	288
NMTAP	40	96	3
NMTAP	40	288	3
NMHLD	41	0	3	72
NMHLD	41	0	5	72
NMHLD	41	144	4	72
NMHLD	41	144	6	72
EXTAP	41	288	4
EXTAP	41	288	6
NMSTR	42	0	5
NMSCR	42	0	5	96	96	0
NMSTR	42	192	1
NMSCR	42	192	1	96	96	4
NMSTR	43	0	6
NMSCR	43	0	6	96	96	1
NMTAP	43	192	2
NMTAP	43	240	2
NMTAP	43	288	2
NMTTP	44	0	7	E	0	M1
NMTTP	44	96	0	C	0	M1
NMTTP	44	192	3	E	0	M1
NMTTP	44	288	2	E	0	M1
NMTTP	45	0	0	C	0	M1
NMTTP	45	96	5	B	0	M1
NMTAP	45	192	7
NMTAP	45	240	7
NMTAP	45	288	7
NMSTR	46	0	0
NMSI_	46	0	0	96	96	3
NMSTR	46	192	4
NMSI_	46	192	4	96	96	7
NMSTR	47	0	1
NMSI_	47	0	1	96	96	4
NMSTR	47	192	5
NMSI_	47	192	5	96	96	0
NMTAP	48	0	1
NMTAP	48	96	2
NMTAP	48	192	3
NMTAP	48	240	3
NMTAP	48	288	3
NMTAP	48	288	4
NMHLD	49	0	6	72
NMHLD	49	72	5	72
NMHLD	49	144	4	72
NMHLD	49	216	3	72
EXTAP	49	288	2
NMHLD	50	0	2	96
NMHLD	50	0	3	96
NMHLD	50	192	3	96
NMHLD	50	192	4	96
NMHLD	51	0	4	96
NMHLD	51	0	5	96
NMHLD	51	192	3	96
NMHLD	51	192	4	96
NMTAP	52	0	2
NMTAP	52	48	2
NMTAP	52	96	3
NMTAP	52	192	6
NMTAP	52	240	6
NMTAP	52	288	4
NMTAP	53	0	1
NMTAP	53	48	1
NMTAP	53	96	0
NMTAP	53	96	1
NMTAP	53	192	6
NMTAP	53	240	6
NMTAP	53	288	6
NMTAP	53	288	7
NMTAP	54	0	3
NMHLD	54	0	4	672
NMSTR	56	0	3
NMSI_	56	0	3	96	192	0
NMSTR	56	0	5
NMSI_	56	0	5	96	192	0
NMSTR	57	0	1
NMSI_	57	0	1	96	192	4
NMSTR	57	0	7
NMSV_	57	0	7	96	192	4
NMHLD	58	0	3	288
NMHLD	58	0	5	288
NMTAP	58	336	2
NMTAP	58	336	4
NMHLD	59	0	2	288
NMHLD	59	0	4	288
EXTAP	59	336	3
EXTAP	59	336	5
EXTAP	60	0	3
EXTAP	60	0	5
NMHLD	60	96	6	96
NMHLD	60	192	7	96
NMHLD	60	288	0	96
BRSTR	61	0	1
NMSXR	61	0	1	96	288	4
NMTAP	62	192	3
NMTAP	62	192	4
BRSTR	62	288	0
BRSCR	62	288	0	96	96	3
BRSTR	62	288	7
BRSCL	62	288	7	96	96	4
NMTAP	63	192	2
NMTAP	63	240	2
NMTAP	63	288	4
NMTAP	63	336	4
BRTAP	64	0	0
BRTAP	64	96	2
BRTAP	64	96	3
NMTAP	64	192	4
NMHLD	64	192	5	96
NMTAP	64	288	7
NMTAP	64	336	0
NMHLD	65	0	1	96
NMTAP	65	0	3
NMTAP	65	96	0
NMTAP	65	144	7
NMTAP	65	192	6
NMTAP	65	240	6
NMTAP	65	288	0
NMTAP	65	336	0
NMTAP	66	0	3
NMTAP	66	48	3
NMTAP	66	96	2
NMTAP	66	96	4
NMTAP	66	192	0
NMHLD	66	192	1	96
NMTAP	66	288	3
NMTAP	66	336	4
NMHLD	67	0	5	96
NMTAP	67	96	3
NMTAP	67	144	3
NMTAP	67	240	6
NMTAP	67	240	7
NMTAP	67	288	6
NMTAP	67	288	7
NMTAP	68	0	0
NMTAP	68	0	5
NMTAP	68	96	1
NMTAP	68	96	4
EXTAP	68	192	2
EXTAP	68	192	3
EXTAP	68	288	4
EXTAP	68	288	5
NMTAP	69	0	6
NMTAP	69	48	6
NMTAP	69	96	7
NMTAP	69	144	5
NMTAP	69	192	0
NMTAP	69	240	0
NMTAP	69	288	7
NMTAP	69	336	7
NMTAP	70	0	1
NMTAP	70	0	6
NMSTR	70	96	2
NMSCL	70	96	2	96	192	5
NMTAP	70	96	5
NMTTP	70	192	0	C	1	M1
NMTAP	71	96	2
NMSTR	71	96	5
BRSCR	71	96	5	96	192	2
NMTTP	71	192	0	C	1	M1
NMTAP	72	96	2
NMTAP	72	96	3
NMTAP	72	192	1
NMTAP	72	192	4
NMTAP	72	240	1
NMTAP	72	240	4
NMTAP	72	336	0
NMTAP	72	336	7
NMTAP	73	0	0
NMTAP	73	0	7
NMSTR	73	96	2
NMSLR	73	96	2	96	192	0
NMSTR	73	96	5
NMSLL	73	96	5	96	192	7
BRTAP	74	96	1
BRTAP	74	96	6

T_REC_TAP	217
T_REC_BRK	9
T_REC_XTP	25
T_REC_BXX	4
T_REC_HLD	50
T_REC_XHO	2
T_REC_BHO	0
T_REC_BXH	0
T_REC_STR	21
T_REC_BST	3
T_REC_XST	1
T_REC_XBS	0
T_REC_TTP	18
T_REC_THO	0
T_REC_SLD	22
T_REC_BSL	3
T_REC_ALL	375
T_NUM_TAP	282
T_NUM_BRK	19
T_NUM_HLD	52
T_NUM_SLD	22
T_NUM_ALL	375
T_JUDGE_TAP	298
T_JUDGE_HLD	192
T_JUDGE_SLD	25
T_JUDGE_ALL	515
TTM_EACHPAIRS	88
TTM_SCR_TAP	141000
TTM_SCR_BRK	49400
TTM_SCR_HLD	52000
TTM_SCR_SLD	33000
TTM_SCR_ALL	275400
TTM_SCR_S	265300
TTM_SCR_SS	273500
TTM_RAT_ACV	10069

