VERSION	0.00.00	1.04.00
FES_MODE	0
BPM_DEF	125.000	125.000	125.000	125.000
MET_DEF	4	4
RESOLUTION	384
CLK_DEF	384
COMPATIBLE_CODE	MA2

BPM	0	0	125.000
MET	0	0	4	4

NMTAP	1	192	2
NMTAP	1	208	3
NMTAP	1	224	4
NMTAP	1	240	5
NMHLD	1	256	3	64
NMTAP	1	320	4
NMTAP	1	336	4
NMTAP	2	0	5
NMTAP	2	32	4
NMTAP	2	32	6
NMTAP	2	80	2
NMTAP	2	96	3
NMTAP	2	144	0
NMTAP	2	176	1
NMTAP	2	176	7
NMTAP	2	224	5
NMTAP	2	240	4
NMTAP	2	288	3
NMTAP	2	288	6
NMTAP	3	0	2
NMTAP	3	32	1
NMTAP	3	32	3
NMTAP	3	80	5
NMTAP	3	96	4
NMTAP	3	144	7
NMTAP	3	176	0
NMTAP	3	176	6
NMTAP	3	224	5
NMTAP	3	240	4
NMTAP	3	288	0
NMTAP	3	320	0
NMTAP	3	336	7
NMTAP	3	368	7
NMTAP	4	0	2
NMTAP	4	32	1
NMTAP	4	32	3
NMTAP	4	80	5
NMTAP	4	96	4
NMTAP	4	144	7
NMTAP	4	176	0
NMTAP	4	176	6
NMTAP	4	224	2
NMTAP	4	240	3
NMTAP	4	288	1
NMTAP	4	288	4
NMTAP	5	0	5
NMTAP	5	32	4
NMTAP	5	32	6
NMTAP	5	80	2
NMTAP	5	96	3
NMTAP	5	144	1
NMTAP	5	144	3
NMTAP	5	192	3
NMSTR	5	192	4
NMSI_	5	192	4	96	32	1
NMSV_	5	192	4	96	48	7
BRTAP	5	288	4
CNSCL	5	320	1	0	16	0
EXTAP	6	0	1
EXHLD	6	0	6	96
NMTAP	6	48	7
NMHLD	6	96	0	96
NMTAP	6	144	7
NMTAP	6	192	6
NMTAP	6	224	6
NMTAP	6	272	4
NMTAP	6	272	5
NMTAP	6	320	3
NMTAP	6	320	4
NMTAP	6	368	2
NMTAP	7	0	3
NMTAP	7	48	1
NMTAP	7	48	4
NMTAP	7	96	2
NMSTR	7	96	5
NMSI_	7	96	5	96	48	2
NMTAP	7	144	3
NMTAP	7	144	6
NMSTR	7	192	5
NMSI_	7	192	5	96	48	0
NMTAP	7	288	4
NMSTR	7	288	5
NMSCL	7	288	5	96	144	6
NMTTP	8	0	0	C	1	M1
NMTAP	8	192	4
NMTAP	8	240	3
NMTAP	8	240	5
NMTAP	8	288	3
NMTAP	8	288	5
NMTAP	9	0	0
NMTAP	9	0	1
NMTAP	9	48	0
NMTAP	9	48	7
NMSTR	9	96	6
NMSI_	9	96	6	96	48	2
NMSTR	9	96	7
NMSI_	9	96	7	96	48	2
NMTAP	9	128	6
NMTAP	9	128	7
NMSTR	9	192	6
NMSI_	9	192	6	96	48	4
NMSTR	9	192	7
NMSI_	9	192	7	96	48	4
NMTAP	9	288	6
NMTAP	9	288	7
NMHLD	10	0	1	96
NMTAP	10	0	6
NMTAP	10	48	0
NMHLD	10	96	7	96
NMTAP	10	144	0
NMTAP	10	192	1
NMTAP	10	224	1
NMTAP	10	272	2
NMTAP	10	272	3
NMTAP	10	320	3
NMTAP	10	320	4
NMTAP	10	368	5
NMTAP	11	0	4
NMTAP	11	48	3
NMTAP	11	48	6
NMSTR	11	96	2
NMSI_	11	96	2	96	48	6
NMTAP	11	96	5
NMTAP	11	144	1
NMTAP	11	144	4
NMSTR	11	192	2
NMSI_	11	192	2	96	48	7
NMSTR	11	288	2
NMSCR	11	288	2	96	144	1
NMTAP	11	288	3
NMTTP	12	0	0	C	1	M1
NMTAP	12	192	3
NMTAP	12	240	2
NMTAP	12	240	4
NMTAP	12	288	2
NMTAP	12	288	4
NMTAP	13	0	6
NMTAP	13	0	7
NMTAP	13	48	0
NMTAP	13	48	5
NMTAP	13	80	0
NMTAP	13	80	5
NMTAP	13	128	2
NMTAP	13	144	3
NMTAP	13	192	1
NMTAP	13	192	4
NMTAP	13	288	4
NMTAP	13	288	5
NMSTR	14	0	6
NMSCL	14	0	6	96	48	3
NMSTR	14	48	3
NMSUR	14	48	3	96	48	7
NMTAP	14	96	2
NMTAP	14	144	1
NMSTR	14	192	1
NMSCR	14	192	1	96	48	4
NMSTR	14	240	4
NMSUL	14	240	4	96	48	0
NMTAP	14	288	5
NMTAP	14	336	6
NMSTR	15	0	6
NMSCR	15	0	6	96	48	1
NMTAP	15	48	0
NMSTR	15	96	2
NMSXL	15	96	2	96	96	1
NMTAP	15	144	2
NMTAP	15	192	6
NMTAP	15	336	3
NMSTR	15	336	7
NMSI_	15	336	7	96	48	3
NMSTR	16	0	3
NMSI_	16	0	3	96	48	7
NMTAP	16	0	7
NMTAP	16	48	2
NMSTR	16	96	1
NMSI_	16	96	1	96	48	5
NMTAP	16	144	1
NMHLD	16	192	6	96
CNSCL	16	240	5	0	48	2
NMSTR	16	336	0
NMSI_	16	336	0	96	48	5
NMTAP	16	336	5
NMTAP	17	0	0
NMSTR	17	0	5
NMSI_	17	0	5	96	48	1
NMTAP	17	48	6
NMSTR	17	96	7
NMSI_	17	96	7	96	48	3
NMTAP	17	144	7
NMHLD	17	192	2	96
CNSXL	17	240	3	0	48	4
NMSTR	18	0	1
NMSCR	18	0	1	96	48	4
NMSTR	18	48	4
NMSXR	18	48	4	96	48	2
NMTAP	18	96	5
NMTAP	18	144	6
NMSTR	18	192	6
NMSCL	18	192	6	96	48	3
NMSTR	18	240	3
NMSXL	18	240	3	96	48	5
NMTAP	18	288	2
NMTAP	18	336	1
NMSTR	19	0	1
NMSI_	19	0	1	96	48	5
NMTAP	19	48	4
NMSTR	19	96	3
NMSUR	19	96	3	96	48	7
NMTAP	19	144	2
BRTAP	19	192	1
NMSTR	19	288	0
NMSI_	19	288	0	96	32	4
NMSTR	20	0	0
NMSI_	20	0	0	96	32	4
CNSI_	20	32	4	0	16	2
NMSTR	20	96	0
NMSI_	20	96	0	96	32	4
CNSI_	20	128	4	0	16	6
NMSTR	20	192	0
NMSI_	20	192	0	96	32	4
CNSI_	20	224	4	0	16	1
NMSTR	20	288	0
BRSI_	20	288	0	96	24	4
CNSI_	20	320	4	0	16	7
NMSTR	21	0	0
BRSXL	21	0	0	96	96	4
BRSXR	21	0	0	96	96	4
CNSI_	21	24	4	0	24	0
NMTTP	21	288	4	B	0	M1
NMTTP	21	288	4	E	0	M1
NMTTP	21	288	5	E	0	M1
NMSTR	22	0	0
NMSCR	22	0	0	96	48	4
NMTAP	22	96	0
NMTAP	22	96	5
NMTAP	22	192	6
NMTAP	22	240	3
NMTAP	22	240	5
NMTAP	22	272	3
NMTAP	22	272	5
NMTAP	22	320	1
NMTAP	22	368	1
NMSTR	23	0	3
NMSCR	23	0	3	96	48	7
NMTAP	23	96	2
NMTAP	23	96	3
NMTAP	23	192	4
NMTAP	23	192	5
NMTAP	23	240	4
NMTAP	23	240	5
NMSTR	23	288	6
NMSI_	23	288	6	96	48	1
NMTAP	23	336	5
NMSTR	24	0	4
NMSI_	24	0	4	96	48	7
NMTAP	24	0	6
NMTAP	24	48	3
NMSTR	24	96	2
NMSI_	24	96	2	96	48	5
NMTAP	24	96	4
NMTAP	24	144	1
NMSTR	24	192	0
NMSI_	24	192	0	96	48	3
NMTAP	24	192	2
NMTAP	24	240	7
NMTAP	24	288	0
NMSTR	24	288	6
NMSI_	24	288	6	96	48	2
NMTAP	24	336	5
NMHLD	25	0	1	96
NMTAP	25	0	6
NMSTR	25	96	3
NMSI_	25	96	3	96	48	0
NMTAP	25	112	4
NMTAP	25	128	5
NMTAP	25	144	6
NMTAP	25	192	6
NMTAP	25	240	7
EXTAP	25	288	0
EXTAP	25	288	7
NMTAP	25	336	5
NMTAP	25	368	5
NMTAP	26	0	3
NMTAP	26	48	2
NMTAP	26	48	6
NMTAP	26	96	2
NMTAP	26	96	6
NMSTR	26	192	1
NMSI_	26	192	1	96	48	6
NMSTR	26	192	5
NMSI_	26	192	5	96	48	2
NMTAP	26	240	2
NMTAP	26	240	6
NMTAP	26	288	1
NMTAP	26	288	5
NMSTR	27	0	0
NMSCR	27	0	0	96	48	3
NMSTR	27	0	7
NMSCL	27	0	7	96	48	4
NMTAP	27	48	3
NMTAP	27	48	4
NMSTR	27	96	0
NMSI_	27	96	0	96	48	4
NMSTR	27	96	7
NMSI_	27	96	7	96	48	3
NMTAP	27	192	0
NMTAP	27	192	7
NMTAP	27	288	2
NMTAP	27	288	5
NMTAP	27	336	0
NMTAP	27	336	7
NMTAP	28	0	0
NMTAP	28	0	7
NMTAP	28	48	4
NMTAP	28	80	3
NMTAP	28	80	5
NMTAP	28	128	6
NMTAP	28	144	6
NMTAP	28	144	7
NMTAP	28	192	3
NMTAP	28	224	2
NMTAP	28	224	4
NMTAP	28	272	1
NMTAP	28	288	0
NMSTR	28	288	1
NMSCR	28	288	1	96	96	6
NMTAP	28	336	6
NMTAP	28	336	7
NMTTP	29	0	0	C	1	M1
EXTAP	29	192	0
EXTAP	29	192	6
NMSTR	29	288	1
NMSI_	29	288	1	96	48	6
NMSTR	29	288	5
NMSI_	29	288	5	96	48	2
BRTAP	30	0	1
BRTAP	30	0	5
NMTTP	30	96	0	A	0	M1
NMTTP	30	96	1	E	0	M1
NMTTP	30	96	1	D	0	M1
NMTTP	30	96	4	A	1	M1
NMTTP	30	96	5	E	0	M1
NMTTP	30	96	5	D	0	M1
NMTAP	30	192	5
NMTAP	30	224	5
NMTAP	30	272	0
NMTAP	30	272	7
NMTAP	30	320	2
NMSTR	30	336	3
NMSI_	30	336	3	96	48	6
NMTAP	31	0	1
NMSTR	31	0	4
NMSI_	31	0	4	96	48	0
NMTAP	31	48	3
NMTAP	31	96	4
NMTAP	31	192	1
NMTAP	31	224	1
NMTAP	31	240	3
NMTAP	31	272	3
NMTAP	31	288	4
NMTAP	31	320	4
NMTAP	31	336	6
NMTAP	31	368	6
NMSTR	32	0	1
NMSI_	32	0	1	96	48	4
NMTAP	32	48	0
NMTAP	32	96	1
NMSTR	32	96	7
NMSI_	32	96	7	96	48	2
NMTAP	32	144	6
NMSTR	32	192	5
NMSI_	32	192	5	96	48	0
NMTAP	32	192	7
NMTAP	32	240	4
NMSTR	32	288	3
NMSUR	32	288	3	96	96	4
NMTAP	32	288	5
CNSCR	33	96	4	0	96	2
NMTAP	33	240	4
NMTAP	33	288	3
NMTAP	33	288	5
NMTAP	33	336	2
NMTAP	33	336	6
NMSTR	34	0	0
NMSI_	34	0	0	96	48	2
NMSV_	34	0	0	96	48	3
NMSTR	34	96	0
NMSI_	34	96	0	96	48	6
NMSV_	34	96	0	96	48	5
NMSTR	34	192	0
NMSI_	34	192	0	96	48	3
NMSCR	34	192	0	96	32	1
NMSTR	34	288	0
NMSI_	34	288	0	96	48	5
NMSCL	34	288	0	96	32	7
CNSV_	34	320	1	0	16	3
NMSTR	35	0	0
NMSI_	35	0	0	96	48	3
NMSCR	35	0	0	96	16	1
CNSV_	35	32	7	0	16	5
NMSTR	35	96	0
NMSI_	35	96	0	96	48	5
NMSCL	35	96	0	96	16	7
CNSV_	35	112	1	0	32	3
NMTAP	35	192	0
CNSV_	35	208	7	0	32	5
EXTAP	35	288	2
EXTAP	35	288	4
NMTAP	35	336	0
NMTAP	36	0	4
NMTAP	36	0	6
NMTAP	36	48	7
NMTAP	36	96	1
NMTAP	36	96	3
NMTAP	36	144	5
NMTAP	36	192	6
NMTAP	36	192	7
NMSTR	36	240	3
NMSCR	36	240	3	96	144	1
NMTAP	36	288	0
NMTAP	36	288	1
NMTAP	37	192	3
NMTAP	37	192	4
NMSTR	37	288	0
NMSI_	37	288	0	96	48	4
NMSTR	37	288	1
NMSI_	37	288	1	96	48	3
NMTAP	37	336	0
NMTAP	37	336	7
NMTAP	38	0	0
NMTAP	38	0	1
NMSTR	38	96	6
BRSI_	38	96	6	96	48	4
NMSTR	38	96	7
BRSI_	38	96	7	96	48	3
NMTAP	38	144	0
NMTAP	38	144	7
NMTAP	38	192	6
NMTAP	38	192	7
NMTAP	38	288	0
NMTAP	38	288	7
NMTAP	38	336	6
NMTAP	39	0	4
NMTAP	39	0	6
NMTAP	39	48	1
NMSTR	39	80	3
NMSCL	39	80	3	96	112	4
NMTAP	39	128	5
NMTAP	39	144	4
NMTTP	39	192	0	C	1	M1
NMTAP	40	0	1
NMTAP	40	0	3
NMTAP	40	48	1
NMTAP	40	48	3
NMTAP	40	96	2
NMTAP	40	128	2
NMTAP	40	144	4
NMTAP	40	176	1
NMTAP	40	176	5
NMTAP	40	240	2
NMTAP	40	240	7
NMTAP	40	288	6
NMTAP	40	320	6
NMTAP	40	336	4
NMTAP	40	368	3
NMTAP	40	368	7
NMTAP	41	48	0
NMTAP	41	48	5
NMTAP	41	96	1
NMTAP	41	128	1
NMTAP	41	144	3
NMTAP	41	176	0
NMTAP	41	176	4
NMTAP	41	240	3
NMTAP	41	240	6
NMTAP	41	288	5
NMTAP	41	320	5
NMTAP	41	336	4
NMTAP	41	368	4
NMTAP	42	0	6
NMTAP	42	48	4
NMTAP	42	48	6
NMTAP	42	96	5
NMTAP	42	128	5
NMTAP	42	144	3
NMTAP	42	176	2
NMTAP	42	176	6
NMTAP	42	240	0
NMTAP	42	240	1
NMTAP	42	288	1
NMTAP	42	320	1
NMTAP	42	336	3
NMTAP	42	368	0
NMTAP	42	368	4
NMTAP	43	48	6
NMTAP	43	48	7
NMTAP	43	96	6
NMTAP	43	128	6
NMTAP	43	144	4
NMTAP	43	176	3
NMTAP	43	176	7
NMTAP	43	240	1
NMTAP	43	240	5
NMSTR	43	288	1
NMSUR	43	288	1	96	48	5
NMTAP	43	288	5
NMTAP	44	0	6
CNSUL	44	48	5	0	48	1
NMTAP	44	48	7
NMSTR	44	96	0
NMSUR	44	96	0	96	48	4
NMTAP	44	144	0
NMTAP	44	192	5
CNSUL	44	240	4	0	48	0
NMTAP	44	240	6
NMSTR	44	288	7
NMSUR	44	288	7	96	48	3
NMTAP	44	336	7
NMTAP	45	0	4
CNSUL	45	48	3	0	48	7
NMTAP	45	48	5
NMSTR	45	96	6
NMSUR	45	96	6	96	48	2
NMTAP	45	144	6
NMTAP	45	192	3
CNSUL	45	240	2	0	48	6
NMTAP	45	240	4
NMSTR	45	288	5
NMSUR	45	288	5	96	48	1
NMTAP	45	336	5
NMTAP	46	0	2
CNSUL	46	48	1	0	48	5
NMTAP	46	48	3
NMTAP	46	96	4
NMTAP	46	144	4
NMTAP	46	192	1
NMTAP	46	240	1
NMHLD	46	288	2	80
NMTAP	46	288	4
EXTAP	46	368	3
NMTAP	47	32	3
NMTAP	47	48	4
NMTAP	47	64	5
NMTAP	47	80	6
NMTAP	47	96	7
NMTAP	47	112	0
NMTAP	47	128	1
NMTAP	47	144	2
NMTAP	47	160	3
NMTAP	47	176	4
NMTAP	47	240	1
NMTAP	47	240	6
NMTTP	47	288	3	B	0	M1
NMTTP	47	288	4	B	0	M1
NMTTP	47	288	4	E	1	M1
NMHLD	48	0	5	48
NMHLD	48	0	7	48
NMHLD	48	96	0	48
NMHLD	48	96	2	48
NMSTR	48	192	4
NMSI_	48	192	4	96	48	0
NMTAP	48	192	6
NMTAP	48	272	5
NMTAP	48	288	4
NMSTR	48	336	5
NMSCL	48	336	5	96	240	7
NMTTP	49	48	7	E	0	M1
NMTTP	49	96	0	E	0	M1
NMTTP	49	144	1	E	0	M1
NMTTP	49	192	2	E	0	M1
NMTTP	49	240	3	E	0	M1
NMTTP	49	288	4	E	0	M1
EXTAP	50	0	5
NMTAP	50	48	6
NMTAP	50	48	7
NMTAP	50	80	6
NMTAP	50	80	7
NMTAP	50	128	3
NMTAP	50	144	4
NMTAP	50	192	2
NMTAP	50	240	0
NMTAP	50	240	1
NMTAP	50	272	0
NMTAP	50	272	1
NMTAP	50	320	7
NMTAP	50	336	0
NMSTR	50	368	0
NMSCR	50	368	0	96	48	3
NMTAP	51	48	4
NMTAP	51	64	5
NMTAP	51	80	6
NMTAP	51	96	7
EXTAP	51	144	5
NMTAP	51	192	3
NMTAP	51	192	6
NMTAP	51	224	2
NMTAP	51	256	2
NMTAP	51	288	1
NMTAP	51	288	4
NMTAP	51	320	5
NMTAP	51	352	5
NMHLD	52	0	3	48
NMHLD	52	0	6	48
NMHLD	52	96	1	48
NMHLD	52	96	4	48
NMTAP	52	192	2
NMTAP	52	192	5
NMTAP	52	272	1
NMSTR	52	288	3
NMSI_	52	288	3	96	48	0
NMTAP	52	320	6
NMTAP	52	336	4
NMTAP	53	0	3
NMSTR	53	0	7
NMSI_	53	0	7	96	48	4
NMSTR	53	96	3
NMSF_	53	96	3	96	48	7
NMTAP	53	96	7
NMTAP	53	192	3
NMTAP	53	288	0
NMTAP	53	288	6
NMTAP	53	336	1
NMTAP	54	0	2
NMTAP	54	0	7
NMTAP	54	32	5
NMTAP	54	64	5
NMTAP	54	96	4
NMTAP	54	96	7
NMTAP	54	128	1
NMTAP	54	160	1
NMTAP	54	192	2
NMTAP	54	192	7
NMTAP	54	224	5
NMTAP	54	256	5
NMSTR	54	288	4
NMSXL	54	288	4	96	144	7
NMSXR	54	288	4	96	144	1
NMTAP	54	288	7
NMTAP	54	320	1
NMTAP	54	352	1
NMTTP	55	192	1	A	0	M1
NMTTP	55	192	2	A	0	M1
NMTTP	55	192	2	D	0	M1
NMTTP	55	192	5	A	0	M1
NMTTP	55	192	6	A	0	M1
NMTTP	55	192	6	D	0	M1
BRTAP	55	288	3
BRTAP	55	288	4
BRSTR	56	0	2
BRSI_	56	0	2	96	48	0
BRSTR	56	0	5
BRSI_	56	0	5	96	48	7
NMTAP	56	192	1
NMTAP	56	192	6
NMTAP	56	288	3
NMTAP	56	288	4
NMTAP	57	0	2
NMTAP	57	0	6
NMTAP	57	48	1
NMTAP	57	48	5
NMTAP	57	80	1
NMTAP	57	80	5
NMTAP	57	128	7
NMTAP	57	136	6
NMTAP	57	144	5
NMTAP	57	152	4
NMTAP	57	160	3
NMTAP	57	168	2
NMTAP	57	176	1
NMTAP	57	184	0
NMSTR	57	192	7
NMSF_	57	192	7	96	48	3
BRTAP	57	240	1
BRTAP	57	240	5
NMSTR	58	0	6
NMSI_	58	0	6	96	48	3
NMTAP	58	48	7
NMSTR	58	96	0
NMSI_	58	96	0	96	48	5
NMTAP	58	96	6
NMTAP	58	144	1
NMTAP	58	192	0
NMSTR	58	192	2
NMSI_	58	192	2	96	48	7
NMTAP	58	240	3
NMTAP	58	288	2
NMSTR	58	288	4
NMSUL	58	288	4	96	96	3
CNSCL	59	96	3	0	96	6
NMTAP	59	240	2
NMTAP	59	240	3
NMTAP	59	288	1
NMTAP	59	288	4
NMTAP	59	336	0
NMTAP	59	336	5
NMSTR	60	0	6
NMSV_	60	0	6	96	48	4
NMSTR	60	0	7
NMSI_	60	0	7	96	48	3
NMSTR	60	96	6
NMSI_	60	96	6	96	48	2
NMSTR	60	96	7
NMSV_	60	96	7	96	48	1
NMSTR	60	192	6
NMSV_	60	192	6	96	48	3
NMSTR	60	192	7
NMSCL	60	192	7	96	48	4
NMSTR	60	288	6
NMSCR	60	288	6	96	48	1
NMSTR	60	288	7
NMSV_	60	288	7	96	48	2
NMSTR	61	0	6
NMSI_	61	0	6	96	48	3
NMSTR	61	0	7
NMSCL	61	0	7	96	32	5
NMSTR	61	96	6
NMSCR	61	96	6	96	32	0
NMSTR	61	96	7
NMSI_	61	96	7	96	48	2
CNSV_	61	128	5	0	16	3
NMTAP	61	192	6
NMTAP	61	192	7
CNSV_	61	224	0	0	16	2
EXTAP	61	288	4
EXTAP	61	288	5
NMSTR	61	336	7
NMSI_	61	336	7	96	48	3
NMSTR	62	0	3
NMSI_	62	0	3	96	48	7
NMTAP	62	48	2
NMTAP	62	96	1
NMSTR	62	144	1
NMSI_	62	144	1	96	48	5
NMSTR	62	192	5
NMSI_	62	192	5	96	48	1
NMTAP	62	240	6
NMTAP	62	288	7
NMTAP	62	336	7
NMSTR	63	0	6
NMSCL	63	0	6	96	48	3
NMSTR	63	96	2
NMSCL	63	96	2	96	48	7
NMTAP	63	192	4
NMTAP	63	240	5
NMSTR	63	288	6
NMSI_	63	288	6	96	48	4
NMSTR	63	288	7
NMSI_	63	288	7	96	48	3
NMTAP	63	336	2
NMTAP	63	336	3
NMTAP	64	0	6
NMTAP	64	0	7
NMSTR	64	96	0
BRSI_	64	96	0	96	48	4
NMSTR	64	96	1
BRSI_	64	96	1	96	48	3
NMTAP	64	144	4
NMTAP	64	144	5
NMTAP	64	192	0
NMTAP	64	192	1
NMTAP	64	288	0
NMTAP	64	288	7
NMTAP	64	336	1
NMTAP	65	0	1
NMTAP	65	0	3
NMTAP	65	48	6
NMSTR	65	80	4
NMSCR	65	80	4	96	112	3
NMTAP	65	128	2
NMTAP	65	144	3
NMTTP	65	192	0	C	1	M1
NMTAP	66	0	6
NMTAP	66	32	5
NMTAP	66	32	7
NMTAP	66	80	1
NMTAP	66	96	3
NMTAP	66	144	0
NMTAP	66	176	1
NMTAP	66	176	7
NMTAP	66	224	5
NMTAP	66	240	3
NMTAP	66	288	0
NMTAP	66	304	6
NMTAP	66	320	2
NMTAP	66	336	0
NMTAP	67	0	1
NMTAP	67	32	0
NMTAP	67	32	2
NMTAP	67	80	6
NMTAP	67	96	4
NMTAP	67	144	7
NMTAP	67	176	0
NMTAP	67	176	6
NMTAP	67	224	5
NMTAP	67	240	3
NMTAP	67	288	0
NMTAP	67	320	0
NMTAP	67	336	4
NMTAP	67	368	4
NMTAP	68	0	2
NMTAP	68	32	1
NMTAP	68	32	3
NMTAP	68	80	5
NMTAP	68	96	4
NMTAP	68	144	7
NMTAP	68	176	0
NMTAP	68	176	6
NMTAP	68	224	2
NMTAP	68	240	3
NMTAP	68	288	7
NMTAP	68	304	1
NMTAP	68	320	5
NMTAP	68	336	7
NMTAP	69	0	6
NMTAP	69	32	5
NMTAP	69	32	7
NMTAP	69	80	1
NMTAP	69	96	3
NMTAP	69	144	2
NMTAP	69	144	4
BRSTR	69	192	1
NMSV_	69	192	1	96	48	4
NMSTR	69	192	5
NMSV_	69	192	5	96	48	0
NMTAP	69	240	0
NMTAP	69	240	6
CNSXR	69	336	0	0	48	6
CNSXR	69	336	4	0	48	2

T_REC_TAP	502
T_REC_BRK	8
T_REC_XTP	12
T_REC_BXX	0
T_REC_HLD	16
T_REC_XHO	1
T_REC_BHO	0
T_REC_BXH	0
T_REC_STR	111
T_REC_BST	3
T_REC_XST	0
T_REC_XBS	0
T_REC_TTP	29
T_REC_THO	0
T_REC_SLD	114
T_REC_BSL	9
T_REC_ALL	805
T_NUM_TAP	654
T_NUM_BRK	20
T_NUM_HLD	17
T_NUM_SLD	114
T_NUM_ALL	805
T_JUDGE_TAP	665
T_JUDGE_HLD	26
T_JUDGE_SLD	123
T_JUDGE_ALL	814
TTM_EACHPAIRS	174
TTM_SCR_TAP	327000
TTM_SCR_BRK	52000
TTM_SCR_HLD	17000
TTM_SCR_SLD	171000
TTM_SCR_ALL	567000
TTM_SCR_S	548050
TTM_SCR_SS	565000
TTM_RAT_ACV	10035

