VERSION	0.00.00	1.04.00
FES_MODE	0
BPM_DEF	125.000	125.000	125.000	125.000
MET_DEF	4	4
RESOLUTION	384
CLK_DEF	384
COMPATIBLE_CODE	MA2

BPM	0	0	125.000
MET	0	0	4	4

NMHLD	1	192	2	64
NMHLD	1	192	3	144
NMTAP	2	0	2
NMTAP	2	0	3
NMTAP	2	96	1
NMTAP	2	96	4
EXTAP	2	176	2
EXTAP	2	224	2
EXTAP	2	240	3
EXTAP	2	288	2
EXTAP	2	288	3
EXTAP	2	368	5
EXTAP	3	32	5
EXTAP	3	48	4
EXTAP	3	96	4
EXTAP	3	96	5
EXTAP	3	176	2
EXTAP	3	224	2
EXTAP	3	240	3
EXTAP	3	288	2
EXTAP	3	288	3
NMTAP	4	0	5
NMTAP	4	96	4
NMTAP	4	96	6
NMTAP	4	176	2
NMTAP	4	224	2
NMTAP	4	240	3
NMTAP	4	288	2
NMTAP	4	288	3
NMTAP	4	368	5
NMTAP	5	32	5
NMTAP	5	48	4
NMTAP	5	96	4
NMTAP	5	96	5
NMTAP	5	176	3
NMHLD	5	224	3	64
NMHLD	5	240	4	48
NMTAP	6	0	1
NMTAP	6	48	1
NMTAP	6	96	2
NMTAP	6	96	3
NMTAP	6	144	2
NMTAP	6	144	3
NMTAP	6	192	4
NMTAP	6	240	5
NMTAP	6	288	4
NMTAP	6	288	6
NMTAP	6	336	4
NMTAP	6	336	6
NMTAP	7	0	5
NMTAP	7	48	4
NMTAP	7	96	3
NMTAP	7	144	2
NMTAP	7	192	0
NMTAP	7	192	1
NMTAP	7	288	2
NMTAP	7	288	3
NMSTR	8	0	4
NMSCR	8	0	4	96	192	3
NMTAP	8	0	5
NMTAP	9	0	2
NMTAP	9	0	5
NMTAP	9	48	1
NMTAP	9	48	6
NMTAP	9	96	0
NMTAP	9	96	7
BRTAP	9	192	0
BRTAP	9	192	1
BRTAP	9	288	6
BRTAP	9	288	7
NMTAP	10	0	6
NMTAP	10	48	6
NMTAP	10	96	4
NMTAP	10	96	5
NMTAP	10	144	4
NMTAP	10	144	5
NMTAP	10	192	3
NMTAP	10	240	2
NMTAP	10	288	1
NMTAP	10	288	3
NMTAP	10	336	1
NMTAP	10	336	3
NMTAP	11	0	2
NMTAP	11	48	3
NMTAP	11	96	4
NMTAP	11	144	5
NMTAP	11	192	6
NMTAP	11	192	7
NMTAP	11	288	4
NMTAP	11	288	5
NMTAP	12	0	2
NMSTR	12	0	3
NMSF_	12	0	3	96	96	7
NMTTP	13	0	2	B	0	M1
NMTTP	13	0	3	B	0	M1
NMTTP	13	96	4	B	0	M1
NMTTP	13	96	5	B	0	M1
NMTTP	13	192	0	B	0	M1
NMTTP	13	192	1	E	0	M1
NMTTP	13	192	7	B	1	M1
NMTTP	13	192	7	E	0	M1
NMHLD	14	0	2	672
NMTAP	14	0	3
NMTAP	14	96	3
NMTAP	14	192	4
NMTAP	14	288	4
NMTAP	15	0	3
NMTAP	15	96	3
NMTAP	15	192	4
NMTAP	15	288	4
NMTAP	16	0	4
NMHLD	16	0	5	672
NMTAP	16	96	4
NMTAP	16	192	3
NMTAP	16	288	3
NMSTR	17	0	4
NMSUL	17	0	4	96	192	2
NMHLD	18	0	1	480
NMTAP	18	0	3
NMTAP	18	96	3
NMTAP	18	192	2
NMTAP	18	240	2
NMTAP	18	288	2
NMTAP	19	0	0
NMTAP	19	96	0
NMTAP	19	192	7
NMTAP	19	240	7
NMTAP	19	288	0
NMTAP	19	288	6
NMHLD	20	0	5	96
NMHLD	20	96	7	96
NMHLD	20	192	0	96
NMHLD	20	288	2	96
NMHLD	21	0	4	96
NMTAP	21	96	3
BRTAP	21	192	1
BRTAP	21	192	6
NMSTR	22	0	2
NMSLL	22	0	2	96	192	5
NMHLD	22	0	3	288
NMHLD	23	0	4	288
NMSTR	23	0	6
NMSLL	23	0	6	96	192	1
NMSTR	24	0	7
NMSI_	24	0	7	96	48	5
NMTAP	24	96	4
NMSTR	24	192	3
NMSI_	24	192	3	96	48	1
NMTAP	24	288	0
NMSTR	25	0	0
NMSUR	25	0	0	96	96	4
NMSTR	25	0	7
NMSUL	25	0	7	96	96	3
NMTAP	25	288	3
NMTAP	25	288	4
NMHLD	26	0	4	192
NMSTR	26	0	5
NMSV_	26	0	5	96	96	2
NMTAP	26	288	1
NMTAP	26	288	3
NMSTR	27	0	2
NMSV_	27	0	2	96	96	5
NMSTR	27	0	3
NMSV_	27	0	3	96	96	5
NMTAP	27	288	4
NMTAP	27	288	6
NMTAP	28	0	6
NMTAP	28	48	6
NMTAP	28	96	4
NMTAP	28	144	4
NMTAP	28	192	3
NMTAP	28	240	3
NMTAP	28	288	1
NMTAP	28	336	1
NMSTR	29	0	0
NMSCL	29	0	0	96	96	4
NMSCR	29	0	0	96	96	4
NMTAP	29	288	3
NMTAP	29	288	4
NMTAP	30	0	2
NMTAP	30	0	5
BRTAP	30	96	3
BRTAP	30	96	7
NMHLD	30	192	6	72
NMHLD	30	264	5	72
EXTAP	30	336	4
EXSTR	31	0	4
NMSI_	31	0	4	96	48	1
NMSI_	31	0	4	96	48	7
NMTAP	31	192	0
NMTAP	31	192	1
NMTAP	31	240	2
NMTAP	31	288	3
NMTAP	31	288	4
NMTAP	32	0	6
NMTAP	32	0	7
NMTAP	32	48	5
NMTAP	32	96	3
NMTAP	32	96	4
NMTAP	32	192	0
NMTAP	32	192	1
NMTAP	32	240	0
NMTAP	32	240	1
NMTAP	32	288	2
EXSTR	32	288	6
NMSCR	32	288	6	96	144	4
NMTTP	32	368	0	C	1	M1
NMTAP	33	240	3
NMTAP	33	240	4
NMTAP	33	288	3
NMTAP	33	288	4
NMTAP	34	0	2
NMSTR	34	0	5
NMSI_	34	0	5	96	48	2
NMSTR	34	96	1
BRSI_	34	96	1	96	48	6
NMSTR	34	192	5
NMSI_	34	192	5	96	48	2
NMSTR	34	288	1
BRSI_	34	288	1	96	48	6
NMSTR	35	0	5
NMSI_	35	0	5	96	48	2
NMSTR	35	96	1
BRSI_	35	96	1	96	48	6
NMHLD	35	192	5	96
NMTAP	35	336	5
NMTAP	36	0	6
NMTAP	36	0	7
NMTAP	36	48	6
NMTAP	36	48	7
NMTAP	36	96	0
NMTAP	36	96	5
NMTAP	36	192	3
NMTAP	36	192	4
NMTAP	36	288	0
NMTAP	36	288	1
NMSTR	36	336	0
NMSCL	36	336	0	96	144	4
NMSTR	36	336	1
NMSXL	36	336	1	96	144	3
NMTAP	37	336	4
NMTAP	37	336	6
NMHLD	38	0	4	96
NMHLD	38	0	6	96
NMTAP	38	144	1
NMTAP	38	144	3
NMHLD	38	192	1	96
NMHLD	38	192	3	96
NMTAP	38	336	0
NMTAP	38	336	7
NMTAP	39	0	0
NMTAP	39	0	7
NMTAP	39	48	1
NMTAP	39	80	3
NMTAP	39	128	5
NMTAP	39	144	4
BRHLD	39	192	3	96
BRHLD	39	192	4	96
EXTAP	40	0	2
EXTAP	40	0	3
EXTAP	40	48	2
EXTAP	40	48	3
EXHLD	40	168	1	72
EXHLD	40	168	3	72
EXHLD	40	360	0	72
EXHLD	40	360	3	72
EXHLD	41	168	2	72
EXHLD	41	168	3	72
NMTAP	42	0	4
NMTAP	42	0	5
NMTAP	42	48	4
NMTAP	42	48	5
NMHLD	42	168	4	72
NMHLD	42	168	6	72
NMHLD	42	360	4	72
NMHLD	42	360	7	72
NMHLD	43	168	4	72
NMHLD	43	168	5	72
NMTAP	44	0	3
NMTAP	44	0	4
NMTAP	44	96	2
NMTAP	44	96	5
NMTAP	44	176	1
NMTAP	44	224	1
NMTAP	44	240	0
NMTAP	44	288	0
NMTAP	44	288	1
NMTAP	44	368	6
NMTAP	45	32	6
NMTAP	45	48	7
NMTAP	45	96	6
NMTAP	45	96	7
NMTAP	45	176	1
NMTAP	45	224	1
NMTAP	45	240	0
NMTAP	45	288	0
NMTAP	45	288	1
NMTAP	46	0	5
NMTAP	46	96	4
NMTAP	46	96	6
NMTAP	46	176	6
NMTAP	46	224	6
NMTAP	46	240	7
NMTAP	46	288	0
NMTAP	46	288	5
NMTAP	46	368	1
NMTAP	47	32	1
NMTAP	47	48	0
NMTAP	47	96	2
NMTAP	47	96	7
EXTAP	47	176	3
EXTAP	47	176	4
EXTAP	47	240	2
EXTAP	47	240	5
NMSTR	48	0	2
NMSI_	48	0	2	96	48	0
NMTAP	48	0	3
NMTAP	48	96	4
NMTAP	48	192	4
NMSTR	48	192	5
NMSI_	48	192	5	96	48	7
NMTAP	48	288	3
NMSTR	49	0	2
NMSI_	49	0	2	96	48	4
NMSTR	49	96	5
NMSI_	49	96	5	96	48	7
NMSTR	49	192	0
NMSI_	49	192	0	96	48	2
NMTAP	49	288	3
NMTAP	50	0	3
NMSTR	50	0	4
NMSI_	50	0	4	96	48	7
NMSTR	50	192	0
NMSI_	50	192	0	96	48	3
NMTAP	50	192	6
NMTAP	51	0	5
NMSTR	51	96	7
NMSSR	51	96	7	96	144	3
EXSTR	52	0	2
NMSXR	52	0	2	96	192	7
NMTAP	52	288	6
NMSTR	53	0	6
NMSXR	53	0	6	96	192	3
NMTAP	53	288	2
NMSTR	54	0	2
NMSI_	54	0	2	96	48	0
NMSTR	54	96	7
NMSI_	54	96	7	96	48	5
NMSTR	54	192	4
NMSI_	54	192	4	96	48	2
NMTAP	54	288	6
NMSTR	55	0	0
NMSCR	55	0	0	96	96	7
NMTAP	55	0	7
EXHLD	56	0	3	96
EXHLD	56	0	5	96
EXHLD	56	192	2	96
EXHLD	56	192	4	96
NMTAP	57	0	1
NMTAP	57	0	3
NMTAP	57	80	0
NMTAP	57	80	7
NMTAP	57	144	4
NMTAP	57	144	6
NMTAP	57	192	3
NMTAP	57	192	4
NMTAP	57	240	3
NMTAP	57	240	4
NMTAP	58	0	4
NMTAP	58	0	5
NMTAP	58	48	6
NMTAP	58	96	0
NMTAP	58	96	7
NMTAP	58	192	1
NMTAP	58	192	4
NMTAP	58	240	2
NMTAP	58	240	5
NMTAP	58	288	3
NMSTR	58	288	6
NMSCL	58	288	6	96	96	1
NMTTP	58	368	0	C	1	M1
NMTAP	59	240	0
NMTAP	59	240	7
NMTAP	59	288	0
NMTAP	59	288	7
NMTAP	60	0	1
EXSTR	60	0	6
NMSI_	60	0	6	96	48	1
NMSTR	60	96	2
BRSI_	60	96	2	96	48	5
NMSTR	60	192	6
NMSCR	60	192	6	96	48	1
NMSTR	60	288	2
BRSCR	60	288	2	96	48	5
NMSTR	61	0	6
NMSI_	61	0	6	96	48	1
NMSTR	61	96	2
BRSI_	61	96	2	96	48	5
NMHLD	61	192	6	96
NMTAP	61	336	6
NMTAP	62	0	4
NMTAP	62	0	5
NMTAP	62	48	3
NMTAP	62	48	6
NMTAP	62	96	2
NMTAP	62	96	7
NMTAP	62	192	0
NMTAP	62	192	5
NMTAP	62	288	2
NMTAP	62	288	4
NMSTR	62	336	2
NMSXR	62	336	2	96	144	3
NMSTR	62	336	4
NMSXL	62	336	4	96	144	3
NMTAP	63	336	1
NMTAP	63	336	3
NMHLD	64	0	1	96
NMHLD	64	0	3	96
NMTAP	64	144	4
NMTAP	64	144	6
NMHLD	64	192	4	96
NMHLD	64	192	6	96
NMTAP	64	336	0
NMTAP	64	336	7
NMTAP	65	0	0
NMTAP	65	0	7
NMTAP	65	48	6
NMTAP	65	80	4
NMTAP	65	128	2
NMTAP	65	144	3
BRHLD	65	192	0	96
BRHLD	65	192	4	96
NMTAP	66	0	2
NMTAP	66	96	1
NMTAP	66	96	3
NMTAP	66	176	5
NMTAP	66	224	5
NMTAP	66	240	4
NMTAP	66	288	3
NMTAP	66	288	6
NMTAP	66	368	2
NMTAP	67	32	2
NMTAP	67	48	3
NMTAP	67	96	1
NMTAP	67	96	4
NMTAP	67	176	5
NMTAP	67	224	5
NMTAP	67	240	4
NMTAP	67	288	3
NMTAP	67	288	6
NMTAP	68	0	2
NMTAP	68	0	3
NMTAP	68	96	1
NMTAP	68	96	4
NMTAP	68	176	1
NMTAP	68	224	1
NMTAP	68	240	0
NMTAP	68	288	2
NMTAP	68	288	7
NMTAP	68	368	6
NMTAP	69	32	6
NMTAP	69	48	7
NMTAP	69	96	0
NMTAP	69	96	5
NMTAP	69	176	0
NMSTR	69	224	0
BRSI_	69	224	0	96	48	4
NMTAP	69	240	7

T_REC_TAP	283
T_REC_BRK	8
T_REC_XTP	24
T_REC_BXX	0
T_REC_HLD	33
T_REC_XHO	10
T_REC_BHO	4
T_REC_BXH	0
T_REC_STR	43
T_REC_BST	0
T_REC_XST	4
T_REC_XBS	0
T_REC_TTP	10
T_REC_THO	0
T_REC_SLD	42
T_REC_BSL	7
T_REC_ALL	468
T_NUM_TAP	364
T_NUM_BRK	19
T_NUM_HLD	43
T_NUM_SLD	42
T_NUM_ALL	468
T_JUDGE_TAP	372
T_JUDGE_HLD	136
T_JUDGE_SLD	49
T_JUDGE_ALL	557
TTM_EACHPAIRS	128
TTM_SCR_TAP	182000
TTM_SCR_BRK	49400
TTM_SCR_HLD	43000
TTM_SCR_SLD	63000
TTM_SCR_ALL	337400
TTM_SCR_S	325450
TTM_SCR_SS	335500
TTM_RAT_ACV	10056

