VERSION	0.00.00	1.04.00
FES_MODE	0
BPM_DEF	202.000	202.000	202.000	202.000
MET_DEF	4	4
RESOLUTION	384
CLK_DEF	384
COMPATIBLE_CODE	MA2

BPM	0	0	202.000
MET	0	0	4	4

NMSTR	1	288	1
NMSI_	1	288	1	96	48	5
BRTAP	2	0	1
NMTAP	2	96	4
NMTAP	2	192	4
NMTAP	2	288	4
NMTAP	3	0	4
NMTAP	3	96	4
NMTAP	3	192	4
NMTAP	3	288	3
NMTAP	3	288	5
NMTAP	4	0	2
NMTAP	4	96	2
NMTAP	4	192	2
NMSTR	4	288	2
NMSI_	4	288	2	96	48	4
NMSTR	5	0	6
NMSI_	5	0	6	96	48	2
NMSTR	5	96	1
NMSCR	5	96	1	96	144	7
NMTAP	5	192	7
NMTAP	6	0	4
NMTAP	6	96	4
NMTAP	6	96	5
NMTAP	6	192	2
NMTAP	6	288	1
NMTAP	6	288	3
NMTAP	7	0	6
NMTAP	7	96	6
NMTAP	7	96	7
NMTAP	7	192	0
NMSTR	7	288	1
NMSSR	7	288	1	96	576	5
NMTAP	7	288	7
NMTAP	8	0	5
NMSTR	9	192	6
NMSI_	9	192	6	96	48	2
BRTAP	9	288	6
NMTAP	10	0	1
NMTAP	10	0	3
EXTAP	10	96	4
NMHLD	10	144	5	96
NMTAP	10	240	3
EXTAP	10	288	4
NMHLD	10	336	2	96
NMTAP	11	48	3
EXTAP	11	96	4
NMTAP	11	144	3
NMTAP	11	192	5
NMTAP	11	240	4
EXTAP	11	288	4
NMTAP	11	336	6
NMTAP	12	0	3
NMSTR	12	0	7
NMSI_	12	0	7	96	48	3
EXTAP	12	96	2
NMTAP	12	144	2
NMTAP	12	192	4
NMTAP	12	240	4
EXTAP	12	288	2
NMSTR	12	336	6
NMSLL	12	336	6	96	96	0
NMTAP	13	48	1
EXTAP	13	96	2
NMTAP	13	144	3
NMTAP	13	240	1
NMTAP	13	240	7
EXTAP	13	288	2
NMTAP	13	288	6
NMSTR	14	0	3
NMSLL	14	0	3	96	96	4
NMTAP	14	0	4
EXTAP	14	96	6
NMTAP	14	144	6
NMTAP	14	240	7
EXTAP	14	288	6
NMHLD	14	336	0	96
NMTAP	15	48	6
EXTAP	15	96	6
NMTAP	15	144	3
NMTAP	15	192	5
NMTAP	15	240	4
EXTAP	15	288	6
NMTAP	15	336	3
NMTAP	16	0	1
NMSTR	16	0	5
NMSI_	16	0	5	96	48	3
EXTAP	16	96	0
NMTAP	16	144	0
CNSI_	16	144	3	0	48	6
NMTAP	16	240	2
EXTAP	16	288	0
NMTAP	16	336	1
NMSTR	16	336	7
NMSI_	16	336	7	96	48	4
NMTAP	17	48	7
EXTAP	17	96	0
NMHLD	17	144	2	96
NMTAP	17	240	3
BXTAP	17	288	0
NMTAP	17	288	4
NMTAP	18	0	6
NMSTR	18	0	7
NMSCR	18	0	7	96	48	2
NMSTR	18	144	4
NMSCR	18	144	4	96	48	7
NMHLD	18	288	1	480
NMTTP	19	96	0	B	0	M1
NMTTP	19	96	0	E	0	M1
NMTTP	19	96	7	B	0	M1
NMTTP	19	192	2	A	0	M1
NMTTP	19	192	3	E	0	M1
NMTTP	19	192	3	D	0	M1
NMTTP	19	288	6	E	0	M1
NMTTP	19	288	6	A	0	M1
NMTTP	19	288	6	D	0	M1
NMSTR	20	0	0
NMSCL	20	0	0	96	48	5
NMSTR	20	144	3
NMSCL	20	144	3	96	48	0
NMHLD	20	288	6	480
NMTTP	21	96	0	B	0	M1
NMTTP	21	96	0	E	0	M1
NMTTP	21	96	7	B	0	M1
NMTTP	21	192	5	E	1	M1
NMTTP	21	192	5	A	0	M1
NMTTP	21	192	5	D	0	M1
NMTTP	21	288	1	A	0	M1
NMTTP	21	288	2	E	0	M1
NMTTP	21	288	2	D	0	M1
NMSTR	22	0	7
NMSCR	22	0	7	96	48	2
NMSTR	22	144	4
NMSCR	22	144	4	96	48	7
NMHLD	22	288	1	192
NMSTR	23	96	0
NMSI_	23	96	0	96	48	4
NMTAP	23	192	0
NMTAP	23	192	7
NMTAP	23	288	2
NMSTR	23	288	6
NMSCL	23	288	6	96	96	3
NMSTR	24	0	3
NMSCL	24	0	3	96	96	0
NMSTR	24	96	0
NMSCL	24	96	0	96	96	5
NMSTR	24	192	5
NMSCL	24	192	5	96	96	2
NMSTR	24	288	2
NMSCL	24	288	2	96	96	7
NMSTR	25	0	7
NMSCL	25	0	7	96	96	4
NMTAP	25	96	4
NMTAP	25	192	2
NMTAP	25	240	3
NMSTR	25	288	1
NMSV_	25	288	1	96	48	6
NMTAP	25	288	4
NMTAP	26	0	6
NMTAP	26	96	7
NMHLD	26	144	7	96
NMHLD	26	240	6	96
NMHLD	26	336	5	96
NMTAP	27	48	4
NMTAP	27	96	3
NMTAP	27	144	2
NMSTR	27	192	1
NMSI_	27	192	1	96	48	4
NMTAP	27	240	0
NMSTR	28	0	6
NMSI_	28	0	6	96	48	3
NMTAP	28	96	0
NMHLD	28	144	0	96
NMHLD	28	240	1	96
NMHLD	28	336	2	96
NMTAP	29	48	3
NMTAP	29	96	4
NMTAP	29	144	2
NMTAP	29	144	5
NMTAP	29	240	0
NMTAP	29	240	7
NMSTR	29	288	0
NMSCR	29	288	0	96	48	3
NMSTR	29	288	7
NMSCL	29	288	7	96	48	4
EXTAP	30	0	0
EXTAP	30	0	7
NMTAP	30	96	1
NMTAP	30	120	6
NMTAP	30	144	1
NMTAP	30	168	6
NMTAP	30	192	1
NMTAP	30	216	6
NMTAP	30	240	1
NMTAP	30	264	6
NMTAP	30	288	1
NMTAP	30	312	6
NMTAP	30	336	1
NMTAP	30	360	6
NMTAP	31	0	1
NMTAP	31	24	6
NMTAP	31	48	1
NMTAP	31	72	6
NMTAP	31	96	1
NMTAP	31	120	6
NMTAP	31	144	1
NMTAP	31	168	6
NMTAP	31	192	1
NMTAP	31	216	6
NMTAP	31	240	1
NMTAP	31	264	6
EXTAP	31	288	2
EXTAP	31	288	5
NMTAP	32	0	0
NMTAP	32	0	1
NMTAP	32	48	2
NMTAP	32	48	3
NMTAP	32	96	4
NMTAP	32	96	5
NMSTR	32	144	6
NMSI_	32	144	6	96	48	2
NMTAP	32	144	7
BRTAP	32	240	0
BRHLD	32	288	0	384
CNSI_	32	288	2	0	24	6
NMTTP	33	288	0	C	1	M1
NMTTP	33	288	3	B	0	M1
NMTTP	33	288	4	B	0	M1
NMSTR	34	0	6
NMSCL	34	0	6	96	48	3
NMTAP	34	0	7
NMTAP	34	96	2
NMTAP	34	96	6
NMTAP	34	192	1
NMTAP	34	240	0
NMTAP	34	288	2
NMTAP	34	288	7
NMTAP	35	0	0
NMSTR	35	0	1
NMSCR	35	0	1	96	48	4
NMTAP	35	96	1
NMTAP	35	96	5
NMTAP	35	192	6
NMTAP	35	240	7
NMSTR	35	288	0
NMSI_	35	288	0	96	48	4
NMTAP	35	288	5
NMTAP	36	0	0
NMSTR	36	0	5
NMSLL	36	0	5	96	72	6
NMTAP	36	96	3
NMSTR	36	144	1
NMSI_	36	144	1	96	48	5
NMTAP	36	240	1
NMSTR	36	240	7
BRSCL	36	240	7	96	48	4
BXHLD	36	336	0	240
BXTAP	36	336	7
CNSXL	37	0	4	0	192	3
EXSTR	37	288	1
NMSI_	37	288	1	96	48	5
EXTAP	37	288	2
EXSTR	38	0	0
NMSI_	38	0	0	96	48	4
EXSTR	38	96	7
NMSI_	38	96	7	96	48	3
EXSTR	38	192	6
NMSI_	38	192	6	96	48	2
EXSTR	38	288	5
NMSI_	38	288	5	96	48	1
EXSTR	39	0	4
NMSI_	39	0	4	96	48	0
EXSTR	39	96	3
NMSI_	39	96	3	96	48	7
EXSTR	39	192	2
NMSI_	39	192	2	96	48	6
EXSTR	39	288	1
NMSI_	39	288	1	96	48	5
NMTAP	40	0	0
NMTAP	40	48	0
NMTAP	40	96	7
NMTAP	40	144	7
NMTAP	40	192	6
NMTAP	40	240	5
NMTAP	40	288	3
NMTAP	40	336	2
NMTAP	41	0	1
NMTAP	41	0	4
NMTAP	41	48	0
NMTAP	41	96	6
NMTAP	41	96	7
NMTAP	41	144	5
NMTAP	41	192	3
NMTAP	41	192	4
NMTAP	41	240	2
NMTAP	41	288	0
NMTAP	41	288	1
NMTAP	41	336	2
NMTAP	41	336	6
NMSTR	42	0	5
NMSUL	42	0	5	96	144	3
NMTAP	42	96	0
NMTAP	42	144	0
NMTAP	42	240	2
NMTAP	42	288	2
NMTAP	42	336	3
NMSTR	43	0	1
NMSUL	43	0	1	96	144	7
NMTAP	43	96	4
NMTAP	43	144	4
NMTAP	43	240	6
NMTAP	43	288	6
NMTAP	43	336	7
NMTAP	44	0	0
NMHLD	44	0	5	96
NMTAP	44	96	4
NMSTR	44	144	2
NMSI_	44	144	2	96	48	7
NMSTR	44	144	6
NMSI_	44	144	6	96	48	3
NMTAP	44	240	2
NMTAP	44	240	6
NMTAP	44	336	1
NMSTR	44	336	5
NMSCR	44	336	5	96	96	3
NMTTP	45	48	0	C	1	M1
EXTAP	45	192	0
EXTAP	45	216	1
EXTAP	45	240	2
EXTAP	45	264	3
EXTAP	45	288	7
EXTAP	45	312	6
EXTAP	45	336	5
EXTAP	45	360	4
NMTAP	46	0	1
NMTAP	46	48	1
NMTAP	46	96	4
NMTAP	46	144	2
NMTAP	46	192	3
NMTAP	46	240	3
NMTAP	46	288	1
NMTAP	46	288	4
NMTAP	46	336	0
NMTAP	47	0	6
NMTAP	47	48	6
NMTAP	47	96	3
NMTAP	47	144	5
NMTAP	47	192	4
NMTAP	47	240	4
NMTAP	47	288	3
NMTAP	47	288	6
NMTAP	48	0	0
NMTAP	48	0	1
NMTAP	48	48	2
NMTAP	48	48	7
NMTAP	48	96	3
NMTAP	48	96	6
EXTAP	48	144	4
EXSTR	48	144	5
NMSI_	48	144	5	96	48	0
EXSTR	48	240	2
NMSI_	48	240	2	96	48	7
EXTAP	48	240	5
EXTAP	48	336	2
EXTAP	48	336	3
NMTAP	49	48	0
NMTAP	49	48	4
NMTAP	49	96	1
NMTAP	49	96	5
NMTAP	49	144	2
NMTAP	49	144	6
NMTAP	49	192	3
NMSTR	49	192	7
NMSI_	49	192	7	96	48	3
BRTAP	49	288	0
BRTAP	49	288	7
NMTAP	50	0	2
NMTAP	50	48	2
EXTAP	50	96	3
NMHLD	50	144	1	96
NMTAP	50	240	3
EXTAP	50	288	3
NMHLD	50	336	2	96
NMTAP	51	48	3
EXTAP	51	96	3
NMTAP	51	144	2
NMTAP	51	192	4
NMTAP	51	240	1
EXTAP	51	288	3
NMTAP	51	336	0
NMTAP	52	0	5
NMTAP	52	48	5
EXTAP	52	96	4
NMHLD	52	144	6	96
NMTAP	52	240	4
EXTAP	52	288	4
NMHLD	52	336	5	96
NMTAP	53	48	4
EXTAP	53	96	4
NMTAP	53	144	5
NMTAP	53	192	3
NMTAP	53	240	6
EXTAP	53	288	4
NMTAP	53	336	7
NMTAP	54	0	2
NMTAP	54	48	2
EXTAP	54	96	1
NMHLD	54	144	3	96
NMTAP	54	240	1
EXTAP	54	288	1
NMHLD	54	336	2	96
NMTAP	55	48	1
EXTAP	55	96	1
NMTAP	55	144	2
NMTAP	55	192	0
NMTAP	55	240	3
EXTAP	55	288	1
NMTAP	55	336	4
NMTAP	56	0	3
NMTAP	56	48	3
EXTAP	56	96	6
NMHLD	56	144	4	96
NMTAP	56	240	6
EXTAP	56	288	6
NMHLD	56	336	5	96
NMTAP	57	48	6
EXTAP	57	96	6
NMTAP	57	144	5
NMTAP	57	192	7
NMTAP	57	240	4
EXTAP	57	288	6
NMTAP	57	336	3
NMTTP	58	0	6	D	0	M1
NMTTP	58	16	5	D	0	M1
NMTTP	58	32	4	D	0	M1
NMTTP	60	0	2	D	0	M1
NMTTP	60	16	3	D	0	M1
NMTTP	60	32	4	D	0	M1
NMTTP	62	0	6	A	0	M1
NMTTP	62	0	7	D	0	M1
NMTTP	62	144	6	E	0	M1
NMTTP	62	288	5	E	0	M1
NMTTP	63	0	1	A	0	M1
NMTTP	63	0	1	D	0	M1
NMTTP	63	144	2	E	0	M1
NMTTP	63	288	3	E	0	M1
NMTTP	64	0	0	E	0	M1
NMTTP	64	192	4	E	0	M1
NMTTP	64	240	5	E	0	M1
NMTTP	64	288	6	E	0	M1
NMTTP	64	336	7	E	0	M1
NMTTP	65	0	0	E	0	M1
NMTTP	65	48	1	E	0	M1
NMTTP	65	96	2	E	0	M1
NMTTP	65	144	3	E	0	M1
EXHLD	65	240	4	144
NMTAP	66	0	3
NMTAP	66	96	3
NMTAP	66	192	4
NMTAP	66	288	4
NMTAP	67	0	5
NMTAP	67	96	5
NMTAP	67	192	6
NMTAP	67	240	4
EXTAP	67	288	4
NMTAP	67	288	6
NMTAP	68	0	4
NMTAP	68	96	4
NMTAP	68	192	3
NMTAP	68	288	3
NMTAP	69	0	2
NMTAP	69	96	2
NMTAP	69	192	1
NMTAP	69	240	3
NMTAP	69	288	1
EXSTR	69	288	3
NMSI_	69	288	3	96	48	7
NMTAP	70	96	0
NMTAP	70	120	6
NMTAP	70	144	0
NMTAP	70	168	6
NMTAP	70	192	0
NMTAP	70	216	6
NMTAP	70	240	0
NMTAP	70	264	6
NMTAP	70	288	0
NMTAP	70	312	6
NMTAP	70	336	0
NMTAP	70	360	6
NMTAP	71	0	0
NMTAP	71	24	6
NMTAP	71	48	0
NMTAP	71	72	6
NMTAP	71	96	0
NMTAP	71	120	6
NMTAP	71	144	0
NMTAP	71	168	6
NMTAP	71	192	0
NMTAP	71	216	6
NMTAP	71	240	0
NMTAP	71	264	6
BRTAP	71	288	7
NMTTP	72	0	5	E	1	M1
NMTTP	72	0	5	A	0	M1
NMTTP	72	0	5	D	0	M1
NMTTP	72	48	1	E	1	M1
NMTTP	72	48	1	A	0	M1
NMTTP	72	48	1	D	0	M1
NMTTP	72	96	6	A	0	M1
NMTTP	72	96	7	E	1	M1
NMTTP	72	96	7	D	0	M1
NMTTP	72	144	2	A	0	M1
NMTTP	72	144	3	E	1	M1
NMTTP	72	144	3	D	0	M1
NMTTP	72	240	0	E	1	M1
NMTTP	72	240	0	D	0	M1
NMTTP	72	288	0	C	1	M1
NMTTP	72	288	3	B	0	M1
NMTTP	72	288	4	B	0	M1
BRSTR	73	288	3
NMSCL	73	288	3	96	216	7
BRSTR	73	288	4
NMSCR	73	288	4	96	156	7
EXTAP	74	0	3
EXTAP	74	0	4
CNSCL	74	216	7	0	312	1
EXTAP	75	144	7
EXTAP	75	168	7
BXHLD	75	192	0	192
NMSTR	76	0	6
NMSI_	76	0	6	96	48	2
NMTAP	76	96	0
NMSTR	76	144	0
NMSCL	76	144	0	96	48	5
NMSCR	76	144	0	96	48	3
NMSTR	76	240	0
NMSI_	76	240	0	96	48	3
NMSI_	76	240	0	96	48	5
BRTAP	76	336	0
CNSV_	77	0	3	0	96	1
CNSV_	77	0	5	0	96	7
CNSI_	77	96	1	0	96	4
CNSI_	77	96	7	0	96	4
EXSTR	77	288	0
NMSI_	77	288	0	96	48	4
EXSTR	78	0	0
NMSCL	78	0	0	96	48	5
EXSTR	78	96	0
NMSCR	78	96	0	96	48	3
EXSTR	78	192	0
NMSI_	78	192	0	96	48	5
EXSTR	78	288	0
NMSI_	78	288	0	96	48	3
EXSTR	79	0	0
NMSLL	79	0	0	96	48	4
EXSTR	79	96	0
NMSLR	79	96	0	96	48	4
EXSTR	79	192	0
NMSI_	79	192	0	96	48	4
EXSTR	79	288	0
NMSCL	79	288	0	96	48	5
NMSCR	79	288	0	96	48	3
EXTAP	80	0	0
EXTAP	80	96	1
EXTAP	80	96	7
NMTAP	80	192	0
NMTAP	80	240	1
NMTAP	80	288	2
NMTAP	80	336	3
NMTAP	81	0	4
NMTAP	81	0	6
NMTAP	81	48	6
NMTAP	81	96	2
NMTAP	81	96	3
NMTAP	81	144	2
NMTAP	81	192	4
NMTAP	81	192	5
NMTAP	81	240	5
NMTAP	81	288	1
NMTAP	81	288	3
NMTAP	81	336	1
NMSTR	82	0	6
NMSUR	82	0	6	96	144	0
NMTAP	82	96	3
NMTAP	82	144	3
NMTAP	82	240	1
NMTAP	82	288	1
NMTAP	82	336	0
NMSTR	83	0	2
NMSUR	83	0	2	96	144	4
NMTAP	83	96	7
NMTAP	83	144	7
NMTAP	83	240	5
NMTAP	83	288	5
NMTAP	83	336	4
NMHLD	84	0	2	96
NMTAP	84	0	7
NMTAP	84	96	3
NMSTR	84	144	1
NMSI_	84	144	1	96	48	4
NMSTR	84	144	5
NMSI_	84	144	5	96	48	0
NMTAP	84	240	1
NMTAP	84	240	5
NMSTR	84	336	2
NMSCL	84	336	2	96	96	4
NMTAP	84	336	6
NMTTP	85	48	0	C	1	M1
EXTAP	85	192	7
EXTAP	85	216	6
EXTAP	85	240	5
EXTAP	85	264	4
EXTAP	85	288	0
EXTAP	85	312	1
EXTAP	85	336	2
EXTAP	85	360	3
NMHLD	86	0	6	96
NMTAP	86	96	7
NMTAP	86	144	0
NMSTR	86	144	5
NMSI_	86	144	5	96	48	0
NMTAP	86	240	4
NMHLD	86	336	2	96
NMTAP	87	48	3
NMTAP	87	96	1
NMTAP	87	96	4
NMTAP	87	144	0
NMTAP	87	144	5
NMSTR	87	192	6
NMSI_	87	192	6	96	48	1
NMHLD	87	192	7	96
BRTAP	87	288	6
NMSTR	88	0	2
NMSI_	88	0	2	96	48	7
NMHLD	88	0	3	96
BRTAP	88	96	2
NMSTR	88	192	1
NMSI_	88	192	1	96	48	5
NMSTR	88	192	5
NMSI_	88	192	5	96	48	3
BRTAP	88	288	1
BRTAP	88	288	5
NMSTR	89	0	0
BRSCR	89	0	0	96	48	3
NMSTR	89	0	7
BRSCL	89	0	7	96	48	4
EXTAP	89	96	0
EXTAP	89	96	7
NMTAP	89	192	0
NMTAP	89	216	7
NMTAP	89	240	0
NMTAP	89	264	7
NMTAP	89	288	0
NMTAP	89	312	7
NMTAP	89	336	0
NMTAP	89	360	7
BXSTR	90	0	1
NMSUR	90	0	1	96	48	5
BXTAP	90	0	6
NMTAP	90	96	0
NMTAP	90	96	1
NMTAP	90	192	6
NMTAP	90	240	7
NMTAP	90	288	0
NMTAP	90	288	5
NMTAP	91	0	1
NMSTR	91	0	6
NMSUL	91	0	6	96	48	2
NMTAP	91	96	6
NMTAP	91	96	7
NMTAP	91	192	1
NMTAP	91	240	0
NMTAP	91	288	2
NMSTR	91	288	7
NMSI_	91	288	7	96	48	3
NMSTR	92	0	2
NMSLR	92	0	2	96	72	1
NMTAP	92	0	7
NMTAP	92	96	4
NMSTR	92	144	6
NMSI_	92	144	6	96	48	2
NMSTR	92	240	0
BRSCR	92	240	0	96	48	3
NMTAP	92	240	6
BRTAP	92	336	0
BRHLD	92	336	7	240
CNSXR	93	0	3	0	144	4
CNSI_	93	144	4	0	48	6
EXTAP	93	288	0
EXSTR	93	288	1
NMSI_	93	288	1	96	48	4
NMTAP	94	0	1
EXSTR	94	0	5
NMSI_	94	0	5	96	48	0
EXSTR	94	96	2
NMSCL	94	96	2	96	48	7
NMTAP	94	96	5
NMTAP	94	192	2
EXSTR	94	192	6
NMSI_	94	192	6	96	48	1
EXSTR	94	288	3
NMSI_	94	288	3	96	48	0
NMTAP	94	288	6
NMTAP	95	0	3
EXSTR	95	0	7
NMSI_	95	0	7	96	48	4
EXSTR	95	96	2
NMSI_	95	96	2	96	48	5
NMTAP	95	96	7
NMTAP	95	192	2
EXSTR	95	192	6
NMSCL	95	192	6	96	48	3
EXSTR	95	288	0
NMSF_	95	288	0	96	48	4
NMTAP	95	288	6
BRTAP	96	0	0
EXTAP	96	96	2
EXTAP	96	96	6
NMTAP	96	192	1
NMTAP	96	192	3
NMTAP	96	240	2
NMTAP	96	288	3
NMTAP	96	336	4
NMTAP	97	0	3
NMTAP	97	0	5
NMTAP	97	48	6
NMTAP	97	96	2
NMTAP	97	96	4
NMTAP	97	144	1
NMTAP	97	192	4
NMTAP	97	192	6
NMTAP	97	240	7
NMTAP	97	288	1
NMTAP	97	288	3
NMTAP	97	336	0
NMTAP	97	336	4
NMSTR	98	0	6
NMSXL	98	0	6	96	144	5
NMTAP	98	96	4
NMTAP	98	144	4
NMTAP	98	240	1
NMTAP	98	288	1
NMTAP	98	336	3
NMSTR	99	0	2
NMSXL	99	0	2	96	120	1
NMTAP	99	96	0
NMTAP	99	144	0
NMTAP	99	240	6
NMTAP	99	288	6
NMTAP	99	336	7
NMTAP	100	0	0
NMHLD	100	0	5	96
NMTAP	100	96	4
NMTAP	100	144	3
NMSTR	100	144	7
NMSI_	100	144	7	96	48	3
NMSTR	100	240	7
BRSF_	100	240	7	96	48	3
NMTTP	100	336	0	C	1	M1
BXTAP	101	48	0
BXTAP	101	48	6
BXTAP	101	96	3
BXTAP	101	96	4
BXTAP	101	144	1
BXTAP	101	144	7
EXTAP	101	192	6
EXTAP	101	216	5
EXTAP	101	240	4
EXTAP	101	264	3
EXTAP	101	288	0
EXTAP	101	312	1
EXTAP	101	336	2
EXTAP	101	360	3
NMTAP	102	0	6
NMTAP	102	48	6
NMTAP	102	96	3
NMTAP	102	144	5
NMTAP	102	168	4
NMTAP	102	192	6
NMTAP	102	240	6
NMTAP	102	288	0
NMTAP	102	336	7
NMTAP	103	0	1
NMTAP	103	48	1
NMTAP	103	96	4
NMTAP	103	144	2
NMTAP	103	168	3
NMSTR	103	192	1
NMSCL	103	192	1	96	48	6
NMTAP	103	288	1
NMTAP	103	288	6
NMTAP	104	0	3
NMTAP	104	0	4
NMTAP	104	48	2
NMTAP	104	48	5
NMTAP	104	96	1
NMTAP	104	96	6
EXSTR	104	144	0
NMSCR	104	144	0	96	48	3
EXSTR	104	144	7
NMSCL	104	144	7	96	48	4
EXSTR	104	240	0
NMSI_	104	240	0	96	48	4
EXSTR	104	240	7
NMSI_	104	240	7	96	48	3
EXTAP	104	336	0
EXTAP	104	336	7
NMSTR	105	48	1
NMSI_	105	48	1	96	48	5
NMSTR	105	96	6
NMSI_	105	96	6	96	48	2
NMTAP	105	144	1
NMTAP	105	192	6
BRTAP	105	288	0
BRTAP	105	288	7
NMHLD	106	0	1	96
NMTAP	106	0	3
NMTAP	106	96	0
NMTAP	106	144	2
NMTAP	106	144	7
NMTAP	106	240	3
NMTAP	106	240	5
NMTAP	106	288	3
NMHLD	106	288	5	96
NMTAP	107	0	4
NMTAP	107	48	3
NMTAP	107	48	6
NMTAP	107	144	1
NMTAP	107	144	4
NMSTR	107	192	1
NMSUR	107	192	1	96	48	5
NMTAP	107	192	4
NMTAP	107	288	0
NMTAP	107	288	1
NMTAP	108	0	4
NMHLD	108	0	6	96
NMTAP	108	96	7
NMTAP	108	144	0
NMTAP	108	144	5
NMTAP	108	240	2
NMTAP	108	240	4
NMHLD	108	288	2	96
NMTAP	108	288	4
NMTAP	109	0	3
NMTAP	109	48	1
NMTAP	109	48	4
NMTAP	109	144	3
NMTAP	109	144	6
NMTAP	109	192	3
NMSTR	109	192	6
NMSUL	109	192	6	96	48	2
NMTAP	109	288	6
NMTAP	109	288	7
NMTAP	110	0	1
NMTAP	110	48	1
NMTAP	110	96	0
NMHLD	110	144	2	96
NMTAP	110	144	7
NMTAP	110	240	3
NMTAP	110	288	1
NMTAP	110	288	4
NMTAP	111	0	0
NMTAP	111	0	7
NMTAP	111	48	6
NMTAP	111	96	5
NMTAP	111	144	4
NMTAP	111	192	1
NMTAP	111	192	3
NMTAP	111	240	2
NMTAP	111	288	3
NMTAP	111	288	4
NMTAP	111	336	5
NMTAP	112	0	6
NMTAP	112	48	6
NMTAP	112	96	7
NMTAP	112	144	0
NMHLD	112	144	5	96
NMTAP	112	240	4
NMTAP	112	288	4
NMTAP	112	336	3
NMTAP	112	336	5
NMTAP	113	48	1
NMTAP	113	48	7
NMTAP	113	96	2
NMTAP	113	96	6
NMTAP	113	144	3
NMTAP	113	144	5
NMSTR	113	192	4
NMSCR	113	192	4	96	48	7
NMSTR	113	240	0
NMSCR	113	240	0	96	48	3
NMTAP	113	288	4
NMTAP	113	336	0

T_REC_TAP	454
T_REC_BRK	15
T_REC_XTP	79
T_REC_BXX	9
T_REC_HLD	34
T_REC_XHO	1
T_REC_BHO	2
T_REC_BXH	2
T_REC_STR	73
T_REC_BST	2
T_REC_XST	34
T_REC_XBS	1
T_REC_TTP	64
T_REC_THO	0
T_REC_SLD	108
T_REC_BSL	5
T_REC_ALL	883
T_NUM_TAP	704
T_NUM_BRK	36
T_NUM_HLD	35
T_NUM_SLD	108
T_NUM_ALL	883
T_JUDGE_TAP	731
T_JUDGE_HLD	111
T_JUDGE_SLD	113
T_JUDGE_ALL	955
TTM_EACHPAIRS	144
TTM_SCR_TAP	352000
TTM_SCR_BRK	93600
TTM_SCR_HLD	35000
TTM_SCR_SLD	162000
TTM_SCR_ALL	642600
TTM_SCR_S	619850
TTM_SCR_SS	639000
TTM_RAT_ACV	10056

