VERSION	0.00.00	1.04.00
FES_MODE	0
BPM_DEF	202.000	202.000	202.000	202.000
MET_DEF	4	4
RESOLUTION	384
CLK_DEF	384
COMPATIBLE_CODE	MA2

BPM	0	0	202.000
MET	0	0	4	4

NMTAP	2	0	5
NMTAP	2	96	5
NMTAP	2	192	4
NMTAP	2	192	6
NMTAP	2	288	4
NMTAP	2	288	6
NMTAP	3	0	5
NMTAP	3	96	4
NMTAP	3	192	2
NMTAP	3	192	3
NMTAP	3	288	2
NMTAP	3	288	3
NMTAP	4	0	2
NMTAP	4	96	2
NMTAP	4	192	1
NMTAP	4	192	3
NMTAP	4	288	1
NMTAP	4	288	3
NMTAP	5	0	2
NMTAP	5	96	3
NMTAP	5	192	4
NMTAP	5	192	5
NMTAP	5	288	4
NMTAP	5	288	5
NMTAP	6	0	5
NMTAP	6	96	5
NMTAP	6	192	4
NMTAP	6	192	6
NMTAP	6	288	4
NMTAP	6	288	6
NMTAP	7	0	5
NMTAP	7	96	4
NMTAP	7	192	2
NMTAP	7	192	3
NMSTR	7	288	0
NMSI_	7	288	0	96	48	4
NMSTR	7	288	1
NMSI_	7	288	1	96	48	4
EXTAP	9	288	2
EXTAP	9	288	6
NMTAP	10	0	4
NMTAP	10	0	5
NMTAP	10	96	3
NMTAP	10	96	6
NMTAP	10	192	5
NMTAP	10	240	5
NMTAP	10	288	4
NMTAP	11	0	2
NMTAP	11	0	3
NMTAP	11	96	1
NMTAP	11	96	4
NMTAP	11	192	2
NMTAP	11	240	2
NMTAP	11	288	3
NMTAP	12	0	4
NMTAP	12	0	5
NMTAP	12	96	3
NMTAP	12	96	6
NMTAP	12	192	5
NMTAP	12	240	5
NMTAP	12	288	4
NMTAP	13	0	1
NMTAP	13	0	5
NMTAP	13	96	2
NMTAP	13	96	6
EXTAP	13	240	0
EXTAP	13	288	0
NMTAP	14	0	4
NMTAP	14	0	5
NMTAP	14	96	3
NMTAP	14	96	6
NMTAP	14	192	5
NMTAP	14	240	5
NMTAP	14	288	4
NMTAP	15	0	2
NMTAP	15	0	3
NMTAP	15	96	1
NMTAP	15	96	4
NMTAP	15	192	2
NMTAP	15	240	2
NMTAP	15	288	3
NMTAP	16	0	4
NMTAP	16	0	5
NMTAP	16	96	3
NMTAP	16	96	6
NMTAP	16	192	5
NMTAP	16	240	5
NMTAP	16	288	4
NMTAP	17	0	2
NMTAP	17	0	5
NMTAP	17	96	1
NMTAP	17	96	6
NMTAP	17	192	0
NMTAP	17	240	0
BRTAP	17	288	7
NMHLD	18	0	1	96
NMHLD	18	0	3	96
NMHLD	18	144	0	240
NMSTR	18	144	2
NMSCL	18	144	2	96	240	6
NMTAP	19	192	5
NMTAP	19	240	5
NMTAP	19	288	4
NMHLD	20	0	4	96
NMHLD	20	0	6	96
NMSTR	20	144	5
NMSCR	20	144	5	96	240	1
NMHLD	20	144	7	240
NMTAP	21	192	2
NMTAP	21	240	2
NMTAP	21	288	3
NMHLD	22	0	1	96
NMHLD	22	0	3	96
NMHLD	22	144	0	240
NMSTR	22	144	2
NMSCL	22	144	2	96	240	6
NMTAP	23	192	5
NMTAP	23	240	5
NMTAP	23	288	4
NMSTR	24	0	5
NMSI_	24	0	5	96	96	0
NMSTR	24	192	1
NMSI_	24	192	1	96	96	4
NMSTR	25	0	5
NMSI_	25	0	5	96	96	1
NMTAP	25	192	2
NMTAP	25	288	2
NMSTR	26	0	1
NMSI_	26	0	1	96	48	4
NMHLD	26	0	3	96
NMTAP	26	192	5
NMTAP	26	288	5
NMHLD	27	0	6	96
NMHLD	27	96	7	96
NMTAP	27	192	0
NMTAP	27	288	0
NMSTR	28	0	1
NMSI_	28	0	1	96	48	5
NMHLD	28	0	7	96
NMTAP	28	192	6
NMTAP	28	288	6
NMHLD	29	0	4	96
NMHLD	29	96	3	96
NMHLD	29	192	2	96
NMTAP	29	288	5
NMSTR	30	0	3
NMSI_	30	0	3	96	48	1
NMSTR	30	192	4
NMSI_	30	192	4	96	48	6
BRSTR	31	0	3
BRSI_	31	0	3	96	48	1
BRSTR	31	192	4
BRSI_	31	192	4	96	48	6
NMTAP	32	0	0
NMTAP	32	0	7
NMTAP	32	96	1
NMTAP	32	96	6
NMTAP	32	144	1
NMTAP	32	144	6
NMTAP	32	240	0
NMTAP	32	240	7
NMHLD	32	288	0	288
NMHLD	32	288	7	288
NMSTR	33	288	6
NMSI_	33	288	6	96	48	2
NMSTR	33	288	7
NMSI_	33	288	7	96	48	3
BRTAP	34	96	0
BRTAP	34	96	5
NMTAP	34	192	2
NMTAP	34	240	3
NMSTR	34	288	1
NMSI_	34	288	1	96	48	4
NMTAP	34	288	4
NMTAP	35	96	3
NMTAP	35	96	5
NMTAP	35	192	5
NMTAP	35	240	5
NMTAP	35	288	4
NMSTR	36	0	6
NMSI_	36	0	6	96	48	4
NMHLD	36	96	2	96
NMSTR	36	192	3
NMSI_	36	192	3	96	48	7
NMTAP	36	288	2
NMSTR	37	0	6
NMSI_	37	0	6	96	48	4
NMTAP	37	96	2
NMTAP	37	192	2
NMTAP	37	288	1
NMTAP	37	288	3
NMSTR	38	0	2
NMSI_	38	0	2	96	48	7
NMSTR	38	96	6
NMSI_	38	96	6	96	48	3
NMSTR	38	192	0
NMSI_	38	192	0	96	48	4
NMTAP	38	288	5
NMSTR	39	0	5
NMSI_	39	0	5	96	48	0
NMSTR	39	96	1
NMSI_	39	96	1	96	48	4
NMSTR	39	192	7
NMSI_	39	192	7	96	48	3
NMSTR	39	288	2
NMSCL	39	288	2	96	192	5
NMTAP	40	288	3
NMTAP	40	288	5
NMSTR	40	336	3
NMSI_	40	336	3	96	48	0
NMSTR	40	336	5
NMSI_	40	336	5	96	48	0
EXTAP	41	192	1
EXTAP	41	192	7
EXTAP	41	288	2
EXTAP	41	288	4
EXSTR	42	0	3
NMSI_	42	0	3	96	48	0
NMTAP	42	0	6
NMTAP	42	96	4
EXSTR	42	192	3
NMSI_	42	192	3	96	48	0
NMTAP	42	192	6
NMTAP	42	288	4
BXSTR	43	0	3
BRSI_	43	0	3	96	48	7
NMTAP	43	0	6
NMTAP	43	96	4
BXSTR	43	192	3
BRSI_	43	192	3	96	48	7
NMTAP	43	192	6
NMTAP	43	288	4
NMHLD	44	0	1	96
NMHLD	44	0	6	96
NMTAP	44	144	4
NMTAP	44	144	5
NMTAP	44	240	0
NMTAP	44	240	1
NMTAP	44	336	6
NMTAP	44	336	7
BRTAP	45	48	0
BRTAP	45	48	5
EXTAP	45	192	1
EXTAP	45	216	0
EXTAP	45	240	1
EXTAP	45	264	0
BXTAP	45	288	1
NMTAP	46	0	0
NMHLD	46	0	6	96
NMTAP	46	96	4
NMHLD	46	192	1	96
NMTAP	46	192	7
NMTAP	46	288	3
NMTAP	47	0	0
NMHLD	47	0	6	96
NMTAP	47	96	4
NMSTR	47	192	1
NMSI_	47	192	1	96	48	3
NMSTR	47	192	7
NMSI_	47	192	7	96	48	3
NMHLD	48	0	1	144
NMHLD	48	0	2	336
EXTAP	48	240	0
EXTAP	48	336	7
EXTAP	49	48	6
NMSTR	49	96	6
NMSI_	49	96	6	96	48	1
NMHLD	50	0	2	96
NMHLD	50	0	4	96
NMTAP	50	144	2
NMTAP	50	144	4
NMTAP	50	240	3
NMTAP	50	288	4
NMTAP	50	336	5
NMTAP	51	48	6
NMTAP	51	48	7
NMTAP	51	96	6
NMTAP	51	96	7
NMSTR	51	192	0
NMSI_	51	192	0	96	48	4
NMSTR	51	192	1
NMSI_	51	192	1	96	48	4
NMHLD	52	0	3	96
NMHLD	52	0	5	96
NMTAP	52	144	3
NMTAP	52	144	5
NMTAP	52	240	4
NMTAP	52	288	3
NMTAP	52	336	2
NMTAP	53	48	0
NMTAP	53	48	1
NMTAP	53	96	0
NMTAP	53	96	1
EXTAP	53	192	6
EXTAP	53	216	7
EXTAP	53	240	6
EXTAP	53	264	7
EXTAP	53	288	6
NMHLD	54	0	0	96
NMHLD	54	0	6	96
NMTAP	54	144	0
NMTAP	54	144	6
NMTAP	54	240	7
NMTAP	54	288	0
NMTAP	54	336	1
NMTAP	55	48	2
NMTAP	55	48	3
NMTAP	55	96	2
NMTAP	55	96	3
NMSTR	55	192	4
NMSI_	55	192	4	96	48	0
NMSTR	55	192	5
NMSI_	55	192	5	96	48	0
NMHLD	56	0	1	96
NMHLD	56	0	7	96
NMTAP	56	144	1
NMTAP	56	144	7
NMTAP	56	240	0
NMTAP	56	288	7
NMTAP	56	336	6
NMTAP	57	48	4
NMTAP	57	48	5
NMTAP	57	96	4
NMTAP	57	96	5
NMTAP	57	192	6
NMTAP	57	192	7
BRTAP	57	288	0
BRTAP	57	288	5
NMSTR	58	0	4
NMSCR	58	0	4	96	1248	2
NMHLD	62	0	6	144
NMHLD	62	144	5	144
NMTAP	62	288	4
NMHLD	63	0	1	144
NMHLD	63	144	2	144
NMTAP	63	288	3
NMTTP	64	0	5	E	0	M1
NMTTP	64	0	5	A	0	M1
NMTTP	64	0	6	E	0	M1
NMTTP	64	192	1	E	0	M1
NMTTP	64	192	1	A	0	M1
NMTTP	64	192	2	E	0	M1
NMTTP	65	0	6	E	0	M1
NMTTP	65	0	6	A	0	M1
NMTTP	65	0	7	E	0	M1
NMTTP	65	192	2	E	0	M1
NMTTP	65	192	2	A	0	M1
NMTTP	65	192	3	E	0	M1
NMHLD	66	0	6	672
NMTTP	66	96	5	E	0	M1
NMTTP	66	192	6	E	0	M1
NMTTP	66	288	7	E	0	M1
NMTTP	67	0	0	E	0	M1
NMTTP	67	96	0	C	0	M1
NMTTP	67	192	4	E	0	M1
NMHLD	68	0	1	672
NMTTP	68	96	3	E	0	M1
NMTTP	68	192	2	E	0	M1
NMTTP	68	288	1	E	0	M1
NMTTP	69	0	0	E	0	M1
NMTTP	69	96	0	C	0	M1
NMTTP	69	192	4	E	0	M1
NMSTR	70	0	4
NMSI_	70	0	4	96	48	6
NMSTR	70	192	3
NMSI_	70	192	3	96	48	1
BRSTR	71	0	4
BRSI_	71	0	4	96	48	6
BRSTR	71	192	3
BRSI_	71	192	3	96	48	1
NMTAP	72	0	0
NMTAP	72	0	7
NMTAP	72	96	1
NMTAP	72	96	6
NMTAP	72	144	1
NMTAP	72	144	6
NMTAP	72	240	0
NMTAP	72	240	7
NMSTR	72	288	0
NMSI_	72	288	0	96	48	4
NMSTR	72	288	7
NMSI_	72	288	7	96	48	3
NMTAP	73	288	2
NMTAP	73	288	5
NMHLD	74	0	2	480
NMHLD	74	0	5	480
EXSTR	75	192	0
BRSI_	75	192	0	96	48	4
EXSTR	75	192	1
BRSI_	75	192	1	96	48	5
BRTAP	76	0	2
BRTAP	76	0	7
BRTAP	76	96	2
BRTAP	76	96	7
NMTAP	76	192	5
NMTAP	76	240	4
NMTAP	76	288	3
NMSTR	76	288	6
NMSI_	76	288	6	96	48	3
NMTAP	77	96	2
NMTAP	77	96	4
NMTAP	77	192	2
NMTAP	77	240	2
NMTAP	77	288	3
NMSTR	78	0	5
NMSI_	78	0	5	96	48	0
NMSTR	78	96	1
NMSI_	78	96	1	96	48	4
NMSTR	78	192	7
NMSI_	78	192	7	96	48	3
NMTAP	78	288	2
NMSTR	79	0	2
NMSI_	79	0	2	96	48	7
NMSTR	79	96	6
NMSI_	79	96	6	96	48	3
NMSTR	79	192	0
NMSI_	79	192	0	96	48	4
NMSTR	79	288	5
NMSCR	79	288	5	96	192	2
NMTAP	80	288	2
NMTAP	80	288	4
NMSTR	80	336	2
NMSI_	80	336	2	96	48	7
NMSTR	80	336	4
NMSI_	80	336	4	96	48	7
EXTAP	81	192	0
EXTAP	81	192	6
EXTAP	81	288	3
EXTAP	81	288	5
NMTAP	82	0	1
EXSTR	82	0	4
NMSI_	82	0	4	96	48	7
NMTAP	82	96	3
NMTAP	82	192	1
EXSTR	82	192	4
NMSI_	82	192	4	96	48	7
NMTAP	82	288	3
NMTAP	83	0	1
BXSTR	83	0	4
BRSI_	83	0	4	96	48	0
NMTAP	83	96	3
NMTAP	83	192	1
BXSTR	83	192	4
BRSI_	83	192	4	96	48	0
NMTAP	83	288	3
NMHLD	84	0	1	96
NMHLD	84	0	6	96
NMTAP	84	144	2
NMTAP	84	144	3
NMTAP	84	240	6
NMTAP	84	240	7
NMTAP	84	336	0
NMTAP	84	336	1
BRTAP	85	48	2
BRTAP	85	48	7
EXTAP	85	192	6
EXTAP	85	216	7
EXTAP	85	240	6
EXTAP	85	264	7
BXTAP	85	288	6
NMHLD	86	0	1	96
NMTAP	86	0	7
NMTAP	86	96	3
NMTAP	86	192	0
NMHLD	86	192	6	96
NMTAP	86	288	4
NMHLD	87	0	1	96
NMTAP	87	0	7
NMTAP	87	96	3
NMSTR	87	192	0
NMSI_	87	192	0	96	48	3
NMSTR	87	192	6
NMSI_	87	192	6	96	48	3
NMHLD	88	0	2	96
NMHLD	88	0	4	96
BXTAP	88	192	0
BXTAP	88	192	6
BXTAP	88	288	0
BXTAP	88	288	6
BXSTR	89	0	1
BRSI_	89	0	1	96	48	4
NMSTR	89	0	5
NMSI_	89	0	5	96	48	0
BXSTR	89	192	3
BRSI_	89	192	3	96	48	1
NMSTR	89	192	7
NMSI_	89	192	7	96	48	5
NMTAP	90	0	6
NMTAP	90	0	7
BRTAP	90	96	0
BRTAP	90	96	5
NMTAP	90	192	2
NMTAP	90	240	3
NMSTR	90	288	1
NMSI_	90	288	1	96	48	4
NMTAP	90	288	4
NMTAP	91	96	3
NMTAP	91	96	5
NMTAP	91	192	5
NMTAP	91	240	5
NMTAP	91	288	4
NMSTR	92	0	6
NMSI_	92	0	6	96	48	4
NMHLD	92	96	2	96
NMSTR	92	192	3
NMSI_	92	192	3	96	48	7
NMTAP	92	288	2
NMSTR	93	0	6
NMSI_	93	0	6	96	48	4
NMTAP	93	96	2
NMTAP	93	192	2
NMTAP	93	288	1
NMTAP	93	288	3
NMSTR	94	0	2
NMSI_	94	0	2	96	48	7
NMSTR	94	96	6
NMSI_	94	96	6	96	48	3
NMSTR	94	192	0
NMSI_	94	192	0	96	48	4
NMTAP	94	288	5
NMSTR	95	0	5
NMSI_	95	0	5	96	48	0
NMSTR	95	96	1
NMSI_	95	96	1	96	48	4
NMSTR	95	192	7
NMSI_	95	192	7	96	48	3
NMSTR	95	288	2
NMSCL	95	288	2	96	192	5
NMTAP	96	288	3
NMTAP	96	288	5
NMSTR	96	336	3
NMSI_	96	336	3	96	48	0
NMSTR	96	336	5
NMSI_	96	336	5	96	48	0
EXTAP	97	192	1
EXTAP	97	192	7
EXTAP	97	288	2
EXTAP	97	288	4
NMSTR	98	0	6
NMSI_	98	0	6	96	48	3
NMSTR	98	0	7
NMSI_	98	0	7	96	48	3
NMSTR	98	192	6
NMSI_	98	192	6	96	48	3
NMSTR	98	192	7
NMSI_	98	192	7	96	48	3
BRSTR	99	0	0
BRSI_	99	0	0	96	48	4
BRSTR	99	0	1
BRSI_	99	0	1	96	48	4
BRSTR	99	192	0
BRSI_	99	192	0	96	48	4
BRSTR	99	192	1
BRSI_	99	192	1	96	48	4
NMHLD	100	0	1	96
NMHLD	100	0	3	96
NMTAP	100	144	4
NMTAP	100	144	5
NMTAP	100	240	6
NMTAP	100	240	7
NMTAP	100	336	0
NMTAP	100	336	1
BRTAP	101	48	2
BRTAP	101	48	7
BRTAP	101	96	2
BRTAP	101	96	7
EXTAP	101	192	1
EXTAP	101	216	0
EXTAP	101	240	1
EXTAP	101	264	0
BXTAP	101	288	1
NMTAP	102	0	0
NMHLD	102	0	6	96
NMTAP	102	96	4
NMHLD	102	192	1	96
NMTAP	102	192	7
NMTAP	102	288	3
NMTAP	103	0	0
NMHLD	103	0	6	96
NMTAP	103	96	4
NMSTR	103	192	1
NMSI_	103	192	1	96	48	3
NMSTR	103	192	7
NMSI_	103	192	7	96	48	3
NMHLD	104	0	1	144
NMHLD	104	0	2	336
EXTAP	104	240	0
EXTAP	104	336	7
EXTAP	105	48	6
NMSTR	105	96	6
NMSI_	105	96	6	96	48	1
NMHLD	106	0	2	96
NMHLD	106	0	4	96
NMTAP	106	144	2
NMTAP	106	144	4
NMTAP	106	240	3
NMTAP	106	288	4
NMTAP	106	336	5
NMTAP	107	48	6
NMTAP	107	48	7
NMTAP	107	96	6
NMTAP	107	96	7
NMSTR	107	192	0
NMSI_	107	192	0	96	48	4
NMSTR	107	192	1
NMSI_	107	192	1	96	48	4
NMHLD	108	0	3	96
NMHLD	108	0	5	96
NMTAP	108	144	3
NMTAP	108	144	5
NMTAP	108	240	4
NMTAP	108	288	3
NMTAP	108	336	2
NMTAP	109	48	0
NMTAP	109	48	1
NMTAP	109	96	0
NMTAP	109	96	1
EXTAP	109	192	6
EXTAP	109	216	7
EXTAP	109	240	6
EXTAP	109	264	7
EXTAP	109	288	6
NMHLD	110	0	0	96
NMHLD	110	0	6	96
NMTAP	110	144	0
NMTAP	110	144	6
NMTAP	110	240	7
NMTAP	110	288	0
NMTAP	110	336	1
NMTAP	111	48	2
NMTAP	111	48	3
NMTAP	111	96	2
NMTAP	111	96	3
NMSTR	111	192	4
NMSI_	111	192	4	96	48	0
NMSTR	111	192	5
NMSI_	111	192	5	96	48	0
NMHLD	112	0	1	96
NMHLD	112	0	7	96
NMTAP	112	144	1
NMTAP	112	144	7
NMTAP	112	240	0
NMTAP	112	288	7
NMTAP	112	336	6
EXTAP	113	48	2
EXTAP	113	48	5
EXTAP	113	96	2
EXTAP	113	96	5
NMTAP	113	192	0
NMTAP	113	192	7
NMSTR	113	240	0
NMSI_	113	240	0	96	48	4
NMSTR	113	240	7
NMSI_	113	240	7	96	48	3

T_REC_TAP	293
T_REC_BRK	19
T_REC_XTP	48
T_REC_BXX	7
T_REC_HLD	65
T_REC_XHO	0
T_REC_BHO	0
T_REC_BXH	0
T_REC_STR	79
T_REC_BST	8
T_REC_XST	6
T_REC_XBS	6
T_REC_TTP	24
T_REC_THO	0
T_REC_SLD	83
T_REC_BSL	16
T_REC_ALL	654
T_NUM_TAP	450
T_NUM_BRK	56
T_NUM_HLD	65
T_NUM_SLD	83
T_NUM_ALL	654
T_JUDGE_TAP	490
T_JUDGE_HLD	203
T_JUDGE_SLD	99
T_JUDGE_ALL	792
TTM_EACHPAIRS	163
TTM_SCR_TAP	225000
TTM_SCR_BRK	145600
TTM_SCR_HLD	65000
TTM_SCR_SLD	124500
TTM_SCR_ALL	560100
TTM_SCR_S	537900
TTM_SCR_SS	554500
TTM_RAT_ACV	10100

