VERSION	0.00.00	1.04.00
FES_MODE	0
BPM_DEF	220.000	220.000	220.000	220.000
MET_DEF	4	4
RESOLUTION	384
CLK_DEF	384
COMPATIBLE_CODE	MA2

BPM	0	0	220.000
MET	0	0	4	4

EXTAP	2	0	0
EXTAP	2	16	7
EXTAP	2	32	0
EXTAP	2	48	7
EXTAP	2	64	0
EXTAP	2	80	7
EXTAP	2	96	0
EXTAP	2	112	7
EXTAP	2	128	0
EXTAP	2	144	7
EXTAP	2	160	0
EXTAP	2	176	7
EXTAP	2	192	0
EXTAP	2	208	7
EXTAP	2	224	0
EXTAP	2	240	7
EXTAP	2	256	0
EXTAP	2	272	7
EXSTR	2	288	0
NMSI_	2	288	0	96	48	4
EXTAP	2	304	7
EXTAP	2	320	0
EXTAP	2	336	7
EXTAP	2	352	0
EXTAP	2	368	7
EXSTR	3	0	0
NMSCR	3	0	0	96	2208	7
NMTTP	3	1	0	C	1	M1
NMTHO	5	0	0	768	C	0	M1
NMTTP	8	0	3	E	0	M1
NMTTP	8	128	2	E	0	M1
NMTTP	8	256	1	E	0	M1
NMTHO	9	0	0	384	C	0	M1
NMTAP	10	0	7
NMTAP	10	128	0
NMTAP	10	256	1
NMTAP	11	0	1
NMSTR	11	0	3
NMSCR	11	0	3	96	288	7
NMTAP	11	128	2
NMTAP	11	192	2
NMTAP	11	256	3
NMSTR	12	0	4
NMSLL	12	0	4	96	288	0
NMTAP	12	128	5
NMTAP	12	256	4
NMSTR	13	0	3
NMSI_	13	0	3	96	160	7
NMTAP	13	128	2
NMTAP	13	192	2
NMTAP	13	256	3
CNSI_	13	256	7	0	128	5
NMSTR	14	0	4
NMSI_	14	0	4	96	160	0
NMTAP	14	128	5
CNSCR	14	256	0	0	128	2
NMTAP	14	256	4
NMHLD	15	0	3	128
NMTAP	15	128	4
NMTAP	15	192	4
NMHLD	15	256	5	128
NMHLD	16	0	6	128
NMHLD	16	128	7	128
NMTAP	16	256	0
BRSTR	17	0	1
NMSCL	17	0	1	96	192	6
BRSTR	17	0	5
NMSCL	17	0	5	96	192	2
CNSUR	17	288	2	0	384	4
CNSUR	17	288	6	0	384	0
BRTAP	19	0	3
BRHLD	19	0	7	384
NMTAP	20	0	2
NMTAP	20	24	3
NMTAP	20	48	4
NMTAP	20	72	5
NMTAP	20	96	2
NMTAP	20	120	3
NMTAP	20	144	4
NMTAP	20	168	5
NMTAP	20	192	2
NMTAP	20	216	3
NMTAP	20	240	4
NMTAP	20	264	5
NMTTP	20	288	0	C	1	M1
BRSTR	21	0	7
NMSI_	21	0	7	96	48	3
NMSI_	21	0	7	96	48	5
NMTAP	21	192	2
NMTAP	21	216	4
NMTAP	21	240	2
NMTAP	21	264	4
NMTAP	21	288	1
NMTAP	21	312	3
NMTAP	21	336	1
NMTAP	21	360	3
NMSTR	22	0	0
NMSI_	22	0	0	96	48	2
NMSI_	22	0	0	96	48	4
NMTAP	22	192	5
NMTAP	22	216	3
NMTAP	22	240	5
NMTAP	22	264	3
NMTAP	22	288	6
NMTAP	22	312	4
NMTAP	22	336	6
NMTAP	22	360	4
NMSTR	23	0	7
NMSI_	23	0	7	96	48	3
NMTAP	23	72	3
NMTAP	23	144	1
NMSTR	23	192	1
NMSI_	23	192	1	96	48	5
NMTAP	23	192	4
NMTAP	23	264	5
NMTAP	23	336	7
BRTAP	24	0	7
NMTAP	24	48	5
NMTAP	24	72	4
BRTAP	24	96	5
NMTAP	24	144	1
NMTAP	24	168	3
BRTAP	24	192	1
NMTAP	24	240	6
NMTAP	24	264	7
BRSTR	24	288	6
NMSCL	24	288	6	96	48	3
NMTAP	25	0	0
NMSTR	25	48	0
NMSI_	25	48	0	96	48	3
NMSI_	25	48	0	96	48	5
NMTAP	25	144	0
NMTAP	25	240	2
NMTAP	25	240	6
NMTAP	25	288	2
NMTAP	25	288	6
NMHLD	26	0	0	48
NMTAP	26	48	4
NMTAP	26	72	5
NMHLD	26	96	6	48
NMTAP	26	144	3
NMTAP	26	168	2
NMHLD	26	192	1	48
NMTAP	26	240	7
NMTAP	26	264	6
NMHLD	26	288	5	48
NMTAP	26	336	3
NMTAP	27	0	2
NMTAP	27	0	4
NMSTR	27	48	2
NMSI_	27	48	2	96	48	7
NMSTR	27	48	4
NMSI_	27	48	4	96	48	7
NMTAP	27	144	2
NMTAP	27	144	4
NMTAP	27	240	0
NMTAP	27	240	5
NMTAP	27	288	0
NMHLD	27	288	5	96
NMTAP	28	0	1
NMTAP	28	24	2
NMTAP	28	48	3
NMTAP	28	72	4
NMTAP	28	96	7
NMTAP	28	120	6
NMTAP	28	144	5
NMTAP	28	168	4
NMTAP	28	192	1
NMTAP	28	224	1
NMTAP	28	256	0
NMTAP	28	288	2
NMTAP	28	320	2
NMTAP	28	352	3
NMSTR	29	0	1
NMSI_	29	0	1	96	48	4
NMTAP	29	48	1
NMTAP	29	96	0
NMTAP	29	144	7
NMSTR	29	192	6
NMSI_	29	192	6	96	48	3
NMTAP	29	240	6
NMTAP	29	288	0
NMTAP	29	336	1
NMSTR	30	0	2
NMSI_	30	0	2	96	48	7
NMTAP	30	48	2
NMTAP	30	96	6
NMTAP	30	144	6
NMTAP	30	192	6
NMTAP	30	224	7
NMTAP	30	256	5
NMTAP	30	288	1
NMTAP	30	320	0
NMTAP	30	352	2
NMTTP	31	0	0	C	1	M1
NMTTP	31	0	3	B	0	M1
NMTTP	31	0	4	B	0	M1
NMTTP	31	0	4	E	0	M1
NMTAP	32	0	2
NMTAP	32	24	5
NMTAP	32	48	2
NMTAP	32	72	5
NMTAP	32	96	2
NMTAP	32	120	5
NMTAP	32	144	2
NMTAP	32	168	5
NMSTR	32	192	3
NMSI_	32	192	3	96	48	7
NMTAP	32	216	4
NMTAP	32	240	3
NMTAP	32	264	4
NMTAP	32	288	3
BRTAP	33	0	0
BRTAP	33	0	6
NMTAP	33	96	4
NMTAP	33	144	4
NMTAP	33	192	2
NMHLD	33	192	3	96
NMTAP	33	288	0
NMHLD	33	336	0	96
NMTAP	34	48	5
NMHLD	34	96	6	96
NMSTR	34	192	5
NMSI_	34	192	5	96	48	3
NMSTR	34	288	3
NMSCR	34	288	3	96	96	7
NMTAP	34	288	5
NMTAP	35	0	1
NMTAP	35	96	2
NMTAP	35	144	0
NMTAP	35	144	2
NMTAP	35	240	3
NMTAP	35	240	7
NMTAP	35	288	3
NMTAP	35	288	7
BRSTR	36	0	4
NMSI_	36	0	4	96	48	2
BRTAP	36	0	5
BRTAP	36	96	6
BRSTR	36	144	6
NMSI_	36	144	6	96	48	2
BRTAP	36	240	0
BRTAP	36	288	0
NMTAP	37	0	3
NMTAP	37	0	4
NMTAP	37	96	7
NMTAP	37	144	7
NMSTR	37	192	0
NMSI_	37	192	0	96	48	5
NMTAP	37	192	1
NMTAP	37	288	4
NMSTR	37	336	4
NMSI_	37	336	4	96	48	1
NMTAP	38	48	5
NMHLD	38	96	6	96
NMHLD	38	192	0	72
NMHLD	38	264	1	72
NMTAP	38	336	3
NMSTR	39	0	3
NMSCL	39	0	3	96	96	7
NMTAP	39	96	5
NMHLD	39	192	3	96
NMTAP	39	288	7
BRSTR	40	0	1
NMSI_	40	0	1	96	48	4
BRSTR	40	0	5
NMSI_	40	0	5	96	48	0
BRSTR	40	192	3
NMSCL	40	192	3	96	48	0
BRSTR	40	192	7
NMSCL	40	192	7	96	48	4
NMTAP	41	0	1
NMTAP	41	0	5
NMTAP	41	96	5
NMTAP	41	144	5
NMTAP	41	192	4
NMSTR	41	192	6
NMSI_	41	192	6	96	48	3
NMTAP	41	288	3
NMSTR	41	336	2
NMSI_	41	336	2	96	48	7
NMTAP	42	48	6
NMHLD	42	96	5	96
NMSTR	42	192	4
NMSI_	42	192	4	96	48	2
NMSTR	42	288	4
NMSCR	42	288	4	96	72	7
NMTAP	42	288	5
NMTAP	43	0	1
NMTAP	43	96	0
NMHLD	43	144	0	96
NMTAP	43	240	6
NMTAP	43	288	1
NMTAP	43	288	5
BRSTR	44	0	2
BRSCL	44	0	2	96	48	7
BRTAP	44	48	3
BRTAP	44	96	3
BRSTR	44	192	5
BRSI_	44	192	5	96	48	0
BRTAP	44	240	4
BRTAP	44	288	4
NMHLD	45	0	1	96
BRTAP	45	96	0
NMTAP	45	144	2
NMTAP	45	144	7
NMHLD	45	192	6	96
BRTAP	45	288	4
NMTAP	45	336	2
NMTAP	45	360	3
NMHLD	46	0	1	96
BRTAP	46	96	0
NMTAP	46	144	2
NMTAP	46	144	7
NMTAP	46	192	3
NMHLD	46	192	6	96
BRTAP	46	288	4
BRTAP	47	0	3
BRTAP	47	0	5
NMTAP	47	48	3
NMTAP	47	48	5
BRTAP	47	96	2
BRTAP	47	96	6
NMTAP	47	144	2
NMTAP	47	144	6
BRTAP	47	192	1
BRTAP	47	192	7
NMTAP	47	240	1
NMTAP	47	240	7
BRHLD	47	288	0	48
BRHLD	47	288	6	48
NMTAP	48	0	1
NMTAP	48	32	1
NMTAP	48	64	3
NMTAP	48	96	6
NMTAP	48	128	6
NMTAP	48	160	4
NMTAP	48	192	0
NMTAP	48	224	0
NMTAP	48	256	2
NMSTR	48	288	7
NMSI_	48	288	7	96	48	3
NMTAP	48	320	7
NMTAP	48	352	5
NMTTP	49	0	0	C	1	M1
BRTAP	49	0	7
NMHLD	51	0	3	768
NMSTR	51	288	4
NMSCR	51	288	4	96	192	7
NMSTR	53	0	7
NMSCL	53	0	7	96	192	4
NMTAP	53	288	3
NMHLD	54	0	2	192
NMTAP	54	192	3
NMTAP	54	264	3
NMTAP	54	264	4
NMTAP	54	336	4
NMTAP	54	336	6
NMHLD	55	0	4	96
NMHLD	55	0	6	96
NMHLD	55	192	0	96
NMHLD	55	192	1	96
NMSTR	56	0	6
NMSI_	56	0	6	96	48	2
NMTAP	56	0	7
NMTAP	56	96	0
CNSCR	56	144	2	0	72	4
NMTAP	56	192	1
NMTAP	56	288	1
NMTAP	56	288	5
BRTAP	57	0	4
BRTAP	57	0	5
BRHLD	57	48	3	240
BRHLD	57	48	6	240
BRTAP	58	0	0
BRTAP	58	0	1
BRTAP	58	48	2
BRHLD	58	48	7	96
BRTAP	58	192	6
BRTAP	58	192	7
BRHLD	58	240	0	96
BRTAP	58	240	5
NMTAP	59	0	1
NMTAP	59	0	4
NMTAP	59	96	5
NMTAP	59	128	5
NMTAP	59	160	5
NMTAP	59	192	4
NMTAP	59	192	6
NMTAP	59	288	2
NMTAP	59	320	2
NMTAP	59	352	2
NMTAP	60	0	1
NMTAP	60	0	3
NMTAP	60	96	6
NMTAP	60	128	6
NMTAP	60	160	6
NMTAP	60	192	5
NMTAP	60	192	7
BRTAP	60	288	0
NMHLD	61	0	1	24
NMHLD	61	0	4	48
NMHLD	61	96	2	48
NMHLD	61	96	3	24
NMHLD	61	192	3	24
NMHLD	61	192	4	48
NMHLD	61	288	4	48
NMHLD	61	288	5	24
NMTAP	62	0	3
NMTAP	62	24	6
NMTAP	62	48	3
NMTAP	62	72	6
NMTAP	62	96	3
NMTAP	62	120	6
NMTAP	62	144	3
NMTAP	62	168	6
NMTAP	62	192	2
NMTAP	62	216	7
NMTAP	62	240	2
NMTAP	62	264	7
NMTAP	62	288	2
NMTAP	62	312	7
NMTAP	62	336	2
NMTAP	62	360	7
BRTAP	63	0	1
NMTAP	63	24	0
NMTAP	63	48	1
NMTAP	63	72	0
NMTAP	63	96	1
NMTAP	63	120	0
NMTAP	63	144	1
NMTAP	63	168	0
NMTAP	63	192	1
NMTAP	63	216	0
NMTAP	63	240	1
NMTAP	63	264	0
NMTAP	63	288	1
NMTAP	63	312	0
NMTAP	63	336	1
NMTAP	63	360	0
NMTAP	64	0	1
NMTAP	64	24	0
NMTAP	64	48	1
NMTAP	64	72	0
NMTAP	64	96	1
NMTAP	64	120	0
NMTAP	64	144	1
NMTAP	64	168	0
NMTAP	64	192	1
NMTAP	64	216	0
NMTAP	64	240	1
NMTAP	64	264	0
NMTAP	64	288	1
NMTAP	64	312	0
NMTAP	64	336	1
NMTAP	64	360	0
BRTAP	65	0	1
NMTAP	65	24	2
NMTAP	65	48	1
NMTAP	65	72	2
NMTAP	65	96	1
NMTAP	65	120	2
NMTAP	65	144	1
NMTAP	65	168	2
NMTAP	65	192	1
NMTAP	65	216	2
NMTAP	65	240	1
NMTAP	65	264	2
NMTAP	65	288	1
NMTAP	65	312	2
NMTAP	65	336	1
NMTAP	65	360	2
NMTAP	66	0	1
NMTAP	66	24	2
NMTAP	66	48	1
NMTAP	66	72	2
NMTAP	66	96	1
NMTAP	66	120	2
NMTAP	66	144	1
NMTAP	66	168	2
NMTAP	66	192	1
NMTAP	66	216	2
NMTAP	66	240	1
NMTAP	66	264	2
NMTAP	66	288	1
NMTAP	66	312	2
NMTAP	66	336	1
NMTAP	66	360	2
NMHLD	67	0	0	576
NMTHO	68	0	0	576	C	1	M1
NMTAP	69	192	0
NMTAP	69	288	0
NMTAP	70	0	7
NMTAP	70	96	7
NMTAP	70	192	4
NMTAP	70	192	6
NMSTR	70	288	3
NMSI_	70	288	3	96	48	7
NMTAP	70	288	4
NMSTR	71	0	1
BRSI_	71	0	1	96	48	5
NMTTP	71	0	3	A	1	M1
CNSI_	71	144	5	0	48	2
CNSI_	71	192	2	0	48	4
CNSI_	71	240	4	0	48	0
NMTAP	72	0	1
NMTAP	72	0	5
NMTAP	72	48	2
NMTAP	72	48	6
NMSTR	72	96	1
NMSI_	72	96	1	96	48	4
NMSTR	72	96	5
NMSI_	72	96	5	96	48	0
NMTAP	72	144	2
NMTAP	72	144	6
NMSTR	72	192	1
BRSLL	72	192	1	96	96	4
NMSTR	72	192	5
BRSLL	72	192	5	96	96	0
NMTAP	73	48	1
NMTAP	73	48	5
NMTAP	73	144	2
NMTAP	73	144	4
NMTAP	73	192	5
NMTAP	73	216	3
NMTAP	73	240	5
NMTAP	73	264	3
BRTAP	73	288	7
NMTAP	74	0	2
NMTAP	74	0	6
NMTAP	74	48	1
NMTAP	74	48	5
NMSTR	74	96	2
NMSI_	74	96	2	96	48	7
NMSTR	74	96	6
NMSI_	74	96	6	96	48	3
NMTAP	74	144	1
NMTAP	74	144	5
NMSTR	74	192	2
BRSLR	74	192	2	96	96	7
NMSTR	74	192	6
BRSLR	74	192	6	96	96	3
NMTAP	75	48	2
NMTAP	75	48	6
NMTAP	75	144	3
NMTAP	75	144	5
NMTAP	75	192	2
NMTAP	75	216	4
NMTAP	75	240	2
NMTAP	75	264	4
BRTAP	75	288	0
NMTAP	76	0	1
NMTAP	76	0	5
NMTAP	76	48	2
NMTAP	76	48	6
NMSTR	76	96	1
NMSI_	76	96	1	96	48	6
NMSTR	76	96	5
NMSI_	76	96	5	96	48	2
NMTAP	76	144	2
NMTAP	76	144	6
NMSTR	76	192	1
BRSLR	76	192	1	96	96	6
NMSTR	76	192	5
BRSLR	76	192	5	96	96	2
NMTAP	77	48	3
NMTAP	77	48	7
NMTAP	77	144	4
NMTAP	77	144	6
NMTAP	77	192	3
NMTAP	77	192	5
NMTAP	77	240	2
NMTAP	77	240	4
NMTAP	77	288	1
NMTAP	77	288	3
BRHLD	77	336	0	96
NMHLD	77	336	4	96
NMTAP	78	96	0
NMTAP	78	96	4
NMTAP	78	120	1
NMTAP	78	120	5
NMTAP	78	144	2
NMTAP	78	144	6
NMTAP	78	168	3
NMTAP	78	168	7
NMTAP	78	192	0
BRTAP	78	192	4
NMTAP	78	240	0
NMTAP	78	288	0
NMTAP	78	288	4
NMTAP	78	312	3
NMTAP	78	312	7
NMTAP	78	336	2
NMTAP	78	336	6
NMTAP	78	360	1
NMTAP	78	360	5
BRHLD	79	0	0	48
NMHLD	79	0	4	48
NMHLD	79	72	0	48
BRHLD	79	72	4	48
BRTAP	79	144	1
NMTAP	79	144	3
NMHLD	79	192	3	48
BRHLD	79	192	4	48
NMHLD	79	264	4	48
BRHLD	79	264	6	48
NMTAP	79	336	4
BRTAP	79	336	6
BRTAP	80	0	3
NMTAP	80	0	7
NMTAP	80	48	2
BRTAP	80	48	6
BRSTR	80	96	3
BRSV_	80	96	3	96	48	0
NMSTR	80	96	7
BRSV_	80	96	7	96	48	4
NMTAP	80	144	2
BRTAP	80	144	6
BRSTR	80	192	3
BRSCR	80	192	3	96	48	5
NMSTR	80	192	7
BRSCR	80	192	7	96	48	1
CNSI_	80	336	1	0	48	4
CNSI_	80	336	5	0	48	0
NMTAP	81	48	3
NMTAP	81	48	7
NMTAP	81	144	4
NMTAP	81	144	5
NMTAP	81	192	2
NMTAP	81	216	3
NMTAP	81	240	2
NMTAP	81	264	3
BRTAP	81	288	1
BRTAP	82	0	0
NMTAP	82	0	4
NMTAP	82	48	1
BRTAP	82	48	5
BRSTR	82	96	0
BRSV_	82	96	0	96	48	3
NMSTR	82	96	4
BRSV_	82	96	4	96	48	7
NMTAP	82	144	1
BRTAP	82	144	5
BRSTR	82	192	0
BRSCL	82	192	0	96	48	6
NMSTR	82	192	4
BRSCL	82	192	4	96	48	2
CNSI_	82	336	2	0	48	7
CNSI_	82	336	6	0	48	3
NMTAP	83	48	1
NMTAP	83	48	5
NMTAP	83	144	2
NMTAP	83	144	6
NMTAP	83	192	5
NMTAP	83	216	3
NMTAP	83	240	5
NMTAP	83	264	3
BRTAP	83	288	7
NMHLD	84	0	2	24
BRHLD	84	0	6	24
BRHLD	84	48	1	24
NMHLD	84	48	5	24
NMSTR	84	96	2
BRSV_	84	96	2	96	48	5
BRSTR	84	96	6
BRSV_	84	96	6	96	48	1
BRHLD	84	144	1	24
NMHLD	84	144	5	24
NMSTR	84	192	2
BRSCL	84	192	2	96	48	0
BRSTR	84	192	6
BRSCL	84	192	6	96	48	4
CNSI_	84	336	0	0	48	5
CNSI_	84	336	4	0	48	1
NMTAP	85	48	2
NMTAP	85	48	6
NMTAP	85	144	3
NMTAP	85	144	4
NMTAP	85	168	2
NMTAP	85	168	5
BRSTR	85	192	1
NMSCR	85	192	1	96	24	2
BRSTR	85	192	6
NMSCL	85	192	6	96	24	5
BRTAP	85	288	1
BRTAP	85	288	6
CNSI_	85	312	2	0	24	4
CNSI_	85	312	5	0	24	3
BRTAP	86	0	0
BRTAP	86	0	7
NMHLD	86	96	3	24
NMHLD	86	96	5	24
NMTAP	86	144	3
NMTAP	86	144	5
NMHLD	86	192	2	24
NMHLD	86	192	6	24
NMTAP	86	240	2
NMTAP	86	240	6
NMHLD	86	288	1	24
NMHLD	86	288	7	24
NMTAP	86	336	1
NMTAP	86	336	7
NMTAP	87	0	0
NMTAP	87	24	0
NMTAP	87	48	0
NMTAP	87	72	0
NMTAP	87	96	0
NMTAP	87	120	0
NMTAP	87	144	0
NMTAP	87	168	0
NMTAP	87	192	0
NMTAP	87	216	0
NMTAP	87	240	0
NMTAP	87	264	0
NMTAP	87	288	0
NMTAP	87	312	0
NMTAP	87	336	0
NMTAP	87	360	0
NMTAP	88	0	0
NMTAP	88	12	7
NMTAP	88	24	6
NMTAP	88	36	5
NMTAP	88	48	4
NMTAP	88	60	3
NMTAP	88	72	2
NMTAP	88	84	1
NMTAP	88	96	0
NMTAP	88	108	7
NMTAP	88	120	6
NMTAP	88	132	5
NMTAP	88	144	4
NMTAP	88	156	3
NMTAP	88	168	2
NMTAP	88	180	1
NMTAP	88	192	0
NMTAP	88	204	7
NMTAP	88	216	6
NMTAP	88	228	5
NMTAP	88	240	4
NMTAP	88	252	3
NMTAP	88	264	2
NMTAP	88	276	1
NMTAP	88	288	0
NMTAP	88	300	7
NMTAP	88	312	6
NMTAP	88	324	5
NMTAP	88	336	4
NMTAP	88	348	3
NMTAP	88	360	2
NMTAP	88	372	1
NMTAP	89	0	0
NMTTP	89	0	0	C	1	M1
NMSTR	89	192	7
NMSI_	89	192	7	96	48	3
BRTAP	89	288	7
BRTAP	90	0	1
BRTAP	90	0	5
NMTAP	90	48	2
NMTAP	90	72	3
NMTAP	90	96	2
NMTAP	90	120	3
NMHLD	90	144	1	48
NMTAP	90	192	5
NMTAP	90	216	4
NMTAP	90	240	5
NMTAP	90	264	4
NMHLD	90	288	6	48
NMTAP	90	336	1
NMTAP	90	360	0
NMTAP	91	0	1
NMTAP	91	24	0
NMHLD	91	48	2	48
NMTAP	91	96	4
NMTAP	91	120	3
NMTAP	91	144	4
NMTAP	91	168	3
NMTAP	91	192	4
NMTAP	91	240	3
NMTAP	91	240	5
NMTAP	91	288	2
NMTAP	91	288	6
NMTAP	91	336	2
NMTAP	91	336	6
BRTAP	92	0	1
BRTAP	92	0	7
NMTAP	92	48	0
NMTAP	92	72	6
NMTAP	92	96	0
NMTAP	92	120	6
NMTAP	92	144	0
NMTAP	92	192	2
NMTAP	92	192	3
NMTAP	92	240	5
NMTAP	92	264	4
NMTAP	92	288	6
NMTAP	92	312	4
NMTAP	92	336	5
NMTAP	92	360	4
NMHLD	93	0	6	48
NMTAP	93	48	7
NMHLD	93	72	5	48
NMTAP	93	120	0
NMHLD	93	144	4	48
NMTAP	93	192	1
NMTAP	93	240	2
NMTAP	93	240	3
NMTTP	93	288	0	C	1	M1
NMTAP	93	288	4
BRTAP	94	0	0
BRTAP	94	0	6
NMTAP	94	48	1
NMTAP	94	72	0
NMTAP	94	96	1
NMTAP	94	120	0
NMHLD	94	144	2	48
NMTAP	94	192	6
NMTAP	94	216	7
NMTAP	94	240	6
NMTAP	94	264	7
NMHLD	94	288	5	48
NMTAP	94	336	2
NMTAP	94	360	3
BRTAP	95	0	1
BRTAP	95	48	1
NMTAP	95	96	5
NMTAP	95	120	4
NMTAP	95	144	6
NMTAP	95	168	4
NMTAP	95	192	7
NMTAP	95	240	0
NMTAP	95	240	6
NMHLD	95	288	1	48
NMHLD	95	288	5	48
BRTAP	96	0	2
NMTAP	96	24	4
NMTAP	96	48	2
NMTAP	96	72	4
NMTAP	96	96	2
BRTAP	96	144	6
NMTAP	96	168	3
NMTAP	96	192	6
NMTAP	96	216	3
NMTAP	96	240	6
BRTAP	96	288	0
NMTAP	96	312	4
NMTAP	96	336	0
NMTAP	96	360	4
BRTAP	97	0	1
BRTAP	97	24	3
BRTAP	97	48	2
BRTAP	97	72	4
BRTAP	97	96	3
BRTAP	97	120	5
BRTAP	97	144	4
BRTAP	97	168	6
BRHLD	97	192	3	12
BRHLD	97	216	7	12
BRHLD	97	240	2	12
BRHLD	97	264	6	12
BRHLD	97	288	1	12
BRHLD	97	312	5	12
BRHLD	97	336	0	12
BRHLD	97	360	4	12
NMTTP	98	0	0	C	1	M1
NMHLD	99	192	5	192
NMHLD	100	0	3	480
NMSTR	101	96	4
NMSV_	101	96	4	96	24	3
NMSV_	101	96	4	96	24	5
CNSI_	101	216	3	0	72	0
CNSI_	101	216	5	0	72	0
BRTAP	102	0	2
BRTAP	102	0	6
NMTAP	102	96	1
NMHLD	102	120	1	48
NMTAP	102	168	3
NMHLD	102	192	3	48
NMTAP	102	240	4
NMHLD	102	264	4	48
NMTAP	102	312	6
NMHLD	102	336	6	48
NMTAP	103	0	2
NMHLD	103	24	2	48
NMTAP	103	72	0
NMHLD	103	96	0	48
NMTAP	103	144	7
NMHLD	103	168	7	48
NMTAP	103	216	5
NMHLD	103	240	5	48
NMTAP	103	288	3
NMHLD	103	312	3	48
NMTAP	103	360	6
NMTAP	104	0	0
NMTAP	104	24	7
NMTAP	104	48	0
NMTAP	104	72	7
NMTAP	104	96	0
NMTAP	104	144	2
NMTAP	104	168	3
NMTAP	104	192	2
NMTAP	104	216	3
NMTAP	104	240	2
NMTAP	104	288	5
NMTAP	104	312	4
NMTAP	104	336	5
NMTAP	104	360	4
NMTAP	105	0	5
NMTAP	105	16	6
NMTAP	105	32	7
NMTAP	105	48	0
NMTAP	105	64	1
NMTAP	105	80	2
NMTAP	105	96	5
NMTAP	105	112	6
NMTAP	105	128	7
NMTAP	105	144	0
NMTAP	105	160	1
NMTAP	105	176	2
NMTAP	105	192	5
NMTAP	105	208	6
NMTAP	105	224	7
NMTAP	105	240	0
NMTAP	105	256	1
NMTAP	105	272	2
NMTAP	105	288	5
NMTAP	105	304	6
NMTAP	105	320	7
NMTAP	105	336	0
NMTAP	105	352	1
NMTAP	105	368	2
NMSTR	106	0	3
NMSCR	106	0	3	96	192	7
CNSXL	106	288	7	0	336	2
NMSTR	107	96	4
NMSCR	107	96	4	96	48	6
BRTAP	108	0	1
NMTAP	108	16	2
NMTAP	108	32	3
BRHLD	108	48	7	0
NMHLD	108	64	6	0
NMHLD	108	80	5	0
BRTAP	108	96	0
NMTAP	108	112	1
NMTAP	108	128	2
BRHLD	108	144	6	0
NMHLD	108	160	5	0
NMHLD	108	176	4	0
BRTAP	108	192	1
NMTAP	108	208	2
NMTAP	108	224	3
BRHLD	108	240	7	0
NMHLD	108	256	6	0
NMHLD	108	272	5	0
BRTAP	108	288	0
NMTAP	108	304	1
NMTAP	108	320	2
BRHLD	108	336	6	0
NMHLD	108	352	5	0
NMHLD	108	368	4	0
BRTAP	109	0	0
NMHLD	109	0	3	0
NMTAP	109	12	1
NMTAP	109	24	2
NMTAP	109	36	3
NMTAP	109	48	4
NMTAP	109	60	5
NMTAP	109	72	6
NMTAP	109	84	7
NMTAP	109	96	0
NMTAP	109	108	1
NMTAP	109	120	2
NMTAP	109	132	3
NMTAP	109	144	4
NMTAP	109	156	5
NMTAP	109	168	6
NMTAP	109	180	7
NMTAP	109	192	0
BRTAP	109	192	5
NMTAP	109	204	4
NMTAP	109	216	3
NMTAP	109	228	2
NMTAP	109	240	1
NMTAP	109	252	0
NMTAP	109	264	7
NMTAP	109	276	6
NMTAP	109	288	5
NMTAP	109	300	4
NMTAP	109	312	3
NMTAP	109	324	2
NMTAP	109	336	1
NMTAP	109	348	0
NMTAP	109	360	7
NMTAP	109	372	6
BRTAP	110	0	1
NMTAP	110	0	5
NMTTP	110	48	0	C	1	M1
NMTTP	110	48	3	B	0	M1
NMTTP	110	48	3	A	0	M1
NMTTP	110	48	7	B	0	M1
NMTTP	110	48	7	A	0	M1

T_REC_TAP	596
T_REC_BRK	82
T_REC_XTP	23
T_REC_BXX	0
T_REC_HLD	81
T_REC_XHO	0
T_REC_BHO	27
T_REC_BXH	0
T_REC_STR	51
T_REC_BST	20
T_REC_XST	2
T_REC_XBS	0
T_REC_TTP	19
T_REC_THO	3
T_REC_SLD	56
T_REC_BSL	21
T_REC_ALL	981
T_NUM_TAP	691
T_NUM_BRK	150
T_NUM_HLD	84
T_NUM_SLD	56
T_NUM_ALL	981
T_JUDGE_TAP	793
T_JUDGE_HLD	230
T_JUDGE_SLD	77
T_JUDGE_ALL	1100
TTM_EACHPAIRS	143
TTM_SCR_TAP	345500
TTM_SCR_BRK	390000
TTM_SCR_HLD	84000
TTM_SCR_SLD	84000
TTM_SCR_ALL	903500
TTM_SCR_S	861850
TTM_SCR_SS	888500
TTM_RAT_ACV	10168

