VERSION	0.00.00	1.04.00
FES_MODE	0
BPM_DEF	220.000	220.000	220.000	220.000
MET_DEF	4	4
RESOLUTION	384
CLK_DEF	384
COMPATIBLE_CODE	MA2

BPM	0	0	220.000
MET	0	0	4	4

NMTHO	2	0	0	384	C	1	M1
NMTTP	2	0	2	B	0	M1
NMTTP	2	0	3	B	0	M1
NMTTP	2	0	4	B	0	M1
NMTTP	2	0	5	B	0	M1
NMTTP	3	0	1	B	0	M1
NMTTP	3	0	1	A	0	M1
NMTTP	3	0	2	B	0	M1
NMTTP	3	0	2	A	0	M1
NMTTP	3	0	2	D	0	M1
NMTTP	3	0	5	B	0	M1
NMTTP	3	0	5	A	0	M1
NMTTP	3	0	6	B	0	M1
NMTTP	3	0	6	A	0	M1
NMTTP	3	0	6	D	0	M1
NMSTR	7	0	0
NMSCR	7	0	0	96	288	3
NMSTR	8	0	4
NMSCR	8	0	4	96	288	7
NMSTR	9	0	0
NMSXL	9	0	0	96	576	3
NMSTR	11	0	5
NMSCL	11	0	5	96	288	2
NMSTR	12	0	1
NMSCL	12	0	1	96	288	6
NMSTR	13	0	5
NMSXR	13	0	5	96	576	2
NMHLD	15	0	1	384
NMHLD	16	0	3	1056
NMHLD	17	0	4	672
NMSTR	19	0	3
BRSCR	19	0	3	96	384	7
NMSTR	19	0	4
BRSCL	19	0	4	96	384	0
BXTAP	20	288	0
BXTAP	20	288	7
NMTAP	21	0	3
NMTAP	21	0	6
NMTAP	21	96	5
NMTAP	21	144	5
NMTAP	21	192	4
NMTAP	21	240	4
NMHLD	21	288	6	96
NMHLD	22	0	4	96
NMHLD	22	96	3	96
NMHLD	22	192	1	96
NMTAP	22	288	0
NMTAP	23	0	2
NMTAP	23	0	7
NMTAP	23	96	1
NMTAP	23	144	1
NMTAP	23	192	0
NMTAP	23	240	0
NMTAP	23	288	2
NMTAP	24	0	2
NMTAP	24	0	3
NMTAP	24	96	0
NMTAP	24	96	1
NMTAP	24	192	6
NMTAP	24	192	7
NMTAP	24	288	4
NMTAP	24	288	5
NMTAP	25	0	3
NMTAP	25	0	6
NMTAP	25	48	3
NMTAP	25	48	6
NMTAP	25	144	1
NMTAP	25	144	4
NMTAP	25	192	1
NMTAP	25	192	4
NMHLD	25	288	5	96
NMHLD	26	0	7	96
NMHLD	26	96	0	96
NMHLD	26	192	2	96
NMTAP	26	288	3
NMTAP	27	0	4
NMTAP	27	0	5
NMTAP	27	48	4
NMTAP	27	48	5
NMTAP	27	144	3
NMTAP	27	144	6
NMTAP	27	240	2
NMHLD	27	288	2	96
NMHLD	28	0	0	96
NMHLD	28	96	7	96
NMHLD	28	192	5	96
NMTAP	28	288	4
NMTAP	29	0	2
NMTAP	29	48	2
NMTAP	29	96	3
NMTAP	29	144	3
NMTAP	29	192	1
NMTAP	29	240	1
NMTAP	29	288	7
NMTAP	29	336	7
NMSTR	30	0	4
NMSCR	30	0	4	96	288	3
NMTTP	31	0	0	C	1	M1
NMTTP	32	0	0	C	1	M1
NMTTP	32	0	2	B	0	M1
NMTTP	32	0	3	B	0	M1
NMTTP	32	0	4	B	0	M1
NMTTP	32	0	5	B	0	M1
EXTAP	32	288	0
EXTAP	32	288	7
NMTAP	33	0	2
NMTAP	33	0	5
NMTAP	33	96	6
NMHLD	33	144	6	96
NMTAP	33	240	7
NMHLD	33	288	7	96
NMTAP	34	0	0
NMTAP	34	96	1
NMTAP	34	192	2
NMTAP	34	192	3
NMTAP	34	288	1
NMTAP	34	288	4
NMTAP	35	0	4
NMTAP	35	0	5
NMTAP	35	96	3
NMTAP	35	96	6
NMTAP	35	192	1
NMTAP	35	240	1
NMTAP	35	288	3
NMTAP	36	0	6
NMTAP	36	48	6
NMTAP	36	96	4
NMTAP	36	192	3
NMTAP	36	240	3
NMTAP	36	288	2
NMTAP	36	288	4
NMTAP	37	0	2
NMTAP	37	0	4
NMTAP	37	96	1
NMHLD	37	144	1	96
NMTAP	37	240	0
NMHLD	37	288	0	96
NMTAP	38	0	7
NMTAP	38	96	6
NMTAP	38	192	4
NMTAP	38	192	5
NMSTR	38	288	4
NMSCL	38	288	4	96	96	1
NMSTR	38	288	5
NMSUL	38	288	5	96	96	0
NMTAP	39	192	1
NMTAP	39	240	1
NMTAP	39	288	3
NMTAP	40	0	6
NMTAP	40	48	6
NMTAP	40	96	4
NMTAP	40	192	3
NMTAP	40	240	3
NMTAP	40	288	2
NMTAP	40	288	4
BRTAP	41	0	1
BRTAP	41	0	5
NMTAP	41	96	6
NMHLD	41	144	6	96
NMTAP	41	240	4
NMHLD	41	288	4	96
NMTAP	42	0	3
NMTAP	42	96	2
NMTAP	42	192	0
NMTAP	42	192	1
NMTAP	42	288	2
NMTAP	42	288	7
NMTAP	43	0	6
NMTAP	43	0	7
NMTAP	43	96	0
NMTAP	43	96	5
NMTAP	43	192	1
NMTAP	43	240	1
NMTAP	43	288	3
NMHLD	44	0	0	96
NMHLD	44	0	1	96
NMHLD	44	192	6	96
NMHLD	44	192	7	96
NMTAP	45	0	4
NMTAP	45	0	5
NMTAP	45	96	4
NMTAP	45	96	5
NMTAP	45	192	4
NMTAP	45	192	5
NMTAP	45	240	3
NMTAP	45	240	4
NMTAP	45	288	2
NMTAP	45	288	3
NMTAP	46	0	2
NMTAP	46	0	3
NMTAP	46	96	2
NMTAP	46	96	3
NMTAP	46	192	2
NMTAP	46	192	3
NMTAP	46	240	3
NMTAP	46	240	4
NMTAP	46	288	4
NMTAP	46	288	5
NMTAP	47	0	6
NMTAP	47	0	7
NMTAP	47	96	6
NMTAP	47	96	7
NMTAP	47	192	6
NMTAP	47	192	7
NMTAP	47	240	0
NMTAP	47	240	7
NMTAP	47	288	0
NMTAP	47	288	1
EXTAP	48	0	2
EXTAP	48	32	2
EXTAP	48	64	2
EXTAP	48	96	3
EXTAP	48	192	5
EXTAP	48	224	5
EXTAP	48	256	5
EXTAP	48	288	4
BRSTR	49	0	7
NMSCL	49	0	7	96	480	0
NMSTR	51	0	7
BRSCL	51	0	7	96	480	0
NMHLD	53	0	0	336
NMTAP	53	0	7
NMTAP	53	336	6
NMHLD	54	0	6	144
NMTAP	54	144	4
NMTAP	54	192	4
NMTAP	54	264	3
NMTAP	54	264	5
NMTAP	54	336	2
NMTAP	54	336	6
NMTAP	55	0	2
NMSTR	55	0	6
NMSI_	55	0	6	96	48	2
NMSTR	55	192	1
NMSI_	55	192	1	96	48	5
NMSTR	56	0	7
NMSI_	56	0	7	96	48	3
NMSTR	56	192	0
NMSI_	56	192	0	96	48	4
NMTAP	57	0	7
NMHLD	57	48	7	240
NMTAP	58	0	3
NMTAP	58	0	5
NMTAP	58	48	3
NMTAP	58	48	5
NMTAP	58	192	0
NMTAP	58	192	7
NMTAP	58	240	0
NMTAP	58	240	7
NMHLD	59	0	1	96
NMHLD	59	0	3	96
NMHLD	59	192	3	96
NMHLD	59	192	4	96
NMHLD	60	0	4	96
NMHLD	60	0	6	96
NMHLD	60	192	0	96
NMHLD	60	192	7	96
NMTAP	61	0	1
NMTAP	61	48	1
NMTAP	61	96	7
NMTAP	61	144	7
NMTAP	61	192	0
NMTAP	61	240	0
NMTAP	61	288	6
NMTAP	61	336	6
NMTAP	62	0	2
NMTAP	62	48	2
NMTAP	62	96	5
NMTAP	62	144	5
NMTAP	62	192	3
NMTAP	62	192	4
NMTAP	62	240	3
NMTAP	62	240	4
NMTAP	62	288	3
NMTAP	62	288	4
NMTAP	62	336	3
NMTAP	62	336	4
BRHLD	63	0	2	672
BRHLD	63	0	5	672
BRHLD	65	0	1	672
BRHLD	65	0	6	672
NMTHO	67	0	0	960	C	1	M1
NMTTP	67	0	2	B	0	M1
NMTTP	67	0	5	B	0	M1
NMTAP	70	192	0
NMTAP	70	192	7
NMTAP	70	288	3
NMTAP	70	288	4
BRTAP	71	0	1
BRTAP	71	0	6
BRTAP	72	0	2
BRTAP	72	0	4
NMTAP	72	48	3
BRTAP	72	96	2
BRTAP	72	96	4
NMTAP	72	144	3
BRTAP	72	192	1
BRTAP	72	192	5
NMTAP	72	288	6
NMTAP	72	288	7
NMTAP	72	336	6
NMTAP	72	336	7
NMTAP	73	48	4
NMTAP	73	48	5
NMTAP	73	144	3
NMTAP	73	144	4
NMTAP	73	192	2
NMTAP	73	216	3
NMTAP	73	240	2
NMTAP	73	264	3
NMTAP	73	288	2
BRTAP	74	0	3
BRTAP	74	0	5
NMTAP	74	48	4
BRTAP	74	96	3
BRTAP	74	96	5
NMTAP	74	144	4
BRTAP	74	192	2
BRTAP	74	192	6
NMTAP	74	288	0
NMTAP	74	288	1
NMTAP	74	336	0
NMTAP	74	336	1
NMTAP	75	48	2
NMTAP	75	48	3
NMTAP	75	144	3
NMTAP	75	144	4
NMTAP	75	192	5
NMTAP	75	216	4
NMTAP	75	240	5
NMTAP	75	264	4
NMTAP	75	288	5
BRTAP	76	0	2
BRTAP	76	0	5
BRTAP	76	48	3
BRTAP	76	48	4
BRTAP	76	96	2
BRTAP	76	96	5
BRTAP	76	144	3
BRTAP	76	144	4
BRTAP	76	192	1
BRTAP	76	192	6
NMTAP	76	288	0
NMTAP	76	288	7
NMTAP	76	336	0
NMTAP	76	336	7
NMTAP	77	48	0
NMTAP	77	48	1
NMTAP	77	144	2
NMHLD	77	192	2	96
NMTAP	77	288	3
NMTAP	77	336	3
NMTAP	78	48	4
NMTAP	78	48	5
NMTAP	78	96	4
NMTAP	78	96	5
NMTAP	78	192	6
NMTAP	78	192	7
NMTAP	78	288	0
NMSTR	78	288	1
NMSI_	78	288	1	96	96	6
CNSI_	79	96	6	0	48	4
CNSI_	79	144	4	0	96	0
BRTAP	80	0	0
BRTAP	80	0	6
NMTAP	80	48	7
BRTAP	80	96	0
BRTAP	80	96	6
NMTAP	80	144	7
BRTAP	80	192	1
BRTAP	80	192	5
NMTAP	80	288	2
NMTAP	80	288	3
NMTAP	80	336	2
NMTAP	80	336	3
NMTAP	81	48	0
NMTAP	81	48	1
NMTAP	81	144	0
NMTAP	81	144	7
NMTAP	81	192	6
NMTAP	81	216	7
NMTAP	81	240	6
NMTAP	81	264	7
NMTAP	81	288	6
BRTAP	82	0	1
BRTAP	82	0	7
NMTAP	82	48	0
BRTAP	82	96	1
BRTAP	82	96	7
NMTAP	82	144	0
BRTAP	82	192	2
BRTAP	82	192	6
NMTAP	82	288	4
NMTAP	82	288	5
NMTAP	82	336	4
NMTAP	82	336	5
NMTAP	83	48	6
NMTAP	83	48	7
NMTAP	83	144	0
NMTAP	83	144	7
NMTAP	83	192	1
NMTAP	83	216	0
NMTAP	83	240	1
NMTAP	83	264	0
NMTAP	83	288	1
BRTAP	84	0	1
BRTAP	84	0	6
BRTAP	84	48	0
BRTAP	84	48	7
BRTAP	84	96	1
BRTAP	84	96	6
BRTAP	84	144	0
BRTAP	84	144	7
BRTAP	84	192	2
BRTAP	84	192	5
NMTAP	84	288	3
NMTAP	84	288	4
NMTAP	84	336	3
NMTAP	84	336	4
NMHLD	85	48	5	96
NMTAP	85	144	7
NMHLD	85	192	7	96
NMTAP	85	288	0
NMTAP	86	0	1
NMTAP	86	0	3
NMTAP	86	96	4
NMTAP	86	96	6
NMTAP	86	192	2
NMTAP	86	192	3
NMTAP	86	288	4
NMTAP	86	288	5
NMTAP	87	0	0
NMTAP	87	24	7
NMTAP	87	48	0
NMTAP	87	72	7
NMTAP	87	96	0
NMTAP	87	120	7
NMTAP	87	144	0
NMTAP	87	168	7
NMTAP	87	192	0
NMTAP	87	216	7
NMTAP	87	240	0
NMTAP	87	264	7
NMSTR	87	288	0
NMSCR	87	288	0	96	288	7
NMTTP	88	0	0	C	1	M1
NMTAP	89	0	7
NMTAP	89	24	6
NMTAP	89	48	5
NMTAP	89	72	4
NMTAP	89	96	3
NMTAP	89	120	2
NMTAP	89	144	1
NMTAP	89	168	0
NMTAP	89	192	7
NMTAP	89	216	6
NMTAP	89	240	5
NMTAP	89	264	4
NMTAP	89	288	3
NMTAP	90	0	2
NMTAP	90	0	3
NMHLD	90	48	2	48
NMHLD	90	48	3	48
NMTAP	90	144	0
NMTAP	90	144	1
NMHLD	90	192	0	48
NMHLD	90	192	1	48
NMTAP	90	288	4
NMTAP	90	288	5
NMHLD	90	336	4	48
NMHLD	90	336	5	48
NMTAP	91	48	6
NMTAP	91	48	7
NMHLD	91	96	6	48
NMHLD	91	96	7	48
BRTAP	91	192	1
BRTAP	91	192	4
BRTAP	91	240	1
BRTAP	91	240	4
BRTAP	91	288	1
BRTAP	91	288	4
NMTAP	92	0	4
NMTAP	92	0	5
NMHLD	92	48	4	48
NMHLD	92	48	5	48
NMTAP	92	144	6
NMTAP	92	144	7
NMHLD	92	192	6	48
NMHLD	92	192	7	48
NMTAP	92	288	2
NMTAP	92	288	3
NMHLD	92	336	2	48
NMHLD	92	336	3	48
NMTAP	93	48	0
NMTAP	93	48	1
NMHLD	93	96	0	48
NMHLD	93	96	1	48
BRTAP	93	192	3
BRTAP	93	192	4
BRTAP	93	288	0
BRTAP	93	288	7
NMTAP	94	0	6
NMTAP	94	0	7
NMHLD	94	48	6	48
NMHLD	94	48	7	48
NMTAP	94	144	2
NMTAP	94	144	3
NMHLD	94	192	2	48
NMHLD	94	192	3	48
NMTAP	94	288	0
NMTAP	94	288	1
NMHLD	94	336	0	48
NMHLD	94	336	1	48
NMTAP	95	48	4
NMTAP	95	48	5
NMHLD	95	96	4	48
NMHLD	95	96	5	48
BRTAP	95	192	2
BRTAP	95	192	7
BRTAP	95	240	2
BRTAP	95	240	7
BRTAP	95	288	2
BRTAP	95	288	7
NMTAP	96	0	0
NMTAP	96	0	1
NMHLD	96	48	0	48
NMHLD	96	48	1	48
NMTAP	96	144	4
NMTAP	96	144	5
NMHLD	96	192	4	48
NMHLD	96	192	5	48
NMTAP	96	288	6
NMTAP	96	288	7
NMHLD	96	336	6	48
NMHLD	96	336	7	48
NMTAP	97	48	2
NMTAP	97	48	3
NMHLD	97	96	2	48
NMHLD	97	96	3	48
BRTAP	97	192	0
BRTAP	97	192	5
BRTAP	97	240	0
BRTAP	97	240	5
BRTAP	97	288	0
BRSTR	97	288	5
NMSCR	97	288	5	96	384	3
NMTTP	98	0	0	C	1	M1
CNSUR	99	0	3	0	768	4
NMTAP	101	192	2
NMTAP	101	192	5
NMTAP	102	0	0
NMTAP	102	0	7
NMTAP	102	96	3
BRTAP	102	96	6
BRTAP	102	168	1
NMTAP	102	168	3
NMTAP	102	240	4
BRTAP	102	240	5
BRTAP	102	312	0
NMTAP	102	312	7
BRTAP	103	0	1
NMTAP	103	0	3
NMTAP	103	72	3
BRTAP	103	72	5
BRTAP	103	144	2
NMTAP	103	144	3
NMTAP	103	216	0
BRTAP	103	216	7
BRTAP	103	288	2
NMTAP	103	288	6
NMTAP	103	360	1
NMTAP	103	360	4
NMTAP	104	24	1
NMTAP	104	24	4
NMTAP	104	144	3
NMTAP	104	144	6
NMTAP	104	192	3
BXSTR	104	192	6
NMSI_	104	192	6	96	96	3
CNSI_	105	0	3	0	96	7
CNSI_	105	96	7	0	96	2
CNSI_	105	192	2	0	96	0
BXTAP	106	0	0
NMSTR	107	0	3
NMSCL	107	0	3	96	144	0
NMSTR	107	0	4
NMSCR	107	0	4	96	144	7
NMTAP	108	0	0
NMTAP	108	24	7
NMTAP	108	48	0
NMTAP	108	72	7
NMTAP	108	96	0
NMTAP	108	120	7
NMTAP	108	144	0
NMTAP	108	168	7
NMTAP	108	192	0
NMTAP	108	216	7
NMTAP	108	240	0
NMTAP	108	264	7
NMTAP	108	288	0
NMTAP	108	312	7
NMTAP	108	336	0
NMTAP	108	360	7
NMTAP	109	0	0
NMTAP	109	24	1
NMTAP	109	48	2
NMTAP	109	72	3
NMTAP	109	96	4
NMTAP	109	120	5
NMTAP	109	144	6
NMTAP	109	168	7
NMTAP	109	192	0
NMTAP	109	216	1
NMTAP	109	240	2
NMTAP	109	264	3
NMSTR	109	288	4
NMSF_	109	288	4	96	48	0

T_REC_TAP	371
T_REC_BRK	78
T_REC_XTP	10
T_REC_BXX	3
T_REC_HLD	71
T_REC_XHO	0
T_REC_BHO	4
T_REC_BXH	0
T_REC_STR	21
T_REC_BST	2
T_REC_XST	0
T_REC_XBS	1
T_REC_TTP	24
T_REC_THO	2
T_REC_SLD	21
T_REC_BSL	3
T_REC_ALL	611
T_NUM_TAP	426
T_NUM_BRK	91
T_NUM_HLD	73
T_NUM_SLD	21
T_NUM_ALL	611
T_JUDGE_TAP	510
T_JUDGE_HLD	241
T_JUDGE_SLD	24
T_JUDGE_ALL	775
TTM_EACHPAIRS	179
TTM_SCR_TAP	213000
TTM_SCR_BRK	236600
TTM_SCR_HLD	73000
TTM_SCR_SLD	31500
TTM_SCR_ALL	554100
TTM_SCR_S	528650
TTM_SCR_SS	545000
TTM_RAT_ACV	10166

