VERSION	0.00.00	1.04.00
FES_MODE	0
BPM_DEF	220.000	220.000	220.000	220.000
MET_DEF	4	4
RESOLUTION	384
CLK_DEF	384
COMPATIBLE_CODE	MA2

BPM	0	0	220.000
MET	0	0	4	4

NMSTR	3	0	1
NMSI_	3	0	1	96	480	4
NMSTR	5	0	6
NMSI_	5	0	6	96	456	3
NMSTR	7	0	1
NMSI_	7	0	1	96	480	5
NMSTR	9	0	6
NMSI_	9	0	6	96	456	2
NMTAP	11	0	0
NMTAP	11	0	1
NMTAP	11	128	0
NMTAP	11	128	1
NMTAP	12	0	2
NMTAP	12	0	3
NMTAP	12	128	2
NMTAP	12	128	3
NMTAP	13	0	4
NMTAP	13	0	5
NMTAP	13	128	4
NMTAP	13	128	5
NMTAP	14	0	6
NMTAP	14	0	7
NMTAP	14	128	6
NMTAP	14	128	7
NMTAP	15	0	0
NMTAP	15	0	2
NMTAP	15	128	0
NMTAP	15	128	2
NMTAP	16	0	5
NMTAP	16	0	7
NMTAP	16	128	5
NMTAP	16	128	7
NMSTR	17	0	6
NMSLL	17	0	6	96	480	2
NMSTR	19	0	1
NMSLR	19	0	1	96	480	5
NMTAP	21	0	6
NMTAP	21	96	6
NMTAP	21	192	6
NMTAP	21	192	7
NMTAP	22	0	5
NMTAP	22	96	5
NMTAP	22	192	4
NMTAP	22	192	5
NMTAP	23	0	3
NMTAP	23	96	3
NMTAP	23	192	2
NMTAP	23	192	3
NMTAP	24	0	0
NMTAP	24	0	1
NMTAP	24	96	0
NMTAP	24	96	1
NMTAP	24	192	0
NMTAP	24	192	1
NMTAP	25	0	1
NMTAP	25	96	1
NMTAP	25	192	0
NMTAP	25	192	1
NMTAP	26	0	2
NMTAP	26	96	2
NMTAP	26	192	2
NMTAP	26	192	3
NMTAP	27	0	4
NMTAP	27	96	4
NMTAP	27	192	4
NMTAP	27	192	5
NMTAP	28	0	6
NMTAP	28	0	7
NMTAP	28	96	6
NMTAP	28	96	7
NMTAP	28	192	6
NMTAP	28	192	7
NMTAP	29	0	0
NMTAP	29	0	7
NMTAP	29	96	0
NMTAP	29	96	7
NMTAP	29	192	1
NMTAP	29	192	6
NMTAP	29	288	1
NMTAP	29	288	6
NMTAP	30	0	2
NMTAP	30	0	5
NMTAP	30	96	2
NMTAP	30	96	5
NMTAP	30	192	3
NMTAP	30	192	4
NMTAP	30	288	3
NMTAP	30	288	4
NMHLD	31	0	3	384
NMHLD	31	0	4	384
NMTAP	33	0	5
NMTAP	33	96	5
NMTAP	33	192	6
NMTAP	33	288	6
NMTAP	34	0	7
NMTAP	34	96	7
NMTAP	34	192	0
NMTAP	34	192	1
NMTAP	35	0	2
NMTAP	35	96	2
NMTAP	35	192	1
NMTAP	35	288	1
NMTAP	36	0	0
NMTAP	36	96	0
NMTAP	36	192	6
NMTAP	36	192	7
NMTAP	37	0	6
NMTAP	37	96	6
NMTAP	37	192	5
NMTAP	37	288	5
NMTAP	38	0	4
NMTAP	38	96	4
NMTAP	38	192	2
NMTAP	38	192	3
NMTAP	39	0	1
NMTAP	39	96	1
NMTAP	39	192	2
NMTAP	39	288	2
NMTAP	40	0	3
NMTAP	40	96	3
EXTAP	40	192	4
EXTAP	40	192	5
NMTAP	41	0	6
NMTAP	41	96	6
NMTAP	41	192	6
NMTAP	41	192	7
NMTAP	41	288	6
NMTAP	41	288	7
NMTAP	42	0	5
NMTAP	42	96	5
NMTAP	42	192	4
NMTAP	42	192	5
NMTAP	42	288	4
NMTAP	42	288	5
NMTAP	43	0	3
NMTAP	43	96	3
NMTAP	43	192	2
NMTAP	43	192	3
NMTAP	43	288	2
NMTAP	43	288	3
NMHLD	44	0	0	192
NMHLD	44	0	1	192
NMTAP	45	0	1
NMTAP	45	96	1
NMTAP	45	192	0
NMTAP	45	192	1
NMTAP	45	288	0
NMTAP	45	288	1
NMTAP	46	0	2
NMTAP	46	96	2
NMTAP	46	192	2
NMTAP	46	192	3
NMTAP	46	288	2
NMTAP	46	288	3
NMTAP	47	0	4
NMTAP	47	96	4
NMTAP	47	192	4
NMTAP	47	192	5
NMTAP	47	288	4
NMTAP	47	288	5
NMHLD	48	0	6	192
NMHLD	48	0	7	192
NMHLD	49	0	5	192
NMHLD	49	192	4	192
NMHLD	50	0	3	192
NMTAP	50	192	2
NMHLD	51	0	2	192
NMHLD	51	192	3	192
NMHLD	52	0	4	192
NMTAP	52	192	5
NMHLD	53	0	6	192
NMHLD	53	192	5	192
NMHLD	54	0	4	192
NMTAP	54	192	3
NMHLD	55	0	1	192
NMHLD	55	192	2	192
NMHLD	56	0	3	192
NMTAP	56	192	4
NMTTP	57	0	6	B	0	L1
NMTTP	57	96	5	B	0	L1
NMTTP	57	192	4	B	0	L1
NMTTP	58	0	1	B	0	L1
NMTTP	58	96	2	B	0	L1
NMTTP	58	192	3	B	0	L1
NMTTP	59	0	6	B	0	L1
NMTTP	59	96	5	B	0	L1
NMTTP	59	192	4	B	0	L1
NMTTP	59	288	3	B	0	L1
NMTTP	60	0	2	B	0	L1
NMTTP	60	96	1	B	0	L1
NMTTP	60	192	0	B	0	L1
NMTTP	60	192	7	B	0	L1
NMTTP	61	0	5	B	0	L1
NMTTP	61	96	6	B	0	L1
NMTTP	61	192	7	B	0	L1
NMTTP	61	288	0	B	0	L1
NMTTP	62	0	1	B	0	L1
NMTTP	62	96	2	B	0	L1
NMTTP	62	192	3	B	0	L1
NMTTP	62	192	4	B	0	L1
NMTHO	63	0	0	1920	C	1	L1
NMTAP	69	192	0
NMTAP	69	192	7
NMTAP	70	0	1
NMTAP	70	0	6
NMTAP	70	192	2
NMTAP	70	192	5
BRTAP	71	0	3
BRTAP	71	0	4
NMTAP	72	0	2
NMTAP	72	48	2
NMTAP	72	96	2
NMTAP	72	192	0
NMTAP	72	192	1
NMTAP	72	288	0
NMTAP	72	288	1
NMTAP	73	0	7
NMTAP	73	48	7
NMTAP	73	96	7
NMTAP	73	192	6
NMTAP	73	192	7
NMTAP	74	0	5
NMTAP	74	48	5
NMTAP	74	96	5
NMTAP	74	192	6
NMTAP	74	192	7
NMTAP	74	288	6
NMTAP	74	288	7
NMTAP	75	0	0
NMTAP	75	48	0
NMTAP	75	96	0
NMTAP	75	192	0
NMTAP	75	192	1
NMTAP	76	0	1
NMTAP	76	48	1
NMTAP	76	96	1
NMTAP	76	192	2
NMTAP	76	192	3
NMTAP	76	288	2
NMTAP	76	288	3
NMTAP	77	0	4
NMTAP	77	48	4
NMTAP	77	96	4
NMTAP	77	192	4
NMTAP	77	192	5
NMTAP	78	0	6
NMTAP	78	0	7
NMTAP	78	96	6
NMTAP	78	96	7
NMTAP	78	192	4
NMTAP	78	192	5
NMTAP	78	288	4
NMTAP	78	288	5
NMTAP	79	0	2
NMTAP	79	0	3
NMTAP	79	96	2
NMTAP	79	96	3
BRTAP	79	192	1
BRTAP	79	192	4
NMTAP	80	0	5
NMTAP	80	48	5
NMTAP	80	96	5
NMTAP	80	192	6
NMTAP	80	192	7
NMTAP	80	288	6
NMTAP	80	288	7
NMTAP	81	0	0
NMTAP	81	48	0
NMTAP	81	96	0
NMTAP	81	192	0
NMTAP	81	192	1
NMTAP	82	0	2
NMTAP	82	48	2
NMTAP	82	96	2
NMTAP	82	192	0
NMTAP	82	192	1
NMTAP	82	288	0
NMTAP	82	288	1
NMTAP	83	0	7
NMTAP	83	48	7
NMTAP	83	96	7
NMTAP	83	192	6
NMTAP	83	192	7
NMTAP	84	0	6
NMTAP	84	48	6
NMTAP	84	96	6
NMTAP	84	192	4
NMTAP	84	192	5
NMTAP	84	288	4
NMTAP	84	288	5
NMTAP	85	0	3
NMTAP	85	48	3
NMTAP	85	96	3
NMTAP	85	192	2
NMTAP	85	192	3
NMTAP	86	0	0
NMTAP	86	0	1
NMTAP	86	96	0
NMTAP	86	96	1
NMTAP	86	192	2
NMTAP	86	192	3
NMTAP	86	288	2
NMTAP	86	288	3
NMTAP	87	0	4
NMTAP	87	0	5
NMTAP	87	96	4
NMTAP	87	96	5
NMTAP	87	192	6
NMTAP	87	192	7
NMTAP	87	288	6
NMTAP	87	288	7
NMHLD	88	0	0	384
NMHLD	88	0	7	384
NMTAP	90	0	6
NMTAP	90	48	6
NMTAP	90	96	6
NMTAP	90	192	5
NMTAP	90	240	5
NMTAP	90	288	5
NMTAP	91	0	4
NMTAP	91	48	4
NMTAP	91	96	4
NMTAP	91	192	2
NMTAP	91	192	3
NMTAP	92	0	1
NMTAP	92	48	1
NMTAP	92	96	1
NMTAP	92	192	2
NMTAP	92	240	2
NMTAP	92	288	2
NMTAP	93	0	3
NMTAP	93	48	3
NMTAP	93	96	3
NMTAP	93	192	4
NMTAP	93	192	5
NMTAP	94	0	5
NMTAP	94	48	5
NMTAP	94	96	5
NMTAP	94	192	6
NMTAP	94	240	6
NMTAP	94	288	6
NMTAP	95	0	7
NMTAP	95	48	7
NMTAP	95	96	7
NMTAP	95	192	0
NMTAP	95	192	1
NMTAP	96	0	2
NMTAP	96	48	2
NMTAP	96	96	2
NMTAP	96	192	1
NMTAP	96	240	1
NMTAP	96	288	1
NMTAP	97	0	0
NMTAP	97	48	0
NMTAP	97	96	0
NMTAP	97	192	6
NMTAP	97	192	7
NMSTR	98	0	6
NMSI_	98	0	6	96	480	3
NMSTR	98	0	7
NMSI_	98	0	7	96	480	2
NMSTR	100	0	0
NMSI_	100	0	0	96	480	5
NMSTR	100	0	1
NMSI_	100	0	1	96	480	4
NMTAP	102	0	6
NMTAP	102	48	6
NMTAP	102	96	6
NMTAP	102	192	5
NMTAP	102	240	5
NMTAP	102	288	5
NMTAP	103	0	4
NMTAP	103	48	4
NMTAP	103	96	4
NMTAP	103	192	3
NMTAP	103	240	3
NMTAP	103	288	3
NMTAP	104	0	2
NMTAP	104	48	2
NMTAP	104	96	2
NMTAP	104	192	1
NMTAP	104	240	1
NMTAP	104	288	1
NMTAP	105	0	0
NMTAP	105	0	7
NMTAP	105	48	0
NMTAP	105	48	7
NMTAP	105	96	0
NMTAP	105	96	7
BRTAP	105	192	1
BRTAP	105	192	6
NMSTR	106	0	0
NMSI_	106	0	0	96	480	3
NMSTR	106	0	7
NMSI_	106	0	7	96	480	4
NMTAP	108	0	5
NMTAP	108	96	6
NMTAP	108	192	7
NMTAP	108	288	0
NMTAP	109	0	1
NMTAP	109	96	2
NMTAP	109	192	3
NMTAP	109	192	4
BRTAP	110	0	2
BRTAP	110	0	5

T_REC_TAP	328
T_REC_BRK	8
T_REC_XTP	2
T_REC_BXX	0
T_REC_HLD	20
T_REC_XHO	0
T_REC_BHO	0
T_REC_BXH	0
T_REC_STR	12
T_REC_BST	0
T_REC_XST	0
T_REC_XBS	0
T_REC_TTP	22
T_REC_THO	1
T_REC_SLD	12
T_REC_BSL	0
T_REC_ALL	405
T_NUM_TAP	364
T_NUM_BRK	8
T_NUM_HLD	21
T_NUM_SLD	12
T_NUM_ALL	405
T_JUDGE_TAP	372
T_JUDGE_HLD	136
T_JUDGE_SLD	12
T_JUDGE_ALL	520
TTM_EACHPAIRS	102
TTM_SCR_TAP	182000
TTM_SCR_BRK	20800
TTM_SCR_HLD	21000
TTM_SCR_SLD	18000
TTM_SCR_ALL	241800
TTM_SCR_S	233800
TTM_SCR_SS	241000
TTM_RAT_ACV	10033

