VERSION	0.00.00	1.04.00
FES_MODE	0
BPM_DEF	201.000	201.000	201.000	201.000
MET_DEF	4	4
RESOLUTION	384
CLK_DEF	384
COMPATIBLE_CODE	MA2

BPM	0	0	201.000
MET	0	0	4	4

NMTAP	1	0	2
NMTAP	1	0	3
NMTAP	1	72	4
NMTAP	1	72	5
NMTAP	1	144	1
NMTAP	1	144	6
NMTAP	1	192	0
NMTAP	1	216	7
NMTAP	1	240	0
NMTAP	1	264	7
EXTAP	1	288	1
EXTAP	1	288	6
NMTTP	2	0	0	B	0	M1
NMTHO	2	0	0	2016	C	0	M1
NMTTP	2	0	1	B	0	M1
NMTTP	2	0	5	B	0	M1
NMTTP	2	0	6	B	0	M1
NMTAP	5	0	7
NMTAP	5	192	7
NMHLD	6	0	6	96
NMHLD	6	192	5	96
NMTAP	7	0	4
NMTAP	7	96	5
NMTAP	7	192	0
NMTAP	7	192	6
NMTAP	7	288	1
NMTAP	7	288	7
NMTAP	8	0	0
NMTAP	8	48	0
NMTAP	8	96	0
NMTAP	8	144	0
NMTAP	8	192	1
NMTAP	8	216	7
NMTAP	8	240	1
NMTAP	8	264	7
NMTAP	8	288	2
NMTAP	8	312	6
NMTAP	8	336	2
NMTAP	8	360	6
NMSTR	9	0	0
BRSF_	9	0	0	96	48	4
NMTAP	9	96	0
NMHLD	9	192	2	96
NMHLD	9	192	6	96
NMTAP	10	0	2
NMTAP	10	0	4
NMTAP	10	48	1
NMTAP	10	48	5
NMTAP	10	96	0
NMSTR	10	96	6
NMSI_	10	96	6	96	48	3
NMTAP	10	192	3
NMTAP	10	288	2
NMTAP	10	336	2
NMTAP	10	360	3
NMHLD	11	0	1	96
NMTAP	11	48	2
NMHLD	11	96	4	96
NMTAP	11	144	3
NMSTR	11	192	1
NMSI_	11	192	1	96	48	4
NMTAP	11	240	0
NMTAP	11	288	7
NMTAP	12	0	5
NMTAP	12	48	5
NMTAP	12	72	4
NMHLD	12	96	6	96
NMTAP	12	144	5
NMHLD	12	192	3	96
NMTAP	12	240	4
NMSTR	12	288	6
NMSI_	12	288	6	96	48	3
NMTAP	12	336	7
EXTAP	13	0	0
EXTAP	13	48	0
EXSTR	13	96	1
NMSCR	13	96	1	96	96	4
EXTAP	13	144	1
NMTTP	13	192	5	E	0	M1
NMTTP	13	240	0	C	0	M1
NMTTP	13	288	1	E	0	M1
NMTTP	14	0	3	B	0	M1
NMTTP	14	0	5	B	0	M1
NMSTR	14	96	1
BRSI_	14	96	1	96	48	4
NMTAP	14	96	7
NMTAP	14	144	0
NMTAP	14	192	1
NMTAP	14	192	6
NMTAP	14	288	3
NMTAP	14	288	7
NMTAP	14	336	5
EXTAP	14	360	4
NMHLD	15	0	6	96
NMTAP	15	48	5
NMHLD	15	96	3	96
NMTAP	15	144	5
NMHLD	15	192	6	96
NMTAP	15	240	7
NMTAP	15	288	0
NMTAP	15	336	5
NMSTR	16	0	1
NMSI_	16	0	1	96	48	4
NMTAP	16	48	1
NMTAP	16	96	4
NMTAP	16	144	5
NMSTR	16	192	6
NMSI_	16	192	6	96	48	2
NMTAP	16	240	6
NMTAP	16	288	7
NMTAP	16	336	0
NMHLD	17	0	1	96
NMTAP	17	0	3
NMTAP	17	96	0
NMTAP	17	144	4
NMHLD	17	144	6	96
NMTAP	17	240	3
BRTAP	17	288	1
BRTAP	17	288	5
NMSTR	18	0	6
NMSV_	18	0	6	96	48	3
NMTAP	18	48	7
NMTAP	18	96	0
NMTAP	18	96	6
EXTAP	18	192	1
EXTAP	18	192	5
NMTAP	18	288	1
NMTAP	18	336	2
NMSTR	19	0	3
NMSI_	19	0	3	96	48	1
NMTAP	19	0	4
NMSTR	19	96	5
NMSI_	19	96	5	96	48	3
NMTAP	19	192	0
NMTAP	19	288	1
NMTAP	19	336	1
NMTAP	19	360	3
NMTAP	20	0	2
NMTAP	20	48	3
NMTAP	20	48	5
NMSTR	20	96	4
NMSI_	20	96	4	96	48	2
NMTAP	20	96	6
NMHLD	20	192	5	96
NMSTR	20	288	1
NMSI_	20	288	1	96	48	5
NMTAP	20	336	0
EXTAP	21	0	7
EXTAP	21	48	7
EXSTR	21	96	6
NMSCL	21	96	6	96	96	3
EXTAP	21	144	6
NMTTP	21	192	3	E	0	M1
NMTTP	21	240	0	C	0	M1
NMTTP	21	288	7	E	0	M1
EXHLD	22	0	1	48
EXHLD	22	0	4	48
EXHLD	22	72	2	48
EXHLD	22	72	3	48
NMTAP	22	144	3
NMTAP	22	144	4
NMTAP	22	192	4
NMTAP	22	192	5
NMTAP	22	240	6
NMTAP	22	264	6
NMTAP	22	288	4
NMTAP	22	336	3
NMTAP	22	336	5
NMTAP	23	0	2
NMTAP	23	48	1
NMTAP	23	48	3
NMTAP	23	96	5
NMTAP	23	144	4
NMTAP	23	144	6
NMTAP	23	192	0
NMTAP	23	240	1
NMTAP	23	240	3
NMTAP	23	288	7
NMTAP	23	336	2
NMTAP	23	336	6
NMSTR	24	0	1
NMSCR	24	0	1	96	192	4
NMSTR	24	0	5
NMSCR	24	0	5	96	192	0
NMSTR	25	0	0
NMSI_	25	0	0	96	48	5
NMSTR	25	0	4
NMSI_	25	0	4	96	48	1
NMTAP	25	192	0
NMTAP	25	192	4
NMTAP	25	240	1
NMTAP	25	264	1
NMSTR	25	288	3
NMSF_	25	288	3	96	48	7
NMTAP	25	336	2
NMTAP	25	336	4
NMTTP	26	0	0	C	1	M1
NMTTP	26	0	1	B	0	M1
NMTTP	26	0	1	E	0	M1
NMTTP	26	0	2	E	0	M1
NMTTP	26	0	5	B	0	M1
NMTTP	26	0	5	E	0	M1
NMTTP	26	0	6	E	0	M1
NMTAP	29	288	3
NMTAP	29	288	4
NMSTR	30	0	0
NMSCR	30	0	0	96	288	6
NMTAP	30	0	7
NMSTR	31	0	7
NMSI_	31	0	7	96	96	3
NMSTR	31	192	1
NMSI_	31	192	1	96	96	5
NMSTR	32	0	4
NMSCR	32	0	4	96	288	2
NMTAP	32	96	3
NMTAP	32	192	3
NMTAP	32	288	3
NMSTR	33	0	3
NMSSR	33	0	3	96	192	7
NMHLD	34	0	6	288
NMTAP	34	0	7
NMTAP	34	96	7
NMTAP	34	192	5
NMTAP	34	288	5
NMTTP	35	0	5	B	0	M1
NMTAP	35	0	6
NMTTP	35	96	4	B	0	M1
NMTAP	35	96	6
NMTTP	35	192	3	B	0	M1
NMTAP	35	192	7
NMTTP	35	288	2	B	0	M1
NMTAP	35	288	7
NMTTP	36	0	1	B	0	M1
NMTAP	36	0	7
NMTTP	36	24	0	B	0	M1
NMTTP	36	48	7	B	0	M1
NMTTP	36	72	6	B	0	M1
NMTTP	36	96	5	B	0	M1
NMTTP	36	120	4	B	0	M1
NMTTP	36	144	3	B	0	M1
NMTTP	36	168	2	B	0	M1
NMTTP	36	192	1	E	0	M1
NMTTP	36	216	0	E	0	M1
NMTTP	36	240	7	E	0	M1
NMTTP	36	264	6	E	0	M1
NMTTP	36	288	5	E	0	M1
NMTTP	36	312	4	E	0	M1
NMTTP	36	336	3	E	0	M1
NMTTP	36	360	2	E	0	M1
EXSTR	37	0	0
NMSF_	37	0	0	96	48	4
EXTAP	37	0	1
EXTAP	37	96	0
EXHLD	37	192	2	96
EXHLD	37	192	6	96
BXSTR	38	0	1
BRSI_	38	0	1	96	48	4
BRTAP	38	0	7
NMTAP	38	96	4
BXSTR	38	144	5
BRSI_	38	144	5	96	48	0
NMTAP	38	240	4
NMTAP	38	288	3
NMTAP	38	336	3
BXSTR	39	0	2
BRSI_	39	0	2	96	48	7
BRTAP	39	0	4
NMTAP	39	96	7
BXSTR	39	144	6
BRSI_	39	144	6	96	48	3
NMTAP	39	240	3
NMTAP	39	288	2
NMTAP	39	336	1
BXSTR	40	0	0
BRSI_	40	0	0	96	48	4
BRTAP	40	0	6
NMTAP	40	96	4
BXSTR	40	144	3
BRSI_	40	144	3	96	48	7
NMTAP	40	240	2
NMTAP	40	288	1
NMTAP	40	336	0
BRHLD	41	0	1	96
BXHLD	41	0	5	48
BRTAP	41	144	3
BRSTR	41	144	7
BRSCL	41	144	7	96	48	3
NMTAP	41	192	2
NMTAP	41	240	1
NMTAP	41	288	0
BXHLD	42	0	1	96
BXHLD	42	0	4	48
BXHLD	42	144	3	48
BXHLD	42	144	6	96
NMTAP	42	288	1
NMTAP	42	312	0
NMTAP	42	336	1
NMTAP	42	360	0
BXHLD	43	0	2	48
BXHLD	43	0	7	96
BXHLD	43	144	0	48
BXHLD	43	144	5	96
NMTAP	43	288	2
NMTAP	43	312	3
NMTAP	43	336	2
NMTAP	43	360	3
BXHLD	44	0	1	48
BXHLD	44	0	4	96
BXHLD	44	144	2	96
BXHLD	44	144	7	48
NMTAP	44	288	5
NMTAP	44	312	4
NMTAP	44	336	5
NMTAP	44	360	4
NMTAP	45	0	3
NMTAP	45	0	6
NMSTR	45	96	3
NMSI_	45	96	3	96	48	0
NMSTR	45	96	4
NMSI_	45	96	4	96	48	7
NMTAP	45	192	3
NMTAP	45	192	4
NMTAP	45	288	1
NMTAP	45	288	6
EXSTR	46	0	0
NMSI_	46	0	0	96	48	2
NMHLD	46	0	4	48
EXSTR	46	96	0
NMSI_	46	96	0	96	48	6
NMHLD	46	96	5	48
EXSTR	46	192	0
NMSI_	46	192	0	96	48	2
NMHLD	46	192	3	48
EXSTR	46	288	0
NMSI_	46	288	0	96	48	6
NMHLD	46	288	5	48
EXSTR	47	0	0
NMSI_	47	0	0	96	48	2
NMHLD	47	0	3	48
EXSTR	47	96	0
NMSI_	47	96	0	96	48	6
NMHLD	47	96	5	48
EXSTR	47	192	0
NMSI_	47	192	0	96	48	2
NMTAP	47	192	3
NMTAP	47	240	4
NMTAP	47	288	0
BRTAP	47	288	5
NMHLD	48	0	3	48
NMSTR	48	0	7
NMSI_	48	0	7	96	48	5
NMHLD	48	96	2	48
NMSTR	48	96	7
NMSI_	48	96	7	96	48	1
NMHLD	48	192	4	48
NMSTR	48	192	7
NMSI_	48	192	7	96	48	5
NMHLD	48	288	2	48
NMSTR	48	288	7
NMSI_	48	288	7	96	48	1
NMHLD	49	0	4	48
NMSTR	49	0	7
NMSI_	49	0	7	96	48	5
EXTAP	49	96	2
NMTAP	49	96	7
NMTTP	49	192	2	B	0	M1
NMTTP	49	192	2	E	0	M1
NMTTP	49	240	4	B	0	M1
NMTTP	49	240	4	E	0	M1
NMTTP	49	288	6	B	0	M1
NMTTP	49	288	6	E	0	M1
NMSTR	50	0	0
NMSI_	50	0	0	96	48	2
NMTAP	50	48	0
NMSTR	50	96	3
NMSI_	50	96	3	96	48	5
NMTAP	50	144	3
NMTAP	50	192	0
NMTAP	50	240	1
NMTAP	50	288	2
NMTAP	50	312	6
NMTAP	50	336	2
NMTAP	50	360	6
NMSTR	51	0	1
NMSI_	51	0	1	96	48	3
NMTAP	51	48	1
NMSTR	51	96	4
BRSCR	51	96	4	96	96	0
NMTAP	51	144	4
EXTAP	51	192	0
NMTAP	51	216	1
NMTAP	51	240	2
NMTAP	51	264	3
BRTAP	51	288	4
NMTAP	52	0	3
NMTAP	52	24	5
NMTAP	52	48	3
NMTAP	52	72	5
NMTAP	52	96	2
NMTAP	52	120	6
NMTAP	52	144	2
NMTAP	52	168	6
NMTAP	52	192	1
NMTAP	52	216	7
NMTAP	52	240	1
NMTAP	52	264	7
EXTAP	52	288	0
EXTAP	52	312	0
EXTAP	52	336	0
EXTAP	52	360	0
EXSTR	53	0	0
NMSI_	53	0	0	96	48	4
NMTAP	53	96	0
NMSTR	53	96	6
NMSI_	53	96	6	96	48	3
NMSTR	53	192	1
NMSI_	53	192	1	96	48	5
NMTAP	53	192	6
NMTAP	53	288	1
NMSTR	53	288	7
BRSF_	53	288	7	96	48	3
BRSTR	54	0	7
NMSCL	54	0	7	96	1248	0
NMSTR	58	0	6
NMSLR	58	0	6	96	288	4
NMSTR	59	0	2
NMSLR	59	0	2	96	288	0
NMSTR	60	0	7
NMSXR	60	0	7	96	288	3
NMHLD	61	0	2	96
NMTAP	61	96	3
NMHLD	61	144	5	96
NMTAP	61	240	4
NMTAP	61	288	2
BRTAP	62	0	1
BRTAP	62	0	7
NMTAP	62	96	1
NMTAP	62	192	1
NMTTP	62	192	3	B	0	M1
NMTAP	62	288	1
NMTAP	63	0	1
NMTTP	63	0	5	B	0	M1
NMTAP	63	96	1
NMTAP	63	192	1
NMTTP	63	192	7	B	0	M1
NMTAP	63	288	1
BRTAP	64	0	1
BRTAP	64	0	6
NMTAP	64	96	6
NMTTP	64	192	4	B	0	M1
NMTAP	64	192	6
NMTAP	64	288	6
NMTTP	65	0	2	B	0	M1
NMTAP	65	0	6
NMTAP	65	96	6
NMTTP	65	192	0	B	0	M1
NMTAP	65	192	6
NMTAP	65	288	6
BRTAP	66	0	3
BRTAP	66	0	7
NMTTP	66	96	3	B	0	M1
NMTTP	66	96	7	B	0	M1
BRTAP	66	192	1
BRTAP	66	192	5
NMTTP	66	288	1	B	0	M1
NMTTP	66	288	5	B	0	M1
BRTAP	67	0	3
BRTAP	67	0	6
BRTAP	67	96	1
BRTAP	67	96	4
BRTAP	67	192	2
BRTAP	67	192	7
BRTAP	67	288	0
BRTAP	67	288	5
NMTAP	68	0	4
NMTAP	68	48	4
NMTAP	68	96	3
NMTAP	68	96	5
NMTAP	68	144	3
NMTAP	68	144	5
NMTAP	68	192	2
NMTAP	68	216	6
NMTAP	68	240	2
NMTAP	68	264	6
NMTAP	68	288	1
NMTAP	68	312	7
NMTAP	68	336	1
NMTAP	68	360	7
NMSTR	69	0	0
NMSCL	69	0	0	96	48	5
NMSCR	69	0	0	96	48	3
NMSTR	69	96	0
NMSF_	69	96	0	96	48	4
BRTAP	69	192	0
NMTAP	69	288	2
NMTAP	69	288	6
BRTAP	70	0	1
BRTAP	70	0	4
NMTAP	70	48	2
NMTAP	70	72	3
NMTAP	70	96	2
NMTAP	70	144	1
NMTAP	70	144	5
NMSTR	70	192	6
NMSI_	70	192	6	96	48	3
NMSTR	70	240	0
NMSI_	70	240	0	96	48	4
NMTAP	70	288	6
NMTAP	70	336	0
NMTAP	71	0	6
NMTAP	71	48	5
NMTAP	71	72	4
NMTAP	71	96	5
NMTAP	71	144	3
NMTAP	71	144	6
NMSTR	71	192	1
NMSI_	71	192	1	96	48	4
NMSTR	71	240	7
NMSI_	71	240	7	96	48	3
NMTAP	71	288	1
NMTAP	71	336	7
NMTAP	72	0	1
NMTAP	72	48	1
NMTAP	72	72	0
NMTAP	72	96	2
NMTAP	72	144	6
NMTAP	72	168	7
NMTAP	72	192	6
NMTAP	72	240	3
NMTAP	72	240	5
NMTAP	72	288	1
NMTAP	72	288	7
NMTAP	72	336	2
NMTAP	72	336	4
NMSTR	73	0	0
NMSI_	73	0	0	96	48	4
NMTAP	73	0	6
NMTAP	73	48	7
NMTAP	73	96	0
NMSTR	73	96	6
NMSI_	73	96	6	96	48	2
NMTAP	73	144	5
NMTAP	73	192	6
NMTAP	73	192	7
NMTAP	73	240	0
BRTAP	73	288	1
BRTAP	73	288	7
NMTAP	74	0	4
NMTAP	74	0	5
NMTAP	74	48	3
NMTAP	74	48	6
NMTAP	74	96	2
NMTAP	74	96	7
NMTAP	74	144	1
NMTAP	74	168	0
NMSTR	74	192	2
NMSI_	74	192	2	96	48	4
NMSTR	74	240	5
NMSI_	74	240	5	96	48	7
NMTAP	74	288	2
NMTAP	74	336	5
NMSTR	75	0	0
NMSI_	75	0	0	96	48	4
EXTAP	75	48	7
NMSTR	75	96	0
NMSCR	75	96	0	96	48	2
NMSTR	75	144	6
NMSI_	75	144	6	96	48	3
NMSTR	75	192	0
BRSUR	75	192	0	96	48	4
NMTAP	75	240	6
BRTAP	75	288	0
NMSTR	76	0	2
NMSI_	76	0	2	96	48	7
NMSTR	76	0	6
NMSI_	76	0	6	96	48	3
NMTAP	76	96	2
NMTAP	76	96	6
NMTAP	76	192	0
NMTAP	76	192	4
NMTAP	76	240	1
NMTAP	76	240	5
NMTAP	76	288	2
NMTAP	76	288	6
NMTAP	76	336	3
NMTAP	76	336	7
NMTAP	77	0	4
NMTAP	77	0	6
NMTAP	77	48	5
NMTAP	77	72	3
NMTAP	77	96	4
NMTAP	77	144	0
NMTAP	77	144	6
NMSTR	77	192	0
NMSV_	77	192	0	96	48	3
NMSTR	77	192	6
NMSV_	77	192	6	96	48	3
NMTAP	77	216	1
NMTAP	77	216	5
NMTAP	77	240	2
NMTAP	77	240	4
BRTAP	77	288	0
BRTAP	77	288	6
NMTAP	78	0	1
NMTAP	78	0	4
NMTAP	78	48	2
NMTAP	78	72	3
NMTAP	78	96	1
NMTAP	78	144	5
NMTAP	78	168	4
NMSTR	78	192	6
NMSI_	78	192	6	96	48	2
NMSTR	78	240	0
NMSI_	78	240	0	96	48	4
NMTAP	78	288	6
NMTAP	78	336	0
NMTAP	79	0	5
NMTAP	79	48	5
NMTAP	79	72	4
NMTAP	79	96	6
NMTAP	79	144	2
NMTAP	79	168	3
NMSTR	79	192	1
NMSI_	79	192	1	96	48	5
NMSTR	79	240	7
NMSI_	79	240	7	96	48	3
NMTAP	79	288	1
NMTAP	79	336	7
NMTAP	80	0	1
NMTAP	80	48	6
NMTAP	80	72	0
NMTAP	80	96	7
NMTAP	80	144	2
NMTAP	80	168	4
NMTAP	80	192	3
NMTAP	80	240	2
NMTAP	80	240	4
NMTAP	80	288	0
NMTAP	80	288	6
NMTAP	80	336	3
NMTAP	80	336	5
NMTAP	81	0	2
NMSTR	81	0	6
NMSI_	81	0	6	96	48	3
NMTAP	81	48	7
NMSTR	81	96	0
NMSCR	81	96	0	96	48	3
NMTAP	81	96	6
NMTAP	81	144	7
NMTAP	81	192	0
NMSTR	81	192	6
NMSI_	81	192	6	96	48	2
NMTAP	81	240	5
NMTAP	81	288	0
NMTAP	81	288	6
NMTAP	82	0	0
NMTAP	82	0	1
NMTAP	82	48	2
NMTAP	82	48	3
NMTAP	82	96	4
NMTAP	82	96	5
NMTAP	82	144	6
NMTAP	82	168	7
NMSTR	82	192	5
NMSI_	82	192	5	96	48	3
NMSTR	82	240	2
NMSI_	82	240	2	96	48	0
NMTAP	82	288	5
NMTAP	82	336	2
NMSTR	83	0	7
NMSI_	83	0	7	96	48	3
EXTAP	83	48	0
NMSTR	83	96	7
NMSCL	83	96	7	96	48	5
NMSTR	83	144	1
NMSI_	83	144	1	96	48	4
NMSTR	83	192	7
BRSUL	83	192	7	96	48	3
NMTAP	83	240	1
BRTAP	83	288	7
NMSTR	84	0	1
NMSI_	84	0	1	96	48	4
NMSTR	84	0	5
NMSI_	84	0	5	96	48	0
NMTAP	84	96	1
NMTAP	84	96	5
EXTAP	84	192	2
EXTAP	84	192	3
NMTAP	84	240	4
NMTAP	84	240	5
NMTAP	84	288	6
NMTAP	84	288	7
NMTAP	84	336	0
NMTAP	84	336	1
EXTAP	85	0	2
EXSTR	85	0	3
NMSI_	85	0	3	96	48	6
NMTAP	85	96	0
NMSTR	85	144	0
NMSI_	85	144	0	96	48	4
NMTAP	85	240	7
NMHLD	85	288	7	1248
BRHLD	86	0	3	384
NMTAP	88	0	4
NMTAP	88	192	5
NMSTR	89	0	6
NMSI_	89	0	6	96	48	3
NMTAP	89	48	6
NMSTR	89	96	0
NMSI_	89	96	0	96	48	5
NMTAP	89	144	0
EXSTR	89	192	4
NMSI_	89	192	4	96	48	1
NMTAP	89	240	4
BRTAP	89	288	7
NMTAP	90	0	0
NMTAP	90	0	4
NMTAP	90	48	3
NMTAP	90	72	5
NMTAP	90	96	2
NMTAP	90	120	6
NMTAP	90	144	1
NMTAP	90	168	7
NMSTR	90	192	1
BRSI_	90	192	1	96	48	3
NMSTR	90	240	0
BRSI_	90	240	0	96	48	5
NMTAP	90	288	1
NMTAP	90	336	0
NMTAP	91	0	2
NMTAP	91	48	2
NMTAP	91	72	4
NMTAP	91	96	1
NMTAP	91	120	5
NMTAP	91	144	0
NMTAP	91	168	6
NMSTR	91	192	7
NMSUL	91	192	7	96	48	3
NMSUR	91	192	7	96	48	3
NMTAP	91	240	0
NMTAP	91	240	6
NMTAP	91	288	7
NMTAP	92	0	2
EXTAP	92	0	4
NMTAP	92	48	1
NMTAP	92	72	0
NMTAP	92	96	2
NMTAP	92	144	3
NMTAP	92	144	7
NMTAP	92	192	6
NMTAP	92	216	4
NMTAP	92	240	5
NMTAP	92	288	2
NMTAP	92	288	4
NMTAP	92	336	0
NMTAP	92	336	6
NMTAP	93	0	1
NMTAP	93	24	7
NMTAP	93	48	2
NMTAP	93	72	6
NMTAP	93	96	3
NMTAP	93	120	5
NMTAP	93	144	2
NMTAP	93	168	4
NMTAP	93	192	1
NMTAP	93	216	5
NMTAP	93	240	3
NMTAP	93	264	7
BRTAP	93	288	2
BRTAP	93	288	6
EXSTR	94	0	1
NMSI_	94	0	1	96	48	3
NMTAP	94	48	3
NMSTR	94	96	1
NMSI_	94	96	1	96	48	7
NMTAP	94	192	1
NMSTR	94	192	6
BRSI_	94	192	6	96	48	4
NMTAP	94	288	2
NMTAP	94	288	6
NMTAP	94	336	1
NMSTR	95	0	0
NMSCR	95	0	0	96	48	2
NMTAP	95	48	3
NMSTR	95	96	0
NMSI_	95	96	0	96	48	4
NMTAP	95	192	0
NMSTR	95	192	6
BRSI_	95	192	6	96	48	3
NMTAP	95	288	6
NMTAP	95	288	7
NMTAP	95	336	0
EXSTR	96	0	1
NMSI_	96	0	1	96	48	3
NMTAP	96	48	5
NMSTR	96	96	1
NMSI_	96	96	1	96	48	7
NMSTR	96	144	6
BRSI_	96	144	6	96	48	4
NMTAP	96	192	1
NMTAP	96	240	6
NMTAP	96	288	2
NMSTR	97	0	6
NMSI_	97	0	6	96	48	2
NMTAP	97	48	0
NMSTR	97	96	6
NMSCL	97	96	6	96	48	4
NMSTR	97	144	0
BRSI_	97	144	0	96	48	4
NMTAP	97	192	6
NMTAP	97	240	0
NMTAP	97	288	7
NMSTR	98	0	0
NMSI_	98	0	0	96	48	2
NMTAP	98	0	4
NMTAP	98	48	7
NMTAP	98	72	6
NMSTR	98	96	0
NMSI_	98	96	0	96	48	4
NMTAP	98	96	5
NMSTR	98	144	6
BRSI_	98	144	6	96	48	3
NMTAP	98	168	5
NMSTR	98	192	0
NMSCR	98	192	0	96	48	2
NMTAP	98	192	4
NMTAP	98	240	6
NMTAP	98	288	0
NMTAP	98	336	5
NMSTR	99	0	7
NMSI_	99	0	7	96	48	5
NMTAP	99	48	0
NMTAP	99	72	1
NMTAP	99	96	2
NMSTR	99	96	7
NMSI_	99	96	7	96	48	3
NMSTR	99	144	1
BRSI_	99	144	1	96	48	4
NMTAP	99	168	2
NMTAP	99	192	3
NMSTR	99	192	7
NMSCL	99	192	7	96	48	5
NMTAP	99	240	1
NMTAP	99	288	7
NMTAP	99	336	2
NMTAP	100	0	3
NMTAP	100	24	4
NMTAP	100	48	3
NMTAP	100	72	4
NMTAP	100	96	2
NMTAP	100	120	5
NMTAP	100	144	2
NMTAP	100	168	5
NMTAP	100	192	1
NMTAP	100	216	6
NMTAP	100	240	1
NMTAP	100	264	6
NMTAP	100	288	0
NMTAP	100	312	7
NMTAP	100	336	0
NMTAP	100	360	7
NMSTR	101	0	0
BRSI_	101	0	0	96	48	5
BRTAP	101	96	0
BRHLD	101	96	4	192
CNSI_	101	144	5	0	24	2
CNSI_	101	168	2	0	24	7
NMTTP	101	192	0	C	1	M1
CNSI_	101	192	7	0	32	3
BRHLD	102	0	1	96
BRHLD	102	0	4	48
BRHLD	102	144	3	48
BRHLD	102	144	6	96
NMTAP	102	288	1
NMTAP	102	312	1
NMTAP	102	336	0
BRHLD	103	0	2	96
BRHLD	103	0	7	48
BRHLD	103	144	0	48
BRHLD	103	144	5	96
NMTAP	103	288	2
NMTAP	103	312	2
NMTAP	103	336	3
BRHLD	104	0	1	48
BRHLD	104	0	4	96
BRHLD	104	144	2	48
BRHLD	104	144	7	96
NMTAP	104	288	5
NMTAP	104	312	5
NMTAP	104	336	4
BRHLD	105	0	3	48
BRHLD	105	0	6	96
NMSTR	105	144	6
NMSCL	105	144	6	96	48	3
NMTAP	105	192	3
NMTAP	105	240	2
NMTAP	105	288	1
NMSTR	106	0	0
NMSI_	106	0	0	96	48	2
NMTAP	106	48	3
NMSTR	106	96	0
NMSI_	106	96	0	96	48	4
NMTAP	106	144	5
NMTAP	106	192	0
NMTAP	106	240	7
NMTAP	106	264	6
NMTAP	106	288	1
NMTAP	106	288	5
NMTAP	106	336	1
NMTAP	106	336	5
NMSTR	107	0	3
NMSI_	107	0	3	96	48	7
NMTAP	107	48	4
NMTAP	107	96	3
NMTAP	107	144	5
NMTAP	107	192	6
NMTAP	107	240	6
NMTAP	107	288	3
NMTAP	107	288	7
NMTAP	107	312	2
NMTAP	107	312	6
NMTAP	107	336	1
NMTAP	107	336	5
NMTAP	108	0	1
NMTAP	108	24	0
NMTAP	108	48	2
NMTAP	108	72	7
NMTAP	108	96	3
NMTAP	108	120	6
NMTAP	108	144	4
NMTAP	108	168	5
NMTAP	108	192	7
NMTAP	108	216	6
NMTAP	108	240	0
NMTAP	108	264	5
NMTAP	108	288	1
NMTAP	108	312	4
EXTAP	108	336	2
EXTAP	108	360	2
NMTAP	109	0	5
NMTAP	109	12	4
NMTAP	109	24	3
NMTAP	109	36	2
NMTAP	109	48	1
NMTAP	109	60	0
NMTAP	109	72	7
NMTAP	109	84	6
NMTAP	109	96	1
NMTAP	109	96	5
NMTAP	109	108	2
NMTAP	109	120	3
NMTAP	109	132	4
NMTAP	109	144	5
NMTAP	109	156	6
NMTAP	109	168	7
NMTAP	109	180	0
NMTAP	109	192	1
NMTAP	109	192	5
NMTAP	109	240	3
NMTAP	109	240	7
EXSTR	109	288	1
BRSI_	109	288	1	96	48	6
EXSTR	109	288	5
BRSI_	109	288	5	96	48	2
BRTAP	110	0	1
BRTAP	110	0	5
NMTTP	110	1	0	B	0	M1
NMTTP	110	1	0	C	1	M1
NMTTP	110	1	4	B	0	M1

T_REC_TAP	521
T_REC_BRK	39
T_REC_XTP	27
T_REC_BXX	0
T_REC_HLD	29
T_REC_XHO	6
T_REC_BHO	17
T_REC_BXH	13
T_REC_STR	101
T_REC_BST	2
T_REC_XST	17
T_REC_XBS	6
T_REC_TTP	59
T_REC_THO	1
T_REC_SLD	104
T_REC_BSL	24
T_REC_ALL	966
T_NUM_TAP	725
T_NUM_BRK	101
T_NUM_HLD	36
T_NUM_SLD	104
T_NUM_ALL	966
T_JUDGE_TAP	772
T_JUDGE_HLD	179
T_JUDGE_SLD	128
T_JUDGE_ALL	1079
TTM_EACHPAIRS	159
TTM_SCR_TAP	362500
TTM_SCR_BRK	262600
TTM_SCR_HLD	36000
TTM_SCR_SLD	156000
TTM_SCR_ALL	817100
TTM_SCR_S	782800
TTM_SCR_SS	807000
TTM_RAT_ACV	10125

