VERSION	0.00.00	1.04.00
FES_MODE	0
BPM_DEF	201.000	201.000	201.000	201.000
MET_DEF	4	4
RESOLUTION	384
CLK_DEF	384
COMPATIBLE_CODE	MA2

BPM	0	0	201.000
MET	0	0	4	4

NMTHO	1	0	0	384	C	1	M1
NMTTP	1	0	2	B	0	M1
NMTTP	1	0	3	B	0	M1
NMTTP	1	0	3	E	0	M1
NMHLD	2	0	0	384
NMHLD	3	0	7	384
NMTHO	4	0	0	384	C	0	M1
NMTTP	5	0	7	E	0	M1
NMTTP	5	192	6	E	0	M1
BRHLD	6	0	4	96
BRHLD	6	0	5	96
NMHLD	6	192	2	96
NMHLD	6	192	3	96
NMTAP	7	0	3
NMTAP	7	0	5
NMTAP	7	96	3
NMTAP	7	96	5
NMTAP	7	192	2
NMTAP	7	192	4
NMTAP	7	288	2
NMTAP	7	288	4
NMTAP	8	0	3
NMTAP	8	48	3
NMTAP	8	96	4
NMTAP	8	144	4
NMTAP	8	192	3
NMTAP	8	192	4
NMTAP	8	240	3
NMTAP	8	240	4
NMTAP	8	288	3
NMTAP	8	288	4
NMTAP	9	0	2
NMHLD	9	0	5	96
NMSTR	9	96	4
NMSI_	9	96	4	96	96	1
NMSI_	9	96	4	96	96	7
BRTAP	10	0	0
NMTAP	10	48	0
NMTAP	10	96	1
NMTAP	10	96	7
NMTAP	10	192	4
NMTAP	10	192	5
NMTAP	10	288	1
NMTAP	10	288	3
NMTAP	11	0	6
NMTAP	11	0	7
NMSTR	11	96	0
NMSI_	11	96	0	96	96	4
NMSTR	11	96	1
NMSCR	11	96	1	96	96	4
NMTAP	12	0	6
NMTAP	12	0	7
NMTAP	12	96	4
NMTAP	12	96	5
NMTAP	12	192	0
NMTAP	12	192	1
NMTAP	12	288	2
NMTAP	12	288	3
NMTAP	13	0	5
NMTAP	13	48	5
NMTAP	13	96	4
NMTAP	13	144	6
NMTAP	13	192	0
NMTAP	13	240	0
NMTAP	13	288	7
BXHLD	14	0	0	96
BXTAP	14	0	6
NMTAP	14	96	3
NMTAP	14	144	3
NMTAP	14	192	1
NMTAP	14	192	3
NMTAP	14	288	4
NMTAP	14	288	5
NMTAP	15	0	0
NMTAP	15	0	6
NMTAP	15	96	2
NMTAP	15	96	3
BRTAP	15	192	0
BRTAP	15	192	4
NMSTR	16	0	1
NMSI_	16	0	1	96	48	3
NMHLD	16	0	3	96
NMTAP	16	192	4
NMTAP	16	192	5
NMTAP	16	288	6
NMTAP	16	288	7
NMHLD	17	0	0	96
NMHLD	17	0	5	96
NMHLD	17	144	1	96
NMHLD	17	144	6	96
BRTAP	17	288	2
BRTAP	17	288	7
EXTAP	18	0	2
EXTAP	18	48	2
EXTAP	18	96	1
EXTAP	18	96	3
NMHLD	18	192	0	96
NMHLD	18	288	2	96
NMHLD	19	0	4	96
NMSTR	19	96	6
NMSCL	19	96	6	96	96	3
NMHLD	20	0	1	96
NMTAP	20	96	3
NMHLD	20	192	6	96
NMTAP	20	288	4
NMTAP	21	0	2
NMTAP	21	48	2
NMTAP	21	96	3
NMTAP	21	144	1
NMTAP	21	192	7
NMTAP	21	240	7
NMTAP	21	288	2
NMTAP	21	288	7
BXTAP	22	0	0
BXTAP	22	0	1
BXTAP	22	72	0
BXTAP	22	72	1
BXTAP	22	144	2
BXTAP	22	144	7
BXSTR	22	192	2
NMSI_	22	192	2	96	48	4
BXTAP	22	192	7
NMTAP	23	0	5
NMTAP	23	48	5
NMTAP	23	96	5
NMTAP	23	144	5
NMTAP	23	192	4
NMTAP	23	240	4
NMTAP	23	288	4
NMTAP	23	336	4
NMSTR	24	0	3
NMSCL	24	0	3	96	288	5
EXHLD	25	0	4	384
NMTHO	25	192	0	192	C	1	M1
NMTTP	25	192	1	B	0	M1
NMTTP	25	192	2	B	0	M1
NMTTP	25	192	2	E	0	M1
NMTTP	29	0	5	E	0	M1
NMTTP	29	96	4	E	0	M1
NMTTP	29	192	3	E	0	M1
NMTTP	29	288	0	C	0	M1
EXSTR	30	0	0
NMSCR	30	0	0	96	288	3
EXHLD	31	0	4	96
EXHLD	31	192	3	96
EXHLD	31	192	4	96
NMTAP	32	0	4
NMTAP	32	0	5
NMTAP	32	96	6
NMTAP	32	96	7
NMTAP	32	192	0
NMTAP	32	192	1
NMHLD	32	288	2	96
NMSTR	32	288	3
BRSI_	32	288	3	96	96	7
NMTAP	33	192	0
NMTAP	33	192	6
NMTAP	33	288	1
NMTAP	33	288	5
NMHLD	34	0	2	96
NMTAP	34	0	4
NMTAP	34	96	4
NMTAP	34	192	4
NMHLD	34	192	5	96
NMTAP	34	288	4
NMHLD	35	0	3	96
EXTAP	35	0	4
EXTAP	35	96	4
EXTAP	35	192	4
NMHLD	35	192	6	96
EXTAP	35	288	4
NMTAP	36	0	3
NMTAP	36	48	3
NMTAP	36	96	4
NMTAP	36	144	4
NMTAP	36	192	3
NMTAP	36	216	4
NMTAP	36	240	3
NMTAP	36	264	4
NMTAP	36	288	3
NMTAP	36	312	4
NMTAP	36	336	3
NMTAP	36	360	4
EXHLD	37	0	2	96
NMSTR	37	96	3
NMSI_	37	96	3	96	96	0
NMSI_	37	96	3	96	96	6
BXHLD	38	0	0	96
BXHLD	38	0	6	96
NMHLD	38	144	2	96
NMHLD	38	144	3	96
NMTAP	38	288	4
NMTAP	38	288	5
NMTAP	38	336	4
NMTAP	38	336	5
NMHLD	39	0	3	96
NMHLD	39	0	6	96
NMHLD	39	144	0	96
NMHLD	39	144	1	96
NMTAP	39	288	6
NMTAP	39	288	7
NMTAP	39	336	6
NMTAP	39	336	7
NMHLD	40	0	0	96
NMHLD	40	0	5	96
NMHLD	40	144	2	96
NMHLD	40	144	3	96
NMTAP	40	288	4
NMTAP	40	288	5
NMTAP	40	336	4
NMTAP	40	336	5
NMHLD	41	0	3	96
NMHLD	41	0	6	96
NMTAP	41	144	0
NMTAP	41	144	1
BRTAP	41	192	0
BRTAP	41	192	1
NMTAP	41	288	2
NMTAP	41	288	7
EXHLD	42	0	4	96
EXHLD	42	0	6	96
NMHLD	42	144	2	96
NMHLD	42	144	3	96
NMTAP	42	288	0
NMTAP	42	288	1
NMTAP	42	336	0
NMTAP	42	336	1
NMHLD	43	0	2	96
NMHLD	43	0	7	96
NMHLD	43	144	4	96
NMHLD	43	144	5	96
NMTAP	43	288	6
NMTAP	43	288	7
NMTAP	43	336	6
NMTAP	43	336	7
NMHLD	44	0	0	96
NMHLD	44	0	5	96
NMHLD	44	144	1	96
NMHLD	44	144	3	96
NMTAP	44	288	4
NMTAP	44	288	6
NMTAP	44	336	4
NMTAP	44	336	6
NMTAP	45	0	3
NMSTR	45	0	7
NMSI_	45	0	7	96	48	3
BRTAP	45	192	1
BRTAP	45	192	5
NMTAP	45	288	3
NMTAP	45	336	3
NMHLD	46	0	4	96
NMHLD	46	96	2	96
NMTAP	46	192	1
NMTAP	46	240	1
NMTAP	46	288	0
NMTAP	46	288	1
NMTAP	47	0	7
NMTAP	47	48	7
NMTAP	47	96	1
NMTAP	47	144	2
NMTAP	47	192	4
NMTAP	47	240	4
NMTAP	47	288	3
NMTAP	47	288	5
NMHLD	48	0	7	96
NMHLD	48	96	5	96
NMTAP	48	192	3
NMTAP	48	240	3
NMTAP	48	288	1
NMTAP	48	336	0
NMTAP	49	0	7
NMTAP	49	48	7
NMSTR	49	96	7
NMSCL	49	96	7	96	96	4
NMSCR	49	96	7	96	96	2
NMTAP	50	0	3
NMTAP	50	48	3
NMTAP	50	96	2
NMTAP	50	144	2
NMTAP	50	192	1
NMTAP	50	240	1
NMTAP	50	288	0
NMTAP	50	336	0
NMTAP	51	0	7
NMTAP	51	48	7
NMTAP	51	96	6
NMTAP	51	144	6
NMTAP	51	192	5
NMTAP	51	240	5
NMTAP	51	288	4
NMTAP	51	336	4
NMTAP	52	0	3
NMTAP	52	24	5
NMTAP	52	48	3
NMTAP	52	72	5
NMTAP	52	96	3
NMTAP	52	120	5
NMTAP	52	144	3
NMTAP	52	168	5
NMTAP	52	192	2
NMTAP	52	216	4
NMTAP	52	240	2
NMTAP	52	264	4
NMTAP	52	288	2
NMTAP	52	312	4
NMTAP	52	336	2
NMTAP	52	360	4
BRSTR	53	0	1
NMSI_	53	0	1	96	48	5
BRTAP	53	192	0
BRTAP	53	192	6
BRTAP	53	288	3
NMTHO	54	0	0	768	C	0	M1
NMTTP	54	0	1	B	0	M1
NMTTP	54	0	5	B	0	M1
NMHLD	57	0	5	48
NMHLD	57	96	4	48
NMHLD	57	192	3	48
NMHLD	57	288	2	48
NMSTR	58	0	5
NMSCL	58	0	5	96	288	2
NMSTR	59	0	1
NMSCL	59	0	1	96	288	6
NMSTR	60	0	5
NMSUL	60	0	5	96	480	3
NMTAP	61	0	0
NMTAP	61	96	0
NMSTR	61	192	0
BRSI_	61	192	0	96	48	4
BRHLD	62	0	5	384
NMTAP	62	96	4
NMTAP	62	192	4
NMTAP	62	288	3
NMTAP	62	336	3
NMHLD	63	0	2	384
NMTAP	63	96	4
NMTAP	63	192	3
NMTAP	63	288	4
NMTAP	63	336	4
BRHLD	64	0	5	384
NMTAP	64	96	4
NMTAP	64	192	6
NMSTR	64	288	4
NMSI_	64	288	4	96	96	2
CNSI_	65	96	2	0	96	0
CNSI_	65	192	0	0	96	6
NMHLD	66	0	4	96
NMHLD	66	0	5	96
NMHLD	66	192	2	96
NMHLD	66	192	3	96
NMTAP	67	0	0
NMTAP	67	0	1
NMTAP	67	96	0
NMTAP	67	96	7
NMTAP	67	192	6
NMTAP	67	192	7
NMTAP	67	288	0
NMTAP	67	288	7
NMTAP	68	0	0
NMTAP	68	48	0
NMTAP	68	96	7
NMTAP	68	144	7
NMTAP	68	192	0
NMTAP	68	216	7
NMTAP	68	240	0
NMTAP	68	264	7
NMTAP	68	288	1
NMTAP	68	312	6
NMTAP	68	336	1
NMTAP	68	360	6
NMSTR	69	0	2
NMSI_	69	0	2	96	48	6
NMSTR	69	96	4
BRSF_	69	96	4	96	48	0
BRTAP	70	0	2
BRTAP	70	0	6
NMTAP	70	96	4
NMTAP	70	96	5
NMTAP	70	192	0
NMTAP	70	192	1
NMTAP	70	288	2
NMTAP	70	288	4
NMTAP	70	336	1
NMTAP	70	336	5
NMTAP	71	0	0
NMTAP	71	0	6
NMTAP	71	96	4
NMTAP	71	96	5
NMTAP	71	192	1
NMTAP	71	192	2
NMTAP	71	288	0
NMTAP	71	288	6
NMTAP	71	336	1
NMTAP	71	336	5
NMTAP	72	0	2
NMTAP	72	0	4
NMTAP	72	96	5
NMTAP	72	96	7
NMTAP	72	192	0
NMTAP	72	192	1
NMTAP	72	288	3
NMTAP	72	288	7
NMSTR	73	0	4
NMSI_	73	0	4	96	48	0
NMTAP	73	0	6
NMTAP	73	96	5
NMTAP	73	192	1
NMSTR	73	192	3
NMSI_	73	192	3	96	48	7
NMTAP	73	288	2
NMTAP	74	0	0
NMTAP	74	0	6
NMTAP	74	96	1
NMTAP	74	96	2
NMTAP	74	192	4
NMTAP	74	192	5
NMTAP	74	288	0
NMTAP	74	288	6
NMTAP	74	336	1
NMTAP	74	336	5
NMTAP	75	0	2
NMSTR	75	0	4
NMSI_	75	0	4	96	48	2
NMSTR	75	96	1
NMSI_	75	96	1	96	48	5
NMSTR	75	192	7
NMSI_	75	192	7	96	48	2
EXTAP	75	288	0
NMTAP	76	0	1
NMTAP	76	48	1
NMTAP	76	96	3
NMTAP	76	144	3
NMTAP	76	192	4
NMTAP	76	240	4
NMSTR	76	288	5
BRSI_	76	288	5	96	48	1
BRTAP	77	0	3
NMTAP	77	96	0
NMTAP	77	144	0
NMTAP	77	192	0
EXTAP	77	288	2
EXTAP	77	288	6
BRTAP	78	0	3
BRTAP	78	0	4
BRTAP	78	48	2
BRTAP	78	48	5
BRHLD	78	96	1	48
BRHLD	78	96	6	48
NMHLD	78	192	5	48
NMHLD	78	192	7	48
NMHLD	78	288	1	48
NMHLD	78	288	3	48
NMTAP	79	0	4
NMTAP	79	0	5
NMTAP	79	48	3
NMTAP	79	48	6
NMHLD	79	96	2	48
NMHLD	79	96	7	48
NMHLD	79	192	0	48
NMHLD	79	192	5	48
NMHLD	79	288	1	48
NMHLD	79	288	7	48
NMTAP	80	0	2
NMTAP	80	0	3
NMTAP	80	48	1
NMTAP	80	48	4
NMHLD	80	96	0	48
NMHLD	80	96	5	48
NMHLD	80	192	3	48
NMHLD	80	192	7	48
NMTAP	80	288	0
NMTAP	80	288	6
NMTAP	80	336	1
NMTAP	80	336	5
NMHLD	81	0	2	48
NMHLD	81	0	4	48
NMHLD	81	96	5	48
NMHLD	81	96	7	48
BRTAP	81	192	0
BRTAP	81	192	6
BRTAP	81	240	1
BRTAP	81	240	5
BRTAP	81	288	2
BRTAP	81	288	4
NMSTR	82	0	5
NMSI_	82	0	5	96	48	0
NMSTR	82	96	1
NMSI_	82	96	1	96	48	4
NMTAP	82	192	7
NMTAP	82	288	0
NMTAP	82	288	6
NMTAP	82	336	1
NMTAP	82	336	5
NMSTR	83	0	2
NMSI_	83	0	2	96	48	7
NMTAP	83	0	4
NMSTR	83	96	6
NMSI_	83	96	6	96	48	2
NMTAP	83	192	0
NMTAP	83	288	1
NMTAP	83	288	7
NMTAP	84	0	0
NMTAP	84	0	6
NMTAP	84	48	0
NMTAP	84	48	6
NMTAP	84	96	0
NMTAP	84	96	6
NMTAP	84	144	0
NMTAP	84	144	6
NMTAP	84	192	1
NMTAP	84	216	5
NMTAP	84	240	1
NMTAP	84	264	5
NMSTR	84	288	1
NMSCL	84	288	1	96	192	3
NMTAP	84	312	5
NMTAP	84	336	1
NMTAP	84	360	5
EXTAP	85	192	7
NMTTP	86	0	0	C	1	M1
NMTTP	86	0	3	B	0	M1
NMTTP	86	0	4	B	0	M1
NMTTP	86	0	4	E	0	M1
NMTTP	86	192	1	B	0	M1
NMTTP	86	192	1	A	0	M1
NMTTP	86	192	2	B	0	M1
NMTTP	86	192	2	E	0	M1
NMTTP	86	192	2	A	0	M1
NMTTP	86	192	2	D	0	M1
NMTTP	86	192	3	E	0	M1
NMTTP	87	0	5	B	0	M1
NMTTP	87	0	5	A	0	M1
NMTTP	87	0	6	B	0	M1
NMTTP	87	0	6	E	0	M1
NMTTP	87	0	6	A	0	M1
NMTTP	87	0	6	D	0	M1
NMTTP	87	0	7	E	0	M1
NMTTP	87	192	3	B	0	M1
NMTTP	87	192	3	A	0	M1
NMTTP	87	192	4	B	0	M1
NMTTP	87	192	4	E	0	M1
NMTTP	87	192	4	A	0	M1
NMTTP	87	192	4	D	0	M1
NMTTP	88	0	0	B	0	M1
NMTTP	88	0	0	A	0	M1
NMTTP	88	0	1	B	0	M1
NMTTP	88	0	1	E	0	M1
NMTTP	88	0	1	A	0	M1
NMTTP	88	0	1	D	0	M1
NMTTP	88	0	2	E	0	M1
NMTTP	88	192	6	B	0	M1
NMTTP	88	192	6	E	0	M1
NMTTP	88	192	6	A	0	M1
NMTTP	88	192	7	B	0	M1
NMTTP	88	192	7	E	0	M1
NMTTP	88	192	7	A	0	M1
NMTTP	88	192	7	D	0	M1
NMTHO	89	0	0	192	C	0	M1
NMTTP	89	0	4	B	0	M1
NMTTP	89	0	4	E	0	M1
NMTTP	89	0	5	E	0	M1
NMTAP	89	192	7
BRTAP	89	288	0
BRTAP	89	288	7
NMTAP	90	0	0
NMTAP	90	0	1
NMTAP	90	48	2
NMTAP	90	48	7
NMSTR	90	96	3
NMSI_	90	96	3	96	48	6
NMTAP	90	96	6
NMSTR	90	192	5
NMSI_	90	192	5	96	48	0
NMSTR	90	288	1
NMSI_	90	288	1	96	48	4
NMSTR	91	0	7
NMSI_	91	0	7	96	48	2
NMTAP	91	96	3
NMTAP	91	192	0
NMTAP	91	192	1
NMTAP	91	240	0
NMTAP	91	240	1
BRTAP	91	288	2
BRTAP	91	288	7
NMTAP	92	0	6
NMTAP	92	0	7
NMTAP	92	48	0
NMTAP	92	48	5
NMTAP	92	96	1
NMSTR	92	96	4
NMSI_	92	96	4	96	48	1
NMSTR	92	192	2
NMSI_	92	192	2	96	48	7
NMSTR	92	288	6
NMSI_	92	288	6	96	48	3
NMSTR	93	0	0
NMSI_	93	0	0	96	48	5
NMSTR	93	96	4
NMSCR	93	96	4	96	120	1
EXTAP	93	192	3
EXTAP	93	240	3
EXTAP	93	288	3
NMTAP	94	0	2
NMTAP	94	0	4
NMTAP	94	48	1
NMTAP	94	48	5
NMSTR	94	96	0
NMSI_	94	96	0	96	48	5
NMTAP	94	96	6
NMSTR	94	192	7
NMSI_	94	192	7	96	48	2
NMSTR	94	288	1
NMSI_	94	288	1	96	48	4
NMSTR	95	0	5
NMSI_	95	0	5	96	48	0
NMTAP	95	96	3
BRTAP	95	192	1
BRTAP	95	192	7
BRTAP	95	240	2
BRTAP	95	240	6
BRTAP	95	288	3
BRTAP	95	288	5
NMSTR	96	0	6
NMSI_	96	0	6	96	48	0
NMTAP	96	48	6
NMSTR	96	96	1
NMSI_	96	96	1	96	48	5
NMTAP	96	144	1
NMSTR	96	192	4
NMSI_	96	192	4	96	48	2
NMTAP	96	240	4
EXTAP	96	288	0
NMSTR	97	0	1
NMSI_	97	0	1	96	48	7
NMTAP	97	48	1
NMSTR	97	96	6
NMSI_	97	96	6	96	48	2
NMTAP	97	144	6
NMSTR	97	192	3
NMSI_	97	192	3	96	48	5
NMTAP	97	240	3
EXTAP	97	288	7
NMTAP	98	0	6
NMTAP	98	48	6
NMTAP	98	96	4
NMTAP	98	144	4
NMTAP	98	192	3
NMTAP	98	240	3
NMTAP	98	288	1
NMTAP	98	336	1
NMSTR	99	0	7
NMSI_	99	0	7	96	48	3
NMTAP	99	48	7
NMSTR	99	96	0
NMSI_	99	96	0	96	48	4
NMTAP	99	144	0
NMTAP	99	192	7
NMTAP	99	240	7
NMTAP	99	288	0
NMTAP	99	336	0
NMTAP	100	0	0
NMTAP	100	24	7
NMTAP	100	48	0
NMTAP	100	72	7
NMTAP	100	96	1
NMTAP	100	120	6
NMTAP	100	144	1
NMTAP	100	168	6
NMTAP	100	192	2
NMTAP	100	216	5
NMTAP	100	240	2
NMTAP	100	264	5
NMTAP	100	288	3
NMTAP	100	312	4
NMTAP	100	336	3
NMTAP	100	360	4
BRSTR	101	0	3
NMSI_	101	0	3	96	48	7
BRSTR	101	96	5
BRSF_	101	96	5	96	48	1
BXHLD	102	0	1	96
BXHLD	102	0	7	96
NMHLD	102	144	1	96
NMHLD	102	144	7	96
NMTAP	102	288	6
NMTAP	102	336	6
NMHLD	103	0	4	96
NMHLD	103	0	5	96
NMHLD	103	144	4	96
NMHLD	103	144	5	96
NMTAP	103	288	3
NMTAP	103	336	3
NMHLD	104	0	2	96
NMHLD	104	0	3	96
NMHLD	104	144	2	96
NMHLD	104	144	3	96
NMTAP	104	288	1
NMTAP	104	336	1
NMHLD	105	0	0	96
NMHLD	105	0	1	96
NMTAP	105	144	0
NMTAP	105	144	1
NMTAP	105	192	0
NMSTR	105	192	1
NMSI_	105	192	1	96	48	4
NMTAP	106	0	6
NMTAP	106	48	6
NMHLD	106	96	4	48
NMHLD	106	96	5	48
NMHLD	106	192	2	48
NMHLD	106	192	3	48
NMHLD	106	288	4	48
NMHLD	106	288	6	48
NMTAP	107	0	7
NMTAP	107	48	7
NMTAP	107	96	0
NMTAP	107	144	0
NMTAP	107	192	1
NMTAP	107	192	6
NMTAP	107	240	1
NMTAP	107	240	6
NMTAP	107	288	1
NMTAP	107	288	6
NMTAP	107	336	1
NMTAP	107	336	6
NMTAP	108	0	0
NMTAP	108	24	7
NMTAP	108	48	0
NMTAP	108	72	7
NMTAP	108	96	0
NMTAP	108	120	7
NMTAP	108	144	0
NMTAP	108	168	7
NMTAP	108	192	0
NMTAP	108	216	1
NMTAP	108	240	2
NMTAP	108	264	3
NMTAP	108	288	4
NMTAP	108	312	5
NMTAP	108	336	6
NMTAP	108	360	7
BRHLD	109	0	0	192
NMTAP	109	192	4
NMTAP	109	240	4
NMSTR	109	288	1
BRSV_	109	288	1	96	48	4
NMSTR	109	288	5
BRSV_	109	288	5	96	48	0

T_REC_TAP	399
T_REC_BRK	35
T_REC_XTP	17
T_REC_BXX	8
T_REC_HLD	91
T_REC_XHO	7
T_REC_BHO	7
T_REC_BXH	5
T_REC_STR	52
T_REC_BST	3
T_REC_XST	1
T_REC_XBS	1
T_REC_TTP	55
T_REC_THO	5
T_REC_SLD	53
T_REC_BSL	7
T_REC_ALL	746
T_NUM_TAP	524
T_NUM_BRK	66
T_NUM_HLD	103
T_NUM_SLD	53
T_NUM_ALL	746
T_JUDGE_TAP	571
T_JUDGE_HLD	268
T_JUDGE_SLD	60
T_JUDGE_ALL	899
TTM_EACHPAIRS	172
TTM_SCR_TAP	262000
TTM_SCR_BRK	171600
TTM_SCR_HLD	103000
TTM_SCR_SLD	79500
TTM_SCR_ALL	616100
TTM_SCR_S	591250
TTM_SCR_SS	609500
TTM_RAT_ACV	10108

