VERSION	0.00.00	1.04.00
FES_MODE	0
BPM_DEF	201.000	201.000	201.000	201.000
MET_DEF	4	4
RESOLUTION	384
CLK_DEF	384
COMPATIBLE_CODE	MA2

BPM	0	0	201.000
MET	0	0	4	4

NMHLD	2	0	2	192
NMHLD	2	192	3	192
NMHLD	3	0	4	192
NMTAP	3	192	5
NMHLD	4	0	5	192
NMHLD	4	192	4	192
NMHLD	5	0	3	192
NMTAP	5	192	2
NMTAP	6	0	0
NMTAP	6	0	1
NMTAP	6	192	0
NMTAP	6	192	1
NMTAP	7	0	6
NMTAP	7	0	7
NMTAP	7	96	6
NMTAP	7	96	7
NMTAP	7	192	6
NMTAP	7	192	7
NMTAP	8	0	0
NMTAP	8	96	0
NMTAP	8	192	7
NMTAP	8	288	7
BXTAP	9	0	0
BXTAP	9	0	7
NMTAP	10	0	1
NMTAP	10	96	1
NMTAP	10	192	1
NMTAP	11	0	2
NMTAP	11	96	2
NMTAP	11	192	2
NMTAP	12	0	3
NMTAP	12	96	3
NMTAP	12	192	3
NMTAP	13	0	4
NMTAP	13	0	5
NMTAP	13	192	4
NMTAP	13	192	5
NMTAP	14	0	6
NMTAP	14	96	6
NMTAP	14	192	6
NMTAP	15	0	5
NMTAP	15	96	5
NMTAP	15	192	5
NMTAP	16	0	4
NMTAP	16	96	4
NMTAP	16	192	4
NMTAP	17	0	2
NMTAP	17	0	3
NMTAP	17	192	2
NMTAP	17	192	3
NMTTP	18	0	1	B	0	L1
NMTTP	18	96	2	B	0	L1
NMTTP	18	192	3	B	0	L1
NMTTP	19	0	6	B	0	L1
NMTTP	19	96	5	B	0	L1
NMTTP	19	192	4	B	0	L1
NMTTP	20	0	1	B	0	L1
NMTTP	20	96	2	B	0	L1
NMTTP	20	192	3	B	0	L1
NMTTP	20	288	4	B	0	L1
NMTTP	21	0	5	B	0	L1
NMTTP	21	96	6	B	0	L1
NMTTP	21	192	0	B	0	L1
NMTTP	21	192	7	B	0	L1
NMTTP	22	0	3	B	0	L1
NMTTP	22	96	2	B	0	L1
NMTTP	22	192	0	B	0	L1
NMTTP	22	192	1	B	0	L1
NMTTP	23	0	4	B	0	L1
NMTTP	23	96	5	B	0	L1
NMTTP	23	192	6	B	0	L1
NMTTP	23	192	7	B	0	L1
NMTHO	24	0	0	384	C	1	L1
NMSTR	26	0	1
NMSI_	26	0	1	96	192	4
NMSTR	27	0	5
NMSI_	27	0	5	96	192	0
NMSTR	28	0	1
NMSI_	28	0	1	96	192	5
NMTAP	29	0	6
NMTAP	29	96	6
NMTAP	29	192	6
NMTAP	29	192	7
NMSTR	30	0	6
NMSI_	30	0	6	96	192	3
NMSTR	31	0	2
NMSI_	31	0	2	96	192	7
NMSTR	32	0	6
NMSI_	32	0	6	96	192	2
NMTAP	33	0	1
NMTAP	33	96	1
NMTAP	33	192	0
NMTAP	33	192	1
NMTAP	34	0	2
NMTAP	34	0	3
NMTAP	34	96	2
NMTAP	34	96	3
NMTAP	34	192	2
NMTAP	34	192	3
NMTAP	35	0	4
NMTAP	35	0	5
NMTAP	35	96	4
NMTAP	35	96	5
NMTAP	35	192	4
NMTAP	35	192	5
NMTAP	36	0	3
NMTAP	36	96	3
NMTAP	36	192	4
NMTAP	36	288	4
BXTAP	37	0	2
BXTAP	37	0	5
NMHLD	38	0	6	192
NMTAP	38	192	7
NMHLD	39	0	5	192
NMTAP	39	192	4
NMHLD	40	0	2	192
NMTAP	40	192	3
NMTAP	41	0	0
NMTAP	41	0	1
NMTAP	41	96	0
NMTAP	41	96	1
NMTAP	41	192	0
NMTAP	41	192	1
NMHLD	42	0	1	192
NMTAP	42	192	0
NMHLD	43	0	2	192
NMTAP	43	192	3
NMHLD	44	0	5	192
NMTAP	44	192	4
NMTAP	45	0	6
NMTAP	45	0	7
NMTAP	45	96	6
NMTAP	45	96	7
NMTAP	45	192	6
NMTAP	45	192	7
NMTAP	46	0	5
NMTAP	46	96	5
NMTAP	46	192	5
NMTAP	46	288	4
NMTAP	46	288	5
NMTAP	47	0	6
NMTAP	47	96	6
NMTAP	47	192	6
NMTAP	47	288	6
NMTAP	47	288	7
NMTAP	48	0	0
NMTAP	48	96	0
NMTAP	48	192	0
NMTAP	48	288	0
NMTAP	48	288	1
NMTAP	49	0	2
NMTAP	49	0	3
NMTAP	49	96	2
NMTAP	49	96	3
NMTAP	49	192	2
NMTAP	49	192	3
NMTAP	50	0	2
NMTAP	50	96	2
NMTAP	50	192	2
NMTAP	50	288	2
NMTAP	50	288	3
NMTAP	51	0	1
NMTAP	51	96	1
NMTAP	51	192	1
NMTAP	51	288	0
NMTAP	51	288	1
NMTAP	52	0	7
NMTAP	52	96	7
NMTAP	52	192	7
NMTAP	52	288	6
NMTAP	52	288	7
EXTAP	53	0	4
EXTAP	53	0	5
EXTAP	53	96	4
EXTAP	53	96	5
EXTAP	53	192	4
EXTAP	53	192	5
NMSTR	54	0	6
NMSCL	54	0	6	96	192	3
NMSTR	55	0	2
NMSCL	55	0	2	96	192	7
NMSTR	56	0	6
NMSI_	56	0	6	96	192	2
NMTAP	57	0	1
NMTAP	57	96	1
NMTAP	57	192	0
NMTAP	57	192	1
NMSTR	58	0	1
NMSCR	58	0	1	96	192	4
NMSTR	59	0	5
NMSCR	59	0	5	96	192	0
NMSTR	60	0	1
NMSI_	60	0	1	96	192	5
NMHLD	61	0	6	192
NMTAP	61	192	7
NMTAP	62	0	6
NMTAP	62	96	6
NMTAP	62	192	6
NMTAP	62	192	7
NMTAP	63	0	5
NMTAP	63	96	5
NMTAP	63	192	4
NMTAP	63	192	5
NMTAP	64	0	2
NMTAP	64	96	2
NMTAP	64	192	2
NMTAP	64	192	3
NMTAP	65	0	1
NMTAP	65	96	1
NMTAP	65	192	0
NMTAP	65	192	1
NMTAP	66	0	6
NMTAP	66	0	7
NMTAP	66	192	0
NMTAP	66	192	1
NMTAP	67	0	6
NMTAP	67	0	7
NMTAP	67	96	6
NMTAP	67	96	7
NMTAP	67	192	6
NMTAP	67	192	7
NMTAP	68	0	0
NMTAP	68	96	1
NMTAP	68	192	2
NMTAP	68	288	3
BRTAP	69	0	3
BRTAP	69	0	4
NMTAP	70	0	5
NMTAP	70	96	5
NMTAP	70	192	6
NMTAP	70	288	6
NMTAP	71	0	7
NMTAP	71	96	7
NMTAP	71	192	0
NMTAP	71	192	1
NMTAP	72	0	2
NMTAP	72	96	2
NMTAP	72	192	1
NMTAP	72	288	1
NMTAP	73	0	0
NMTAP	73	96	0
NMTAP	73	192	6
NMTAP	73	192	7
NMTAP	74	0	6
NMTAP	74	96	6
NMTAP	74	192	5
NMTAP	74	288	5
NMTAP	75	0	4
NMTAP	75	96	4
NMTAP	75	192	2
NMTAP	75	192	3
NMTAP	76	0	1
NMTAP	76	96	2
NMTAP	76	192	3
NMTAP	76	288	4
NMTAP	77	0	4
NMTAP	77	0	5
NMTAP	77	96	4
NMTAP	77	96	5
NMTAP	77	192	3
NMTAP	77	192	6
NMTAP	78	0	2
NMTAP	78	96	2
NMTAP	78	192	0
NMTAP	78	192	1
NMTAP	78	288	0
NMTAP	78	288	1
NMTAP	79	0	7
NMTAP	79	96	6
NMTAP	79	192	4
NMTAP	79	192	5
NMTAP	80	0	5
NMTAP	80	96	5
NMTAP	80	192	6
NMTAP	80	192	7
NMTAP	80	288	6
NMTAP	80	288	7
NMTAP	81	0	0
NMTAP	81	96	1
NMTAP	81	192	2
NMTAP	81	192	3
NMTAP	82	0	1
NMTAP	82	96	1
NMTAP	82	192	2
NMTAP	82	192	3
NMTAP	82	288	2
NMTAP	82	288	3
NMTAP	83	0	4
NMTAP	83	96	5
NMTAP	83	192	6
NMTAP	83	192	7
NMTAP	84	0	6
NMTAP	84	96	5
NMTAP	84	192	4
NMTAP	84	288	3
BRTAP	85	0	2
BRTAP	85	0	3
NMSTR	86	0	4
NMSI_	86	0	4	96	192	7
NMSTR	87	0	0
NMSI_	87	0	0	96	192	3
NMSTR	88	0	4
NMSI_	88	0	4	96	192	7
BXTAP	89	0	0
NMTAP	90	0	7
NMTAP	90	96	6
NMTAP	90	192	5
NMTAP	90	288	4
NMTAP	91	0	3
NMTAP	91	96	2
NMTAP	91	192	0
NMTAP	91	192	1
NMTAP	92	0	0
NMTAP	92	96	1
NMTAP	92	192	2
NMTAP	92	288	3
NMTAP	93	0	4
NMTAP	93	96	5
NMTAP	93	192	6
NMTAP	93	192	7
NMTAP	94	0	5
NMTAP	94	48	5
NMTAP	94	96	5
NMTAP	94	192	6
NMTAP	94	192	7
NMTAP	94	288	6
NMTAP	94	288	7
NMTAP	95	0	0
NMTAP	95	48	0
NMTAP	95	96	0
NMTAP	95	192	0
NMTAP	95	192	1
NMTAP	96	0	2
NMTAP	96	48	2
NMTAP	96	96	2
NMTAP	96	192	0
NMTAP	96	192	1
NMTAP	96	288	0
NMTAP	96	288	1
NMTAP	97	0	7
NMTAP	97	48	7
NMTAP	97	96	7
NMTAP	97	192	6
NMTAP	97	192	7
NMTAP	98	0	6
NMTAP	98	48	6
NMTAP	98	96	6
NMTAP	98	192	4
NMTAP	98	192	5
NMTAP	98	288	4
NMTAP	98	288	5
NMTAP	99	0	3
NMTAP	99	48	3
NMTAP	99	96	3
NMTAP	99	192	2
NMTAP	99	192	3
NMTAP	100	0	1
NMTAP	100	96	2
NMTAP	100	192	3
NMTAP	100	288	4
NMTAP	101	0	5
NMTAP	101	96	6
BRTAP	101	192	0
BRTAP	101	192	7
NMHLD	102	0	1	192
NMTAP	102	192	0
NMHLD	103	0	2	192
NMTAP	103	192	3
NMHLD	104	0	5	192
NMTAP	104	192	4
NMHLD	105	0	6	192
NMTAP	105	192	7
NMTAP	106	0	7
NMTAP	106	96	6
NMTAP	106	192	5
NMTAP	106	288	4
NMTAP	107	0	3
NMTAP	107	96	2
NMTAP	107	192	1
NMTAP	107	288	0
NMTAP	108	0	7
NMTAP	108	96	6
NMTAP	108	192	5
NMTAP	108	288	4
NMHLD	109	0	3	192
NMHLD	109	0	4	192
BXTAP	110	0	2
BXTAP	110	0	5

T_REC_TAP	297
T_REC_BRK	6
T_REC_XTP	6
T_REC_BXX	7
T_REC_HLD	19
T_REC_XHO	0
T_REC_BHO	0
T_REC_BXH	0
T_REC_STR	15
T_REC_BST	0
T_REC_XST	0
T_REC_XBS	0
T_REC_TTP	22
T_REC_THO	1
T_REC_SLD	15
T_REC_BSL	0
T_REC_ALL	388
T_NUM_TAP	340
T_NUM_BRK	13
T_NUM_HLD	20
T_NUM_SLD	15
T_NUM_ALL	388
T_JUDGE_TAP	353
T_JUDGE_HLD	84
T_JUDGE_SLD	15
T_JUDGE_ALL	452
TTM_EACHPAIRS	78
TTM_SCR_TAP	170000
TTM_SCR_BRK	33800
TTM_SCR_HLD	20000
TTM_SCR_SLD	22500
TTM_SCR_ALL	246300
TTM_SCR_S	237650
TTM_SCR_SS	245000
TTM_RAT_ACV	10053

