VERSION	0.00.00	1.04.00
FES_MODE	0
BPM_DEF	190.000	190.000	190.000	190.000
MET_DEF	4	4
RESOLUTION	384
CLK_DEF	384
COMPATIBLE_CODE	MA2

BPM	0	0	190.000
MET	0	0	4	4

BRSTR	2	0	1
NMSXR	2	0	1	96	384	6
BRTAP	2	0	5
NMSTR	3	0	6
NMSCR	3	0	6	96	384	5
NMSTR	4	0	5
NMSXR	4	0	5	96	384	2
NMSTR	5	0	2
NMSCR	5	0	2	96	192	5
NMTAP	5	288	7
NMTAP	5	336	7
EXTAP	6	0	0
EXTAP	6	0	6
NMTTP	6	96	2	E	0	M1
NMTTP	6	144	3	E	0	M1
NMTTP	6	240	6	E	0	M1
NMTTP	6	288	7	E	0	M1
NMTTP	7	0	4	B	0	M1
NMTTP	7	0	4	E	0	M1
NMTTP	7	96	2	E	0	M1
NMTTP	7	144	1	E	0	M1
NMTTP	7	240	6	E	0	M1
NMTTP	7	288	5	E	0	M1
NMTTP	8	0	0	B	0	M1
NMTTP	8	0	0	E	0	M1
NMTTP	8	96	2	A	0	M1
NMTTP	8	144	4	E	0	M1
NMTTP	8	240	6	A	0	M1
NMTTP	8	288	0	E	0	M1
NMTHO	9	0	0	384	C	1	M1
BRTAP	10	0	7
NMTAP	10	96	7
NMTAP	10	192	7
NMTAP	10	288	0
NMTAP	10	288	6
BRTAP	10	336	2
BRTAP	10	360	3
BRTAP	11	0	1
NMTAP	11	96	1
NMTAP	11	192	0
NMHLD	11	288	1	48
NMHLD	11	288	7	48
EXTAP	12	0	3
EXTAP	12	0	5
NMTAP	12	48	3
NMTAP	12	48	5
EXTAP	12	96	2
EXTAP	12	96	4
NMTAP	12	144	2
NMTAP	12	144	4
EXTAP	12	192	1
NMTAP	12	216	5
NMTAP	12	240	1
NMTAP	12	264	5
EXTAP	12	288	0
NMTAP	12	312	6
NMTAP	12	336	0
NMTAP	12	360	6
BRSTR	13	0	7
NMSI_	13	0	7	96	48	3
NMTAP	13	96	3
NMSTR	13	192	1
BRSI_	13	192	1	96	48	4
NMSTR	13	192	5
BRSV_	13	192	5	96	48	0
NMTAP	13	288	1
NMTAP	13	288	5
BRTAP	14	0	2
BRTAP	14	0	6
NMTAP	14	96	4
NMTAP	14	96	5
NMTAP	14	144	2
NMTAP	14	168	3
NMTAP	14	192	1
NMTAP	14	240	5
NMTAP	14	264	4
NMSTR	14	288	6
NMSI_	14	288	6	96	48	3
NMTAP	14	336	2
NMTAP	15	0	0
NMTAP	15	0	6
NMTAP	15	96	1
NMTAP	15	96	7
NMTAP	15	144	5
NMTAP	15	168	4
NMTAP	15	192	6
NMTAP	15	240	2
NMTAP	15	264	3
NMSTR	15	288	1
NMSI_	15	288	1	96	48	4
NMTAP	15	336	5
NMTAP	16	0	1
NMTAP	16	0	7
NMTAP	16	96	0
NMTAP	16	96	6
NMTAP	16	144	2
NMTAP	16	168	3
NMTAP	16	192	1
NMTAP	16	240	5
NMTAP	16	264	4
NMSTR	16	288	6
NMSI_	16	288	6	96	48	1
NMTAP	16	336	3
NMSTR	17	0	2
NMSI_	17	0	2	96	48	5
NMTAP	17	0	6
NMTAP	17	96	2
NMSTR	17	96	7
NMSV_	17	96	7	96	48	2
NMSV_	17	96	7	96	48	4
BRTAP	17	192	7
CNSCL	17	240	2	0	48	0
CNSCR	17	240	4	0	48	6
CNSI_	17	288	0	0	48	3
CNSI_	17	288	6	0	48	3
BRTAP	18	0	1
BRTAP	18	0	5
NMTAP	18	96	2
NMTAP	18	96	3
NMTAP	18	144	5
NMTAP	18	168	4
NMTAP	18	192	6
NMTAP	18	240	2
NMTAP	18	264	3
NMSTR	18	288	1
NMSI_	18	288	1	96	48	5
NMTAP	18	336	5
NMTAP	19	0	0
NMTAP	19	0	1
NMTAP	19	96	6
NMTAP	19	96	7
NMTAP	19	144	5
NMTAP	19	168	4
NMTAP	19	192	6
NMTAP	19	240	0
NMTAP	19	240	7
EXTAP	19	288	1
EXTAP	19	288	6
EXTAP	20	0	2
NMTAP	20	0	3
NMTAP	20	48	4
NMTAP	20	96	5
NMTAP	20	144	4
EXTAP	20	144	6
NMTAP	20	192	3
NMTAP	20	240	2
EXTAP	20	288	0
EXSTR	20	288	1
NMSI_	20	288	1	96	48	3
NMSTR	21	0	1
NMSI_	21	0	1	96	48	7
NMTAP	21	48	4
NMSTR	21	96	1
NMSI_	21	96	1	96	48	5
NMSTR	21	144	5
NMSLL	21	144	5	96	96	7
NMTAP	21	192	1
NMTAP	21	240	6
BRTAP	22	0	0
BRTAP	22	0	6
NMTAP	22	96	2
NMTAP	22	96	3
NMTAP	22	144	1
NMTAP	22	192	0
NMTAP	22	192	5
NMSTR	22	240	6
NMSCL	22	240	6	96	48	3
NMTAP	22	264	7
NMTAP	22	288	6
NMTAP	22	336	0
NMTAP	22	360	1
NMTAP	23	0	2
NMTAP	23	96	3
NMTAP	23	96	4
NMTAP	23	144	6
NMTAP	23	168	4
NMTAP	23	192	5
NMTAP	23	240	1
NMTAP	23	264	3
NMTAP	23	288	2
NMTAP	23	336	0
NMTAP	23	336	1
NMTAP	24	0	2
NMTAP	24	0	7
NMTAP	24	96	4
NMTAP	24	96	5
NMTAP	24	144	6
NMTAP	24	192	2
NMTAP	24	192	7
NMSTR	24	240	1
NMSCR	24	240	1	96	48	4
NMTAP	24	264	0
NMTAP	24	288	1
NMTAP	24	336	7
NMTAP	24	360	6
NMTAP	25	0	5
NMTAP	25	96	3
NMTAP	25	96	4
NMTAP	25	192	1
NMTAP	25	208	7
NMTAP	25	224	1
NMTAP	25	240	7
NMTAP	25	264	0
EXTAP	25	288	7
EXTAP	25	336	7
BRHLD	26	0	1	288
NMTAP	26	0	5
NMTTP	26	96	6	A	0	M1
NMTTP	26	96	7	E	0	M1
NMTTP	26	96	7	D	0	M1
NMTAP	26	288	3
BRTAP	26	336	5
BRTAP	26	360	4
BRHLD	27	0	6	288
NMTTP	27	96	1	E	0	M1
NMTTP	27	96	1	A	0	M1
NMTTP	27	96	1	D	0	M1
NMTAP	27	288	4
EXTAP	27	336	2
EXTAP	27	360	3
EXTAP	28	0	1
NMTAP	28	48	0
NMTAP	28	48	1
EXTAP	28	96	6
NMTAP	28	144	6
NMTAP	28	144	7
EXTAP	28	192	5
NMTAP	28	240	4
NMTAP	28	240	5
EXTAP	28	288	2
NMTAP	28	336	2
NMTAP	28	336	3
BRTAP	29	0	1
BRTAP	29	0	5
NMSTR	29	96	3
NMSCL	29	96	3	96	144	4
NMTAP	29	120	7
NMTAP	29	144	3
NMTAP	29	168	7
NMTTP	29	192	0	C	1	M1
NMTAP	30	0	0
NMTAP	30	0	1
NMTAP	30	48	2
BRTAP	30	48	6
NMTAP	30	144	4
NMTAP	30	144	5
BRTAP	30	192	2
NMTAP	30	192	6
NMTAP	30	288	0
NMTAP	30	288	1
NMTAP	30	336	2
BRTAP	30	336	6
NMTAP	31	48	4
NMTAP	31	48	5
BRTAP	31	96	2
NMTAP	31	96	6
EXTAP	31	192	0
NMTAP	31	192	1
EXTAP	31	240	0
NMTAP	31	240	1
NMTAP	31	288	6
EXTAP	31	288	7
NMTAP	31	336	6
EXTAP	31	336	7
NMTAP	32	0	1
NMTAP	32	0	5
NMSTR	32	48	2
NMSI_	32	48	2	96	48	7
NMSTR	32	48	3
NMSI_	32	48	3	96	48	6
BRTAP	32	144	2
BRTAP	32	144	3
NMTAP	32	288	0
NMTAP	32	288	5
NMSTR	32	336	0
NMSI_	32	336	0	96	48	4
NMTAP	32	336	5
NMTAP	33	48	0
NMTAP	33	48	7
NMTAP	33	144	3
NMTAP	33	144	5
NMTAP	33	192	2
NMTAP	33	192	6
NMTAP	33	240	1
NMTAP	33	264	0
NMTAP	33	288	1
NMTAP	33	336	3
NMTAP	33	336	4
NMTAP	34	0	6
NMTAP	34	0	7
BRTAP	34	48	1
NMTAP	34	48	5
NMTAP	34	144	2
NMTAP	34	144	3
NMTAP	34	192	1
BRTAP	34	192	5
NMTAP	34	288	6
NMTAP	34	288	7
BRTAP	34	336	1
NMTAP	34	336	5
NMTAP	35	48	2
NMTAP	35	48	3
NMTAP	35	96	1
BRTAP	35	96	5
NMTAP	35	192	6
EXTAP	35	192	7
NMTAP	35	240	6
EXTAP	35	240	7
EXTAP	35	288	0
NMTAP	35	288	1
EXTAP	35	336	0
NMTAP	35	336	1
NMTAP	36	0	2
NMTAP	36	0	6
NMSTR	36	48	4
NMSI_	36	48	4	96	48	0
NMTAP	36	48	5
NMTAP	36	144	4
NMTAP	36	144	6
EXTAP	36	240	1
EXTAP	36	240	7
EXTAP	36	288	1
EXTAP	36	288	7
BRSTR	36	336	2
NMSUR	36	336	2	96	144	4
BRTAP	36	336	6
NMSTR	37	96	4
NMSCR	37	96	4	96	96	0
NMSTR	37	192	0
NMSCR	37	192	0	96	96	4
NMTAP	37	288	4
NMTTP	38	0	0	C	1	M1
NMTTP	42	0	3	B	0	M1
NMTTP	42	0	4	E	0	M1
NMTTP	42	96	6	D	0	M1
NMTTP	42	192	5	E	0	M1
NMTTP	42	288	0	B	0	M1
NMTTP	42	288	0	E	0	M1
NMTTP	43	0	4	B	0	M1
NMTTP	43	0	4	E	0	M1
NMTTP	43	96	2	D	0	M1
NMTTP	43	192	3	E	0	M1
NMTTP	43	288	0	E	0	M1
NMTTP	43	288	7	B	0	M1
NMTTP	44	0	3	B	0	M1
NMTTP	44	0	4	E	0	M1
NMTTP	44	96	6	D	0	M1
NMTTP	44	192	7	E	0	M1
NMTTP	44	288	3	B	0	M1
NMTTP	44	288	4	E	0	M1
NMTTP	45	0	0	E	0	M1
NMTTP	45	0	7	B	0	M1
NMTTP	45	96	2	D	0	M1
NMTTP	45	192	1	E	0	M1
NMTTP	45	288	4	B	0	M1
NMTTP	45	288	4	E	0	M1
NMSTR	46	0	1
NMSUR	46	0	1	96	288	3
NMTAP	46	192	4
NMSTR	47	0	6
NMSUL	47	0	6	96	288	4
NMTAP	47	96	3
NMTAP	47	192	3
NMSTR	48	0	1
NMSI_	48	0	1	96	144	4
NMSTR	48	192	0
NMSI_	48	192	0	96	144	3
NMSTR	49	0	7
NMSI_	49	0	7	96	144	4
NMSTR	49	192	6
NMSI_	49	192	6	96	144	3
NMSTR	50	0	1
NMSI_	50	0	1	96	48	4
NMTAP	50	96	5
NMSTR	50	192	0
NMSV_	50	192	0	96	48	3
NMTAP	50	288	2
NMSTR	51	0	7
NMSV_	51	0	7	96	48	4
NMTAP	51	96	5
NMSTR	51	192	6
NMSI_	51	192	6	96	48	3
NMTAP	51	288	2
NMSTR	52	0	1
NMSI_	52	0	1	96	48	5
NMSTR	52	96	0
NMSI_	52	96	0	96	48	4
NMSTR	52	192	7
NMSI_	52	192	7	96	48	3
NMSTR	52	288	6
NMSI_	52	288	6	96	48	2
NMSTR	53	0	1
NMSXR	53	0	1	96	192	5
NMTAP	53	336	6
NMTAP	53	360	6
BRTAP	54	0	7
NMTTP	54	96	7	E	0	M1
NMTTP	54	192	0	C	0	M1
NMTTP	54	288	3	E	0	M1
NMTAP	54	336	1
NMTAP	54	360	1
BRTAP	55	0	0
NMTTP	55	96	1	E	0	M1
NMTTP	55	192	0	C	0	M1
NMTTP	55	288	5	E	0	M1
NMTAP	55	336	6
NMTAP	55	360	6
BRTAP	56	0	7
NMTTP	56	96	7	E	0	M1
NMTTP	56	192	0	C	0	M1
NMTTP	56	288	3	E	0	M1
NMTAP	56	336	1
NMTAP	56	360	1
BRSTR	57	0	0
NMSI_	57	0	0	96	48	4
BRTAP	57	192	3
BRTAP	57	192	5
BRTAP	57	240	2
BRTAP	57	240	6
BRTAP	57	288	1
BRTAP	57	288	7
EXSTR	58	0	0
NMSI_	58	0	0	96	48	4
EXSTR	58	0	4
NMSI_	58	0	4	96	48	6
NMTAP	58	96	0
NMTAP	58	96	4
EXSTR	58	192	3
NMSI_	58	192	3	96	48	1
EXSTR	58	192	7
NMSI_	58	192	7	96	48	3
NMTAP	58	288	3
NMTAP	58	288	7
EXSTR	59	0	0
NMSI_	59	0	0	96	48	3
EXSTR	59	0	4
NMSI_	59	0	4	96	48	7
NMTAP	59	96	0
NMTAP	59	96	4
EXSTR	59	192	3
NMSCL	59	192	3	96	48	0
EXSTR	59	192	7
NMSCL	59	192	7	96	48	4
NMTAP	59	288	3
NMTAP	59	288	7
EXTAP	60	0	3
EXTAP	60	0	7
NMTAP	60	48	3
NMTAP	60	48	7
EXTAP	60	96	0
EXTAP	60	96	4
NMTAP	60	144	0
NMTAP	60	144	4
EXTAP	60	192	1
NMTAP	60	216	5
NMTAP	60	240	2
NMTAP	60	264	6
EXSTR	60	288	3
BRSCL	60	288	3	96	384	4
NMTAP	60	312	7
NMTAP	60	336	4
NMTAP	60	360	0
NMTTP	62	0	0	B	0	M1
NMTTP	62	0	0	E	1	M1
NMTTP	62	0	7	B	0	M1
NMTTP	62	96	2	B	0	M1
NMTTP	62	96	3	B	0	M1
NMTTP	62	96	3	E	1	M1
NMTTP	62	192	4	B	0	M1
NMTTP	62	192	5	B	0	M1
NMTTP	62	192	5	E	1	M1
BRTAP	62	288	0
BRSTR	62	288	7
NMSI_	62	288	7	96	48	3
NMHLD	63	0	1	96
NMTAP	63	0	7
NMSTR	63	96	5
NMSCR	63	96	5	96	48	0
NMTAP	63	144	3
NMTAP	63	168	3
NMTAP	63	192	5
NMSTR	63	288	1
NMSI_	63	288	1	96	48	4
NMTAP	64	0	1
NMSTR	64	0	5
NMSI_	64	0	5	96	48	2
NMSTR	64	96	0
NMSCR	64	96	0	96	48	3
NMTAP	64	96	5
NMTAP	64	192	0
NMTAP	64	192	4
NMTAP	64	288	4
NMSTR	64	288	6
NMSI_	64	288	6	96	48	2
NMTAP	64	336	7
NMHLD	65	0	0	96
NMTAP	65	0	6
NMSTR	65	96	5
NMSI_	65	96	5	96	48	0
NMTAP	65	144	3
NMTAP	65	168	3
NMTAP	65	192	5
NMSTR	65	288	3
NMSCR	65	288	3	96	48	6
NMTAP	65	336	1
NMSTR	66	0	3
NMSCL	66	0	3	96	48	0
NMTAP	66	96	3
NMTAP	66	96	7
NMHLD	66	192	6	48
BRHLD	66	192	7	48
BRHLD	66	264	3	48
NMHLD	66	264	4	48
BRTAP	66	336	0
NMTAP	66	336	1
NMHLD	67	0	2	96
NMTAP	67	0	6
NMTAP	67	96	3
NMTAP	67	144	5
NMTAP	67	168	4
NMHLD	67	192	6	96
NMSTR	67	288	7
NMSCR	67	288	7	96	96	5
NMTAP	67	336	6
NMTAP	68	0	5
NMSTR	68	96	0
NMSCL	68	96	0	96	96	2
NMTAP	68	144	1
NMTAP	68	192	2
NMTAP	68	288	7
NMTAP	68	336	0
NMTAP	68	336	6
NMSTR	69	0	1
NMSI_	69	0	1	96	48	3
NMSTR	69	0	5
NMSI_	69	0	5	96	48	3
NMSTR	69	96	1
NMSI_	69	96	1	96	48	7
NMSTR	69	96	5
NMSI_	69	96	5	96	48	7
NMTAP	69	192	1
NMTAP	69	192	5
NMTAP	69	288	1
NMTAP	69	288	3
NMTAP	69	336	4
NMTAP	69	336	6
NMTTP	70	48	1	A	0	M1
NMTTP	70	96	2	A	0	M1
NMTTP	70	144	3	A	0	M1
NMTTP	70	192	4	A	0	M1
NMTTP	70	240	5	A	0	M1
NMTTP	70	288	6	A	0	M1
BRTAP	71	0	3
BRTAP	71	0	4
NMTAP	71	48	1
NMTAP	71	48	6
NMTAP	71	72	1
NMTAP	71	72	6
BXSTR	71	96	0
NMSI_	71	96	0	96	32	4
BXSTR	71	96	7
NMSI_	71	96	7	96	32	3
BRTAP	71	192	0
BRTAP	71	192	7
NMTTP	71	193	0	C	1	M1
NMTAP	71	288	1
NMSTR	71	288	6
NMSI_	71	288	6	96	48	4
NMSTR	72	0	2
NMSI_	72	0	2	96	48	0
NMTAP	72	0	6
NMTAP	72	96	2
NMSTR	72	96	7
NMSI_	72	96	7	96	48	3
NMTAP	72	192	0
NMTAP	72	192	7
NMSTR	72	288	1
NMSI_	72	288	1	96	48	5
NMTAP	72	288	5
NMTAP	72	336	0
NMTAP	73	0	1
NMHLD	73	0	7	96
NMSTR	73	96	2
NMSI_	73	96	2	96	48	7
NMTAP	73	144	4
NMTAP	73	168	4
NMTAP	73	192	2
NMSTR	73	288	4
NMSCL	73	288	4	96	48	1
NMTAP	73	336	6
NMSTR	74	0	4
NMSCR	74	0	4	96	48	7
NMTAP	74	96	0
NMTAP	74	96	4
BRHLD	74	192	0	48
NMHLD	74	192	1	48
NMHLD	74	264	3	48
BRHLD	74	264	4	48
NMTAP	74	336	6
BRTAP	74	336	7
NMSTR	75	0	1
NMSI_	75	0	1	96	48	3
NMHLD	75	0	5	96
NMTAP	75	96	1
NMSTR	75	192	0
NMSI_	75	192	0	96	48	4
NMHLD	75	192	6	96
NMTAP	75	288	0
EXTAP	75	336	5
EXTAP	75	360	5
EXSTR	76	0	3
NMSI_	76	0	3	96	48	7
NMTAP	76	96	6
NMTAP	76	192	1
NMSTR	76	192	4
NMSI_	76	192	4	96	48	6
EXTAP	76	288	2
EXTAP	76	336	2
NMSTR	77	0	3
NMSXR	77	0	3	96	192	4
NMSTR	77	0	7
NMSXR	77	0	7	96	192	0
BRTAP	77	336	1
BRTAP	77	336	5
NMSTR	78	48	2
NMSI_	78	48	2	96	48	7
NMSTR	78	48	6
NMSI_	78	48	6	96	48	3
NMTAP	78	96	3
NMTAP	78	96	7
EXTAP	78	144	2
EXTAP	78	144	6
NMTAP	78	240	0
NMTAP	78	240	4
BRTAP	78	288	2
BRTAP	78	288	6
NMTAP	79	0	0
NMTAP	79	0	1
NMTAP	79	48	5
NMTAP	79	72	4
NMTAP	79	120	4
NMTAP	79	144	6
NMTAP	79	192	0
NMTAP	79	192	7
NMTAP	79	240	1
NMTAP	79	264	3
NMTAP	79	312	3
NMTAP	79	336	2
NMTAP	80	0	6
NMTAP	80	0	7
NMTAP	80	48	5
NMTAP	80	72	4
NMTAP	80	120	4
NMTAP	80	144	7
NMTAP	80	192	0
NMTAP	80	192	6
NMTAP	80	240	2
NMTAP	80	264	3
NMTAP	80	288	2
NMTAP	80	336	7
NMTAP	81	0	4
NMTAP	81	0	5
NMTAP	81	48	2
NMTAP	81	72	3
NMTAP	81	120	3
NMTAP	81	144	1
NMTAP	81	192	0
NMTAP	81	192	7
NMTAP	81	240	6
NMTAP	81	264	4
NMTAP	81	312	4
NMTAP	81	336	5
NMTAP	82	0	2
NMTAP	82	0	3
NMTAP	82	48	1
NMTAP	82	72	7
NMTAP	82	120	7
NMTAP	82	144	0
NMTAP	82	192	1
NMTAP	82	192	6
NMTAP	82	240	5
NMTAP	82	264	4
NMTAP	82	288	5
NMTAP	82	336	0
NMTAP	83	0	2
NMTAP	83	0	3
NMTAP	83	48	5
NMTAP	83	72	4
NMTAP	83	120	4
NMTAP	83	144	6
NMTAP	83	192	0
NMTAP	83	192	7
NMTAP	83	240	1
NMTAP	83	264	3
NMTAP	83	312	3
NMTAP	83	336	2
NMTAP	84	0	4
NMTAP	84	0	5
NMTAP	84	48	6
NMTAP	84	72	0
NMTAP	84	120	0
NMTAP	84	144	7
NMTAP	84	192	1
NMTAP	84	192	6
NMTAP	84	240	2
NMTAP	84	264	3
NMSTR	84	288	2
NMSCL	84	288	2	96	144	4
NMTAP	84	336	7
BRTAP	85	0	7
NMSTR	85	144	3
NMSF_	85	144	3	96	48	7
NMTAP	85	240	3
EXSTR	85	336	1
NMSI_	85	336	1	96	48	5
NMTAP	85	336	5
NMTAP	86	48	1
EXSTR	86	48	6
NMSI_	86	48	6	96	48	2
EXTAP	86	144	0
NMTAP	86	144	6
NMTAP	86	240	1
NMTAP	86	240	7
BRTAP	86	288	1
BRTAP	86	288	7
EXTAP	87	0	4
EXTAP	87	0	6
NMTAP	87	48	2
NMTAP	87	72	3
NMTAP	87	120	3
NMTAP	87	144	1
EXTAP	87	192	0
EXTAP	87	192	7
NMTAP	87	240	6
NMTAP	87	264	4
NMTAP	87	312	4
NMTAP	87	336	5
EXTAP	88	0	1
EXTAP	88	0	3
NMTAP	88	48	0
NMTAP	88	72	7
NMTAP	88	120	7
NMTAP	88	144	0
EXTAP	88	192	1
EXTAP	88	192	6
NMTAP	88	240	5
NMTAP	88	264	4
NMTAP	88	288	5
NMTAP	88	336	0
EXTAP	89	0	1
EXTAP	89	0	3
NMTAP	89	48	5
NMTAP	89	72	4
NMTAP	89	120	4
NMTAP	89	144	6
EXTAP	89	192	0
EXTAP	89	192	7
NMTAP	89	240	1
NMTAP	89	264	3
NMTAP	89	312	3
NMTAP	89	336	2
EXTAP	90	0	4
EXTAP	90	0	6
NMTAP	90	48	7
NMTAP	90	72	0
NMTAP	90	120	0
NMTAP	90	144	7
EXTAP	90	192	1
EXTAP	90	192	6
NMTAP	90	240	2
NMTAP	90	264	3
NMTAP	90	288	2
NMTAP	90	336	7
EXTAP	91	0	0
EXTAP	91	0	1
NMTAP	91	48	6
NMTAP	91	72	4
NMTAP	91	120	4
NMTAP	91	144	5
EXTAP	91	192	6
EXTAP	91	192	7
NMTAP	91	240	1
NMTAP	91	264	3
NMTAP	91	312	3
NMTAP	91	336	2
EXTAP	92	0	4
EXTAP	92	0	6
NMTAP	92	48	5
NMTAP	92	72	3
NMTAP	92	120	3
NMTAP	92	144	4
EXTAP	92	192	1
EXTAP	92	192	3
NMTAP	92	240	2
NMTAP	92	264	4
NMTAP	92	312	4
NMTAP	92	336	3
NMTAP	93	0	2
NMTAP	93	24	4
NMTAP	93	48	2
NMTAP	93	72	4
NMTAP	93	96	1
NMTAP	93	120	5
NMTAP	93	144	1
NMTAP	93	168	5
NMTAP	93	192	0
NMTAP	93	204	1
NMTAP	93	216	2
NMTAP	93	228	3
NMTAP	93	240	4
NMTAP	93	252	5
NMTAP	93	264	6
NMTAP	93	276	7
NMTAP	93	288	0
NMTAP	93	300	1
NMTAP	93	312	2
NMTAP	93	324	3
NMTAP	93	336	4
NMTAP	93	348	5
NMTAP	93	360	6
NMTAP	93	372	7
BRTAP	94	0	0
NMTTP	94	0	0	C	1	M1
NMTAP	95	0	6
NMTAP	95	0	7
BRTAP	95	48	1
NMTAP	95	48	5
NMTAP	95	144	2
NMTAP	95	144	3
NMTAP	95	192	1
BRTAP	95	192	5
NMTAP	95	288	6
NMTAP	95	288	7
BRTAP	95	336	1
NMTAP	95	336	5
NMTAP	96	48	2
NMTAP	96	48	3
NMTAP	96	96	1
BRTAP	96	96	5
NMTAP	96	192	6
EXTAP	96	192	7
NMTAP	96	240	4
EXTAP	96	240	5
NMTAP	96	288	2
EXTAP	96	288	3
NMTAP	96	336	0
EXTAP	96	336	1
BRSTR	97	0	7
NMSCL	97	0	7	96	48	4
NMTAP	97	48	4
NMTAP	97	96	7
BRSTR	97	144	0
NMSCR	97	144	0	96	48	3
NMTAP	97	192	3
NMTAP	97	240	0
BRSTR	97	288	6
NMSI_	97	288	6	96	48	2
NMTAP	97	336	5
NMTAP	97	336	7
NMTAP	98	0	6
BRSTR	98	48	1
NMSI_	98	48	1	96	48	5
NMTAP	98	96	0
NMTAP	98	96	2
NMTAP	98	144	1
EXTAP	98	192	6
EXTAP	98	216	7
EXTAP	98	240	6
EXTAP	98	264	7
EXTAP	98	288	6
EXTAP	98	336	3
EXTAP	98	336	4
EXTAP	99	0	0
EXTAP	99	0	1
NMTAP	99	48	2
BRTAP	99	48	6
NMTAP	99	144	4
NMTAP	99	144	5
BRTAP	99	192	2
NMTAP	99	192	6
NMTAP	99	288	0
NMTAP	99	288	1
NMTAP	99	336	2
BRTAP	99	336	6
NMTAP	100	48	4
NMTAP	100	48	5
BRTAP	100	96	2
NMTAP	100	96	6
EXTAP	100	192	0
NMTAP	100	192	1
EXTAP	100	240	2
NMTAP	100	240	3
EXTAP	100	288	4
NMTAP	100	288	5
EXTAP	100	336	6
NMTAP	100	336	7
NMTAP	101	0	1
NMTAP	101	24	0
NMTAP	101	48	2
NMTAP	101	72	7
NMTAP	101	96	3
NMTAP	101	120	6
NMTAP	101	144	4
NMTAP	101	168	5
NMTAP	101	192	3
NMTAP	101	216	4
NMTAP	101	240	2
NMTAP	101	264	3
NMTAP	101	288	1
NMTAP	101	312	4
BRSTR	101	336	0
NMSSL	101	336	0	96	144	4
NMSTR	102	96	4
NMSCR	102	96	4	96	96	0
NMSTR	102	192	0
NMSCR	102	192	0	96	96	4
NMTHO	102	288	0	48	C	0	M1

T_REC_TAP	482
T_REC_BRK	59
T_REC_XTP	86
T_REC_BXX	0
T_REC_HLD	13
T_REC_XHO	0
T_REC_BHO	6
T_REC_BXH	0
T_REC_STR	70
T_REC_BST	10
T_REC_XST	13
T_REC_XBS	2
T_REC_TTP	74
T_REC_THO	2
T_REC_SLD	93
T_REC_BSL	3
T_REC_ALL	913
T_NUM_TAP	725
T_NUM_BRK	80
T_NUM_HLD	15
T_NUM_SLD	93
T_NUM_ALL	913
T_JUDGE_TAP	796
T_JUDGE_HLD	45
T_JUDGE_SLD	96
T_JUDGE_ALL	937
TTM_EACHPAIRS	195
TTM_SCR_TAP	362500
TTM_SCR_BRK	208000
TTM_SCR_HLD	15000
TTM_SCR_SLD	139500
TTM_SCR_ALL	725000
TTM_SCR_S	695500
TTM_SCR_SS	717000
TTM_RAT_ACV	10111

