VERSION	0.00.00	1.04.00
FES_MODE	0
BPM_DEF	190.000	190.000	190.000	190.000
MET_DEF	4	4
RESOLUTION	384
CLK_DEF	384
COMPATIBLE_CODE	MA2

BPM	0	0	190.000
MET	0	0	4	4

NMSTR	2	0	5
NMSCL	2	0	5	96	480	2
NMSTR	4	0	2
NMSCR	4	0	2	96	480	5
NMSTR	6	0	6
NMSCL	6	0	6	96	192	3
NMSTR	7	0	1
NMSCR	7	0	1	96	192	4
NMSTR	8	0	7
NMSCL	8	0	7	96	192	3
NMSTR	9	0	0
NMSSL	9	0	0	96	192	4
EXTAP	10	0	5
NMTAP	10	96	5
NMTAP	10	192	2
NMTAP	10	288	2
EXTAP	11	0	6
NMTAP	11	96	6
NMTAP	11	192	1
NMTAP	11	288	1
EXTAP	12	0	7
EXTAP	12	48	7
EXTAP	12	96	0
EXTAP	12	144	0
EXTAP	12	192	7
EXTAP	12	216	0
EXTAP	12	240	7
EXTAP	12	264	0
EXSTR	12	288	7
NMSXL	12	288	7	96	192	4
BRTAP	14	0	2
BRTAP	14	0	3
NMTAP	14	96	2
NMTAP	14	96	3
NMTAP	14	192	0
NMTAP	14	192	1
NMTAP	14	288	0
NMTAP	14	288	1
NMTAP	15	0	6
NMTAP	15	0	7
NMTAP	15	96	6
NMTAP	15	96	7
NMTAP	15	192	4
NMTAP	15	192	5
EXTAP	15	288	3
EXTAP	15	288	6
EXTAP	15	336	3
EXTAP	15	336	6
EXTAP	16	0	3
EXTAP	16	0	6
NMTAP	16	96	0
NMTAP	16	96	7
NMTAP	16	192	0
NMTAP	16	192	7
NMTAP	16	288	2
NMTAP	16	288	3
NMTAP	17	0	4
NMTAP	17	0	5
NMTAP	17	96	6
NMTAP	17	96	7
NMTAP	17	192	0
NMTAP	17	192	1
NMTAP	17	288	2
NMTAP	17	288	3
NMTAP	18	0	4
NMTAP	18	0	5
NMTAP	18	96	4
NMTAP	18	96	5
NMTAP	18	192	6
NMTAP	18	192	7
NMTAP	18	288	6
NMTAP	18	288	7
NMTAP	19	0	3
NMTAP	19	0	4
NMTAP	19	96	3
NMTAP	19	96	4
NMTAP	19	192	0
NMHLD	19	192	1	768
NMTTP	20	0	1	E	0	M1
NMTTP	20	96	2	E	0	M1
NMTTP	20	192	3	E	0	M1
NMTTP	20	288	4	E	0	M1
NMTTP	21	0	5	E	0	M1
NMTTP	21	96	6	E	0	M1
NMTTP	21	192	0	C	1	M1
NMTAP	22	0	6
NMTAP	22	0	7
NMTAP	22	96	6
NMTAP	22	96	7
NMTAP	22	192	4
NMTAP	22	192	5
NMTAP	22	288	4
NMTAP	22	288	5
NMTAP	23	0	2
NMTAP	23	0	3
NMTAP	23	96	2
NMTAP	23	96	3
NMTAP	23	192	0
NMTAP	23	192	1
NMTAP	23	288	2
NMTAP	23	288	7
NMTAP	23	336	2
NMTAP	23	336	7
NMTAP	24	0	2
NMTAP	24	0	7
NMTAP	24	96	3
NMTAP	24	96	4
NMTAP	24	192	3
NMTAP	24	192	4
NMTAP	24	288	6
NMTAP	24	288	7
NMTAP	25	0	0
NMTAP	25	0	1
NMTAP	25	96	2
NMTAP	25	96	3
NMTAP	25	192	4
NMTAP	25	192	5
NMTAP	25	288	6
NMTAP	25	288	7
NMHLD	26	0	6	288
NMSTR	26	0	7
NMSUR	26	0	7	96	192	2
NMSTR	27	0	0
NMSCL	27	0	0	96	192	4
NMTAP	27	0	1
EXTAP	28	0	3
EXTAP	28	48	2
EXTAP	28	96	1
EXTAP	28	144	0
EXTAP	28	192	7
EXTAP	28	240	6
EXTAP	28	288	5
EXTAP	28	336	4
EXSTR	29	0	3
NMSF_	29	0	3	96	96	7
BRTAP	29	288	1
BRTAP	29	288	5
NMHLD	30	0	2	528
NMTAP	30	96	3
NMTAP	30	144	3
NMTAP	30	240	0
NMTAP	30	288	0
EXTAP	31	0	4
NMTAP	31	48	4
NMTAP	31	144	7
BXTAP	31	192	7
BXTAP	31	240	7
BXTAP	31	288	7
BXTAP	31	336	7
EXSTR	32	0	1
NMSI_	32	0	1	96	48	3
EXSTR	32	144	6
NMSI_	32	144	6	96	48	4
NMTAP	32	288	2
EXTAP	32	336	2
NMTAP	33	0	3
EXTAP	33	48	3
NMSTR	33	96	2
NMSCL	33	96	2	96	24	1
CNSI_	33	216	1	0	72	4
NMHLD	34	0	5	528
NMTAP	34	96	4
NMTAP	34	144	4
NMTAP	34	240	7
NMTAP	34	288	7
EXTAP	35	0	3
NMTAP	35	48	3
NMTAP	35	144	0
BXTAP	35	192	0
BXTAP	35	240	0
BXTAP	35	288	0
BXTAP	35	336	0
NMSTR	36	0	6
NMSI_	36	0	6	96	48	3
NMSTR	36	144	2
NMSI_	36	144	2	96	48	7
NMSTR	36	288	6
BRSXL	36	288	6	96	96	7
CNSI_	37	96	7	0	96	4
EXSTR	37	288	3
NMSI_	37	288	3	96	48	7
EXSTR	37	288	4
NMSI_	37	288	4	96	48	0
NMHLD	42	0	6	768
NMTTP	42	192	6	E	0	M1
NMTTP	42	288	5	E	0	M1
NMTTP	43	0	4	E	0	M1
NMTTP	43	96	3	E	0	M1
NMTTP	43	192	2	E	0	M1
NMHLD	44	0	1	576
NMTTP	44	192	2	E	0	M1
NMTTP	44	288	1	E	0	M1
NMTTP	45	0	0	E	0	M1
NMTTP	45	96	7	E	0	M1
NMTTP	45	192	6	E	0	M1
NMHLD	46	0	3	96
NMTAP	46	192	2
NMTAP	46	192	4
NMTAP	47	0	4
NMTAP	47	96	4
NMTAP	47	192	3
NMTAP	47	192	5
NMHLD	48	0	2	96
NMTAP	48	192	1
NMTAP	48	192	3
NMTAP	49	0	5
NMTAP	49	96	5
NMTAP	49	192	4
NMTAP	49	192	6
NMHLD	50	0	7	192
NMTAP	50	96	6
NMHLD	50	192	6	192
NMTAP	50	288	5
NMHLD	51	0	5	192
NMTAP	51	96	4
NMTAP	51	192	4
NMTAP	51	288	3
NMTAP	51	288	4
NMHLD	52	0	2	96
NMHLD	52	96	1	96
NMHLD	52	192	0	96
NMSTR	52	288	7
NMSF_	52	288	7	96	192	3
EXHLD	54	0	2	288
EXHLD	54	0	4	288
EXHLD	55	0	3	288
EXHLD	55	0	5	288
EXHLD	56	0	1	288
EXHLD	56	0	3	288
EXHLD	57	0	4	288
EXHLD	57	0	6	288
NMTAP	58	0	2
NMTAP	58	96	2
NMTAP	58	192	3
NMTAP	58	288	3
NMTAP	59	0	1
NMTAP	59	96	1
NMTAP	59	192	6
NMTAP	59	288	6
EXTAP	60	0	4
EXTAP	60	48	4
EXTAP	60	96	5
EXTAP	60	144	5
EXTAP	60	192	4
EXTAP	60	240	4
EXSTR	60	288	4
BRSI_	60	288	4	96	48	1
EXSTR	60	288	5
BRSI_	60	288	5	96	48	0
EXSTR	62	0	7
BRSI_	62	0	7	96	192	3
BRSCR	62	0	7	96	72	1
CNSV_	62	168	1	0	120	3
BRTAP	63	0	2
BRTAP	63	0	4
NMTAP	63	96	6
NMTAP	63	96	7
NMTAP	63	192	3
NMTAP	63	192	5
NMTAP	63	288	0
NMTAP	63	288	1
NMTAP	64	0	2
NMTAP	64	0	3
NMTAP	64	96	4
NMTAP	64	96	5
NMTAP	64	192	6
NMTAP	64	192	7
NMTAP	64	288	6
NMTAP	64	288	7
NMTAP	64	336	0
NMTAP	64	336	5
NMTAP	65	0	1
NMTAP	65	0	4
NMTAP	65	96	0
NMTAP	65	96	6
NMTAP	65	192	4
NMTAP	65	192	5
NMTAP	65	288	1
NMTAP	65	288	2
NMTAP	66	0	0
NMTAP	66	0	7
NMTAP	66	96	3
NMTAP	66	96	4
NMTAP	66	192	4
NMTAP	66	192	6
NMTAP	66	264	1
NMTAP	66	264	3
NMTAP	66	336	0
NMTAP	66	336	7
BRTAP	67	0	0
BRTAP	67	0	7
NMHLD	67	96	6	96
NMTAP	67	96	7
NMTAP	67	192	3
NMTAP	67	288	0
NMHLD	67	288	1	96
NMTAP	68	0	4
NMHLD	68	96	4	96
NMTAP	68	96	5
NMTAP	68	192	7
NMTAP	68	288	2
NMHLD	68	288	3	96
NMHLD	69	0	0	96
NMHLD	69	96	6	96
NMHLD	69	192	4	96
NMHLD	69	288	2	96
NMTHO	70	0	0	288	C	0	M1
BRTAP	71	0	1
BRTAP	71	0	6
NMTAP	71	48	7
NMTAP	71	72	0
NMTAP	71	96	7
NMTAP	71	192	2
NMTAP	71	192	3
NMTAP	71	288	1
NMTAP	71	288	7
NMTAP	72	0	4
NMTAP	72	0	5
NMTAP	72	96	0
NMTAP	72	96	6
NMTAP	72	192	2
NMTAP	72	192	3
NMTAP	72	288	2
NMTAP	72	288	3
NMTAP	72	336	1
NMTAP	72	336	4
NMTAP	73	0	0
NMTAP	73	0	5
NMTAP	73	96	4
NMTAP	73	96	6
NMTAP	73	192	0
NMTAP	73	192	7
NMTAP	73	288	1
NMTAP	73	288	2
NMTAP	74	0	3
NMTAP	74	0	4
NMTAP	74	96	0
NMTAP	74	96	7
NMTAP	74	192	4
NMTAP	74	192	6
NMTAP	74	264	1
NMTAP	74	264	3
NMTAP	74	336	0
NMTAP	74	336	7
EXHLD	75	0	0	288
EXSTR	75	0	7
NMSCL	75	0	7	96	192	1
EXSTR	76	0	0
NMSCR	76	0	0	96	192	6
EXHLD	76	0	7	288
NMTAP	77	0	0
NMTAP	77	24	7
NMTAP	77	48	0
NMTAP	77	72	7
NMTAP	77	96	0
NMTAP	77	120	7
NMTAP	77	144	0
NMTAP	77	168	7
NMTAP	77	192	0
NMTAP	77	216	7
NMTAP	77	240	0
NMTAP	77	264	7
NMTAP	77	288	0
NMTAP	77	312	7
NMSTR	77	336	0
NMSI_	77	336	0	96	72	6
CNSI_	78	120	6	0	96	2
CNSI_	78	216	2	0	72	4
BRTAP	78	288	5
NMTAP	79	0	2
NMTAP	79	0	4
NMTAP	79	96	1
NMTAP	79	120	0
NMTAP	79	144	1
NMTAP	79	192	3
NMTAP	79	192	5
NMTAP	79	288	6
NMTAP	79	312	7
NMTAP	79	336	6
NMTAP	80	0	2
NMTAP	80	0	4
NMTAP	80	96	1
NMTAP	80	120	0
NMTAP	80	144	1
NMSTR	80	192	2
NMSI_	80	192	2	96	48	7
NMTAP	80	288	6
NMTAP	81	0	4
NMTAP	81	0	5
NMTAP	81	96	6
NMTAP	81	120	7
NMTAP	81	144	6
NMTAP	81	192	3
NMTAP	81	192	4
NMTAP	81	288	1
NMTAP	81	312	0
NMTAP	81	336	1
NMTAP	82	0	3
NMTAP	82	0	4
NMTAP	82	96	6
NMTAP	82	120	7
NMTAP	82	144	6
NMSTR	82	192	5
NMSI_	82	192	5	96	48	0
NMTAP	82	288	1
NMTAP	83	0	2
NMTAP	83	0	3
NMTAP	83	96	6
NMTAP	83	120	7
NMTAP	83	144	6
NMTAP	83	192	4
NMTAP	83	192	5
NMTAP	83	288	1
NMTAP	83	312	0
NMTAP	83	336	1
NMTAP	84	0	2
NMTAP	84	0	3
NMTAP	84	96	6
NMTAP	84	120	7
NMTAP	84	144	6
NMTAP	84	192	4
NMTAP	84	192	5
NMSTR	84	288	0
NMSCR	84	288	0	96	216	7
NMTAP	84	288	7
EXHLD	85	336	1	144
EXHLD	85	336	6	144
NMTAP	86	192	3
NMTAP	86	192	4
BRTAP	86	288	0
BRTAP	86	288	7
NMTAP	87	0	6
NMTAP	87	0	7
NMTAP	87	96	5
NMTAP	87	120	4
NMTAP	87	144	5
NMTAP	87	192	1
NMTAP	87	192	7
NMTAP	87	288	2
NMTAP	87	312	3
NMTAP	87	336	2
NMTAP	88	0	0
NMTAP	88	0	6
NMTAP	88	96	5
NMTAP	88	120	4
NMTAP	88	144	5
NMSTR	88	192	6
NMSI_	88	192	6	96	48	3
NMSTR	88	192	7
NMSI_	88	192	7	96	48	2
NMTAP	89	0	0
NMTAP	89	0	1
NMTAP	89	96	2
NMTAP	89	120	3
NMTAP	89	144	2
NMTAP	89	192	0
NMTAP	89	192	7
NMTAP	89	288	5
NMTAP	89	312	4
NMTAP	89	336	5
NMTAP	90	0	0
NMTAP	90	0	7
NMTAP	90	96	2
NMTAP	90	120	3
NMTAP	90	144	2
NMSTR	90	192	0
NMSI_	90	192	0	96	48	5
NMSTR	90	192	1
NMSI_	90	192	1	96	48	4
NMTAP	91	0	3
NMTAP	91	48	3
NMTAP	91	96	2
NMTAP	91	96	4
NMTAP	91	144	2
NMTAP	91	144	4
NMTAP	91	192	1
NMTAP	91	192	5
NMTAP	91	240	1
NMTAP	91	240	5
BRTAP	91	288	0
BRTAP	91	288	6
NMTAP	92	0	4
NMTAP	92	48	4
NMTAP	92	96	3
NMTAP	92	96	5
NMTAP	92	144	3
NMTAP	92	144	5
NMTAP	92	192	2
NMTAP	92	192	6
NMTAP	92	240	2
NMTAP	92	240	6
BRTAP	92	288	1
BRTAP	92	288	7
NMSTR	93	0	3
NMSXR	93	0	3	96	288	0
NMSTR	93	0	4
NMSXL	93	0	4	96	288	7
BRSTR	94	192	1
NMSI_	94	192	1	96	48	4
BRSTR	94	192	6
NMSI_	94	192	6	96	48	3
EXTAP	95	0	2
EXTAP	95	0	5
NMTAP	95	96	1
NMTAP	95	96	3
NMTAP	95	144	2
NMTAP	95	240	4
NMTAP	95	240	6
NMTAP	95	288	5
NMTAP	96	0	1
NMTAP	96	0	3
NMTAP	96	48	2
NMTAP	96	144	4
NMTAP	96	144	6
BRTAP	96	192	5
BRTAP	96	240	5
BRTAP	96	288	5
BRTAP	96	336	5
NMTAP	97	0	3
NMTAP	97	0	4
NMTAP	97	96	2
NMTAP	97	96	3
NMTAP	97	144	1
NMTAP	97	240	4
NMTAP	97	240	5
NMTAP	97	288	6
NMTAP	98	0	1
NMTAP	98	0	3
NMTAP	98	48	0
NMTAP	98	144	4
NMTAP	98	144	6
BRTAP	98	192	7
BRTAP	98	240	7
BRTAP	98	288	7
BRTAP	98	336	7
NMTAP	99	0	0
NMTAP	99	0	6
NMTAP	99	96	6
NMTAP	99	96	7
NMTAP	99	144	5
NMTAP	99	240	0
NMTAP	99	240	1
NMTAP	99	288	2
NMTAP	100	0	6
NMTAP	100	0	7
NMTAP	100	48	5
NMTAP	100	144	0
NMTAP	100	144	1
BRTAP	100	192	2
BRTAP	100	240	2
BRTAP	100	288	2
BRTAP	100	336	2
NMTAP	101	0	4
NMTAP	101	24	3
NMTAP	101	48	4
NMTAP	101	72	3
NMTAP	101	96	4
NMTAP	101	120	3
NMTAP	101	144	4
NMTAP	101	168	3
NMTAP	101	192	5
NMTAP	101	216	2
NMTAP	101	240	5
NMTAP	101	264	2
NMTAP	101	288	5
NMTAP	101	312	2
NMSTR	101	336	5
BRSI_	101	336	5	96	96	1
CNSI_	102	144	1	0	48	7
CNSI_	102	192	7	0	96	4

T_REC_TAP	363
T_REC_BRK	29
T_REC_XTP	36
T_REC_BXX	8
T_REC_HLD	22
T_REC_XHO	12
T_REC_BHO	0
T_REC_BXH	0
T_REC_STR	24
T_REC_BST	2
T_REC_XST	11
T_REC_XBS	0
T_REC_TTP	17
T_REC_THO	1
T_REC_SLD	32
T_REC_BSL	6
T_REC_ALL	563
T_NUM_TAP	451
T_NUM_BRK	45
T_NUM_HLD	35
T_NUM_SLD	32
T_NUM_ALL	563
T_JUDGE_TAP	490
T_JUDGE_HLD	182
T_JUDGE_SLD	38
T_JUDGE_ALL	710
TTM_EACHPAIRS	146
TTM_SCR_TAP	225500
TTM_SCR_BRK	117000
TTM_SCR_HLD	35000
TTM_SCR_SLD	48000
TTM_SCR_ALL	425500
TTM_SCR_S	408400
TTM_SCR_SS	421000
TTM_RAT_ACV	10106

