VERSION	0.00.00	1.04.00
FES_MODE	0
BPM_DEF	190.000	190.000	190.000	190.000
MET_DEF	4	4
RESOLUTION	384
CLK_DEF	384
COMPATIBLE_CODE	MA2

BPM	0	0	190.000
MET	0	0	4	4

NMHLD	2	0	2	384
NMHLD	3	0	3	384
NMHLD	4	0	4	384
NMTAP	5	0	5
NMHLD	6	0	5	384
NMHLD	7	0	4	384
NMHLD	8	0	3	384
EXTAP	9	0	2
NMTAP	10	0	2
NMTAP	10	96	2
NMTAP	10	192	2
NMTAP	10	192	3
NMTAP	11	0	5
NMTAP	11	96	5
NMTAP	11	192	4
NMTAP	11	192	5
NMTAP	12	0	3
NMTAP	12	48	3
NMTAP	12	96	3
NMTAP	12	192	4
NMTAP	12	240	4
NMTAP	12	288	4
BRTAP	13	0	3
BRTAP	13	0	4
NMTAP	14	0	2
NMTAP	14	96	2
NMTAP	14	192	2
NMTAP	15	0	1
NMTAP	15	96	1
NMTAP	15	192	1
NMTAP	16	0	0
NMTAP	16	96	0
NMTAP	16	192	0
NMTAP	17	0	6
NMTAP	17	0	7
NMTAP	17	96	6
NMTAP	17	96	7
NMTAP	17	192	6
NMTAP	17	192	7
NMTAP	18	0	5
NMTAP	18	96	5
NMTAP	18	192	5
NMTAP	19	0	6
NMTAP	19	96	6
NMTAP	19	192	6
NMTAP	20	0	6
NMTAP	20	0	7
NMTAP	20	192	0
NMTAP	20	192	1
NMTAP	21	0	0
NMTAP	21	0	7
NMTAP	21	96	0
NMTAP	21	96	7
NMTAP	21	192	0
NMTAP	21	192	7
NMTTP	22	0	6	B	0	L1
NMTTP	22	96	5	B	0	L1
NMTTP	22	192	4	B	0	L1
NMTTP	23	0	1	B	0	L1
NMTTP	23	96	2	B	0	L1
NMTTP	23	192	3	B	0	L1
NMTTP	24	0	6	B	0	L1
NMTTP	24	96	5	B	0	L1
NMTTP	24	192	4	B	0	L1
NMTTP	24	288	3	B	0	L1
NMTTP	25	0	2	B	0	L1
NMTTP	25	96	1	B	0	L1
NMTTP	25	192	0	C	0	L1
NMTTP	26	0	4	B	0	L1
NMTTP	26	96	5	B	0	L1
NMTTP	26	192	6	B	0	L1
NMTTP	26	192	7	B	0	L1
NMTTP	27	0	3	B	0	L1
NMTTP	27	96	2	B	0	L1
NMTTP	27	192	0	B	0	L1
NMTTP	27	192	1	B	0	L1
NMTTP	28	0	5	B	0	L1
NMTTP	28	96	6	B	0	L1
NMTTP	28	192	7	B	0	L1
NMTTP	28	288	0	B	0	L1
NMTTP	29	0	1	B	0	L1
NMTTP	29	96	2	B	0	L1
NMTTP	29	192	3	B	0	L1
NMTTP	29	192	4	B	0	L1
NMSTR	30	0	1
NMSUR	30	0	1	96	480	4
NMSTR	32	0	6
NMSUL	32	0	6	96	480	3
NMSTR	34	0	1
NMSUR	34	0	1	96	480	4
NMSTR	36	0	6
NMSUL	36	0	6	96	480	3
NMHLD	38	0	1	384
NMHLD	39	0	0	384
NMHLD	40	0	7	384
NMTAP	41	0	6
NMHLD	42	0	6	384
NMHLD	43	0	7	384
NMHLD	44	0	0	384
NMTAP	45	0	1
NMHLD	46	0	2	192
NMTAP	46	192	3
NMTAP	47	0	2
NMTAP	47	96	2
NMTAP	47	192	1
NMTAP	47	192	3
NMHLD	48	0	5	192
NMTAP	48	192	4
NMTAP	49	0	5
NMTAP	49	96	5
NMTAP	49	192	4
NMTAP	49	192	6
NMTAP	50	0	6
NMTAP	50	0	7
NMTAP	50	192	6
NMTAP	50	192	7
NMTAP	51	0	0
NMTAP	51	0	1
NMTAP	51	192	0
NMTAP	51	192	1
NMTAP	52	0	7
NMTAP	52	96	7
NMTAP	52	192	0
NMTAP	52	288	0
BRTAP	53	0	0
BRTAP	53	0	7
NMTAP	54	0	6
NMTAP	54	0	7
NMTAP	54	96	6
NMTAP	54	96	7
NMTAP	54	192	0
NMTAP	54	192	5
NMTAP	55	0	4
NMTAP	55	0	5
NMTAP	55	96	4
NMTAP	55	96	5
NMTAP	55	192	3
NMTAP	55	192	6
NMTAP	56	0	2
NMTAP	56	0	3
NMTAP	56	96	2
NMTAP	56	96	3
NMTAP	56	192	1
NMTAP	56	192	4
NMTAP	57	0	0
NMTAP	57	0	1
NMTAP	57	96	0
NMTAP	57	96	1
NMTAP	57	192	2
NMTAP	57	192	7
NMTAP	58	0	1
NMTAP	58	96	2
NMTAP	58	192	3
NMTAP	58	288	4
NMTAP	59	0	5
NMTAP	59	96	6
NMTAP	59	192	0
NMTAP	59	192	7
NMTAP	60	0	0
NMTAP	60	48	0
NMTAP	60	96	0
NMTAP	60	192	7
NMTAP	60	240	7
NMTAP	60	288	7
BXTAP	61	0	0
BXTAP	61	0	7
EXTAP	62	0	1
EXTAP	62	0	6
EXTAP	62	96	1
EXTAP	62	96	6
EXTAP	62	192	1
EXTAP	62	192	6
NMTAP	63	0	2
NMTAP	63	96	2
NMTAP	63	192	1
NMTAP	63	288	1
NMTAP	64	0	0
NMTAP	64	96	0
NMTAP	64	192	6
NMTAP	64	192	7
NMTAP	65	0	5
NMTAP	65	96	5
NMTAP	65	192	6
NMTAP	65	288	6
NMTAP	66	0	7
NMTAP	66	96	7
NMTAP	66	192	0
NMTAP	66	192	1
NMTAP	67	0	1
NMTAP	67	96	1
NMTAP	67	192	2
NMTAP	67	288	2
NMTAP	68	0	3
NMTAP	68	96	3
NMTAP	68	192	4
NMTAP	68	192	5
NMTAP	69	0	6
NMTAP	69	96	6
NMTAP	69	192	5
NMTAP	69	288	5
NMHLD	70	0	3	192
NMHLD	70	0	4	192
NMTAP	71	0	5
NMTAP	71	48	5
NMTAP	71	96	5
NMTAP	71	192	6
NMTAP	71	240	6
NMTAP	71	288	6
NMTAP	72	0	7
NMTAP	72	48	7
NMTAP	72	96	7
NMTAP	72	192	0
NMTAP	72	192	1
NMTAP	73	0	2
NMTAP	73	48	2
NMTAP	73	96	2
NMTAP	73	192	1
NMTAP	73	240	1
NMTAP	73	288	1
NMTAP	74	0	0
NMTAP	74	48	0
NMTAP	74	96	0
NMTAP	74	192	6
NMTAP	74	192	7
NMTAP	75	0	6
NMTAP	75	48	6
NMTAP	75	96	6
NMTAP	75	192	5
NMTAP	75	240	5
NMTAP	75	288	5
NMTAP	76	0	4
NMTAP	76	48	4
NMTAP	76	96	4
NMTAP	76	192	2
NMTAP	76	192	3
NMTAP	77	0	1
NMTAP	77	48	1
NMTAP	77	96	1
NMTAP	77	192	2
NMTAP	77	240	2
NMTAP	77	288	2
NMHLD	78	0	3	192
NMHLD	78	0	4	192
NMTAP	79	0	5
NMTAP	79	96	5
NMTAP	79	192	4
NMTAP	79	192	5
NMTAP	79	288	4
NMTAP	79	288	5
NMTAP	80	0	6
NMTAP	80	96	6
NMTAP	80	192	6
NMTAP	80	192	7
NMTAP	80	288	6
NMTAP	80	288	7
NMTAP	81	0	0
NMTAP	81	96	0
NMTAP	81	192	0
NMTAP	81	192	1
NMTAP	81	288	0
NMTAP	81	288	1
NMTAP	82	0	2
NMTAP	82	0	3
NMTAP	82	96	2
NMTAP	82	96	3
NMTAP	82	192	1
NMTAP	82	192	4
NMTAP	83	0	2
NMTAP	83	96	2
NMTAP	83	192	2
NMTAP	83	192	3
NMTAP	83	288	2
NMTAP	83	288	3
NMTAP	84	0	1
NMTAP	84	96	1
NMTAP	84	192	0
NMTAP	84	192	1
NMTAP	84	288	0
NMTAP	84	288	1
NMTAP	85	0	7
NMTAP	85	96	7
NMTAP	85	192	6
NMTAP	85	192	7
NMTAP	85	288	6
NMTAP	85	288	7
NMTAP	86	0	4
NMTAP	86	0	5
NMTAP	86	96	4
NMTAP	86	96	5
NMTAP	86	192	3
NMTAP	86	192	6
NMTAP	87	0	5
NMTAP	87	48	5
NMTAP	87	96	5
NMTAP	87	192	4
NMTAP	87	192	5
NMTAP	87	288	4
NMTAP	87	288	5
NMTAP	88	0	6
NMTAP	88	48	6
NMTAP	88	96	6
NMTAP	88	192	6
NMTAP	88	192	7
NMTAP	88	288	6
NMTAP	88	288	7
NMTAP	89	0	0
NMTAP	89	48	0
NMTAP	89	96	0
NMTAP	89	192	0
NMTAP	89	192	1
NMTAP	89	288	0
NMTAP	89	288	1
NMTAP	90	0	2
NMTAP	90	0	3
NMTAP	90	96	2
NMTAP	90	96	3
NMTAP	90	192	1
NMTAP	90	192	4
NMTAP	91	0	2
NMTAP	91	48	2
NMTAP	91	96	2
NMTAP	91	192	2
NMTAP	91	192	3
NMTAP	91	288	2
NMTAP	91	288	3
NMTAP	92	0	1
NMTAP	92	48	1
NMTAP	92	96	1
NMTAP	92	192	0
NMTAP	92	192	1
NMTAP	92	288	0
NMTAP	92	288	1
NMTAP	93	0	7
NMTAP	93	48	7
NMTAP	93	96	7
NMTAP	93	192	6
NMTAP	93	192	7
NMTAP	93	288	6
NMTAP	93	288	7
NMTAP	94	0	4
NMTAP	94	0	5
NMTAP	94	96	4
NMTAP	94	96	5
NMTAP	94	192	3
NMTAP	94	192	6
NMTAP	95	0	4
NMTAP	95	96	5
NMTAP	95	192	6
NMTAP	95	288	7
NMTAP	96	0	0
NMTAP	96	96	1
NMTAP	96	192	2
NMTAP	96	192	3
NMTAP	97	0	3
NMTAP	97	96	2
NMTAP	97	192	1
NMTAP	97	288	0
NMTAP	98	0	7
NMTAP	98	96	6
NMTAP	98	192	4
NMTAP	98	192	5
NMTAP	99	0	6
NMTAP	99	96	5
NMTAP	99	192	4
NMTAP	99	288	3
NMTAP	100	0	2
NMTAP	100	96	1
NMTAP	100	192	0
NMTAP	100	192	7
NMTAP	101	0	0
NMTAP	101	0	7
NMTAP	101	96	0
NMTAP	101	96	7
NMTAP	101	192	1
NMTAP	101	192	6
NMTAP	101	288	1
NMTAP	101	288	6
NMTAP	102	0	2
NMTAP	102	0	5
NMTAP	102	96	2
NMTAP	102	96	5
NMTAP	102	192	3
NMTAP	102	192	4
BRTAP	102	288	3
BRTAP	102	288	4

T_REC_TAP	315
T_REC_BRK	6
T_REC_XTP	7
T_REC_BXX	2
T_REC_HLD	18
T_REC_XHO	0
T_REC_BHO	0
T_REC_BXH	0
T_REC_STR	4
T_REC_BST	0
T_REC_XST	0
T_REC_XBS	0
T_REC_TTP	29
T_REC_THO	0
T_REC_SLD	4
T_REC_BSL	0
T_REC_ALL	385
T_NUM_TAP	355
T_NUM_BRK	8
T_NUM_HLD	18
T_NUM_SLD	4
T_NUM_ALL	385
T_JUDGE_TAP	363
T_JUDGE_HLD	120
T_JUDGE_SLD	4
T_JUDGE_ALL	487
TTM_EACHPAIRS	90
TTM_SCR_TAP	177500
TTM_SCR_BRK	20800
TTM_SCR_HLD	18000
TTM_SCR_SLD	6000
TTM_SCR_ALL	222300
TTM_SCR_S	214900
TTM_SCR_SS	221500
TTM_RAT_ACV	10036

