VERSION	0.00.00	1.04.00
FES_MODE	0
BPM_DEF	157.000	157.000	157.000	157.000
MET_DEF	4	4
RESOLUTION	384
CLK_DEF	384
COMPATIBLE_CODE	MA2

BPM	0	0	157.000
MET	0	0	4	4

NMTHO	1	0	0	384	C	1	M1
NMTTP	1	0	1	A	0	M1
NMTTP	1	0	2	E	0	M1
NMTTP	1	0	2	A	0	M1
NMTTP	1	0	2	D	0	M1
BRSTR	2	0	0
NMSUL	2	0	0	96	288	7
CNSI_	3	0	7	0	120	5
CNSCL	3	120	5	0	264	2
NMHLD	4	0	6	528
NMTAP	4	288	0
NMTAP	4	336	0
NMHLD	5	0	0	144
NMTAP	5	288	1
NMTAP	5	288	5
NMTAP	6	0	3
NMHLD	6	96	2	72
NMTAP	6	96	4
NMHLD	6	168	3	72
NMTAP	6	240	1
NMTAP	6	288	2
NMTAP	6	288	4
NMTAP	7	0	4
NMTAP	7	48	4
NMTAP	7	96	3
NMHLD	7	96	5	72
NMHLD	7	168	4	72
NMTAP	7	240	6
NMTAP	7	288	3
NMTAP	7	288	5
NMTAP	8	0	2
NMTAP	8	48	2
NMHLD	8	96	1	72
NMTAP	8	96	3
NMHLD	8	168	4	72
NMTAP	8	240	3
NMSTR	8	288	2
NMSUL	8	288	2	96	192	5
NMTAP	8	288	3
NMTTP	9	0	3	B	0	M1
NMTTP	9	0	4	B	0	M1
NMTTP	9	0	4	E	1	M1
NMSTR	9	288	7
NMSCL	9	288	7	96	288	4
NMTTP	10	0	4	B	1	M1
NMTTP	10	96	3	E	0	M1
NMTTP	10	192	2	E	0	M1
NMSTR	10	288	0
NMSCR	10	288	0	96	288	3
NMTTP	11	0	3	B	0	M1
NMTTP	11	96	5	E	0	M1
NMTTP	11	192	6	E	0	M1
NMSTR	11	288	7
NMSCL	11	288	7	96	288	4
NMTTP	12	0	4	B	0	M1
NMTTP	12	96	3	E	0	M1
NMTTP	12	192	2	E	0	M1
NMHLD	12	288	0	192
NMTTP	13	0	2	B	0	M1
NMTTP	13	0	3	B	0	M1
NMTTP	13	0	3	E	0	M1
NMHLD	13	96	7	192
NMTTP	13	192	4	B	0	M1
NMTTP	13	192	5	B	0	M1
NMTTP	13	192	5	E	0	M1
NMTAP	13	288	2
NMTAP	14	0	1
NMTAP	14	0	4
NMTAP	14	48	2
NMTAP	14	96	2
NMTAP	14	96	6
NMTAP	14	144	5
NMTAP	14	192	2
NMTAP	14	192	4
NMTAP	14	240	3
NMTAP	14	288	3
NMTAP	14	288	7
NMTAP	14	336	6
NMTAP	15	0	1
NMTAP	15	0	5
NMTAP	15	48	2
NMTAP	15	96	2
NMTAP	15	96	6
NMTAP	15	144	5
NMTAP	15	192	2
NMTAP	15	192	4
NMTAP	15	240	3
NMTAP	15	288	3
NMTAP	15	288	6
NMTAP	15	336	5
NMTAP	16	0	1
NMTAP	16	0	4
NMTAP	16	48	1
NMTAP	16	96	6
NMTAP	16	144	6
NMTAP	16	192	0
NMTAP	16	216	7
NMTAP	16	240	0
NMTAP	16	264	7
NMSTR	16	288	0
NMSI_	16	288	0	96	48	4
NMTAP	16	312	7
NMTAP	16	336	0
BXHLD	17	0	6	480
EXHLD	18	0	4	96
NMHLD	18	144	3	96
NMHLD	18	144	4	96
NMHLD	18	288	1	576
NMSTR	18	288	3
NMSV_	18	288	3	96	96	1
CNSCL	19	96	1	0	96	6
CNSI_	19	192	6	0	48	4
CNSI_	19	240	4	0	48	2
BXHLD	20	0	3	96
NMTAP	20	144	1
NMTAP	20	144	3
NMTAP	20	240	4
NMTAP	20	264	4
NMSTR	20	288	3
BRSV_	20	288	3	96	96	1
NMHLD	21	0	6	288
CNSCL	21	96	1	0	96	6
CNSXR	21	192	6	0	96	4
NMTAP	22	0	4
NMSTR	22	0	6
NMSI_	22	0	6	96	96	3
NMSTR	22	96	3
NMSI_	22	96	3	96	96	0
NMSTR	22	192	0
NMSI_	22	192	0	96	96	5
NMSTR	22	288	5
NMSI_	22	288	5	96	96	2
NMSTR	23	0	2
NMSI_	23	0	2	96	96	7
NMSTR	23	96	7
NMSI_	23	96	7	96	96	4
NMTAP	23	192	4
EXTAP	23	288	7
NMTAP	24	0	0
NMTAP	24	24	6
NMTAP	24	48	0
NMTAP	24	72	6
NMTAP	24	96	1
NMTAP	24	120	5
NMTAP	24	144	1
NMTAP	24	168	5
NMTAP	24	192	2
NMTAP	24	216	4
NMTAP	24	240	3
NMTAP	24	264	5
NMTAP	24	288	1
NMTAP	24	312	4
NMTAP	24	336	3
NMTAP	24	360	6
BRHLD	25	0	0	192
NMSTR	25	192	7
NMSCR	25	192	7	96	48	2
NMSTR	25	288	3
NMSI_	25	288	3	96	48	0
EXTAP	26	0	3
EXTAP	26	0	4
EXHLD	26	96	1	72
EXTAP	26	96	7
NMTAP	26	168	6
NMTAP	26	192	4
NMHLD	26	216	5	48
NMTAP	26	264	2
NMTAP	26	288	3
NMHLD	26	312	1	48
NMTAP	26	360	4
NMTAP	27	0	3
NMHLD	27	24	6	48
NMTAP	27	72	4
NMTAP	27	96	5
NMHLD	27	120	0	48
NMTAP	27	168	3
NMTAP	27	192	2
NMHLD	27	216	6	48
NMTAP	27	264	4
NMSTR	27	288	4
NMSI_	27	288	4	96	48	7
NMTAP	27	336	3
EXTAP	28	0	2
EXTAP	28	0	4
EXHLD	28	96	0	72
EXTAP	28	96	6
NMTAP	28	168	3
NMTAP	28	192	2
NMHLD	28	216	6	48
NMTAP	28	264	4
NMTAP	28	288	5
NMHLD	28	312	1	48
NMTAP	28	360	3
NMTAP	29	0	2
NMHLD	29	24	7	48
NMTAP	29	72	3
NMTAP	29	96	5
NMHLD	29	120	0	48
NMTAP	29	168	4
NMTAP	29	192	2
NMHLD	29	216	6	48
BRTAP	29	264	0
BRTAP	29	288	0
BRTAP	29	336	1
BRTAP	29	336	7
NMTAP	30	0	6
NMTAP	30	24	4
NMTAP	30	48	5
NMTAP	30	72	3
NMTAP	30	96	4
NMTAP	30	120	1
NMTAP	30	144	4
NMTAP	30	168	1
NMSTR	30	192	3
NMSI_	30	192	3	96	48	7
NMTAP	30	216	2
NMTAP	30	240	4
NMTAP	30	264	1
NMTAP	30	288	3
NMTAP	31	0	0
NMTAP	31	24	6
NMTAP	31	48	1
NMTAP	31	72	5
NMTAP	31	96	1
NMTAP	31	120	4
NMTAP	31	144	2
NMTAP	31	168	5
NMSTR	31	192	3
NMSI_	31	192	3	96	48	7
NMTAP	31	240	2
NMTAP	31	240	4
BRSTR	31	288	1
BRSI_	31	288	1	96	96	5
NMTAP	31	288	3
EXHLD	32	0	7	288
CNSI_	32	96	5	0	48	2
CNSI_	32	144	2	0	48	4
CNSI_	32	192	4	0	96	0
NMTAP	33	0	7
NMTAP	33	48	0
NMTAP	33	48	6
NMHLD	33	96	1	72
NMTAP	33	96	5
NMHLD	33	168	3	72
NMHLD	33	240	5	72
NMTAP	33	312	4
NMTAP	33	336	4
BXHLD	34	0	2	96
BXTAP	34	0	6
NMTTP	34	96	5	A	1	M1
NMTTP	34	112	5	E	1	M1
NMTTP	34	128	4	E	1	M1
NMTTP	34	144	3	A	1	M1
BXSTR	34	192	0
NMSSL	34	192	0	96	96	4
BXTAP	34	192	1
BXTAP	35	24	0
BXTAP	35	72	1
BXTAP	35	72	7
BXTAP	35	96	1
BXTAP	35	96	7
BXTAP	35	144	2
BXTAP	35	144	6
BXSTR	35	192	3
NMSXR	35	192	3	96	144	3
BXTAP	35	192	5
NMSTR	35	288	6
NMSCL	35	288	6	96	48	3
EXTAP	36	0	6
EXTAP	36	96	1
EXHLD	36	96	4	72
NMTAP	36	168	2
NMTAP	36	192	3
NMHLD	36	216	0	48
NMTAP	36	264	5
NMTAP	36	288	4
NMHLD	36	312	6	48
NMTAP	36	360	3
NMTAP	37	0	4
NMHLD	37	24	0	48
NMTAP	37	72	3
NMTAP	37	96	1
NMHLD	37	120	7	48
NMTAP	37	168	4
NMTAP	37	192	5
NMHLD	37	216	1	48
BRTAP	37	264	0
BRTAP	37	288	2
BRTAP	37	288	7
NMTAP	38	0	3
NMTAP	38	0	5
NMTAP	38	24	3
NMTAP	38	48	6
NMHLD	38	96	1	48
NMTAP	38	96	4
NMTAP	38	144	6
NMTAP	38	192	3
NMTAP	38	192	5
NMTAP	38	216	3
NMTAP	38	240	6
NMHLD	38	288	0	48
NMTAP	38	288	4
NMTAP	38	336	6
NMTAP	39	0	3
NMTAP	39	0	5
NMTAP	39	24	3
NMTAP	39	48	6
NMHLD	39	96	1	48
NMTAP	39	96	4
NMTAP	39	144	5
NMSTR	39	192	2
NMSI_	39	192	2	96	48	4
NMTAP	39	192	4
NMTAP	39	240	1
NMTAP	39	240	5
NMTAP	39	288	2
NMTAP	39	288	4
BRTAP	40	0	6
NMTAP	40	24	3
NMTAP	40	48	6
NMTAP	40	72	3
NMTAP	40	96	5
NMTAP	40	120	2
NMTAP	40	144	4
NMTAP	40	168	1
NMTAP	40	192	3
NMTAP	40	216	0
NMTAP	40	240	3
NMTAP	40	264	0
NMTTP	40	288	4	E	0	M1
NMTTP	40	300	5	E	0	M1
NMTTP	40	312	6	E	0	M1
NMTTP	40	324	7	E	0	M1
NMTTP	40	336	0	E	0	M1
NMTTP	40	348	1	E	0	M1
NMTTP	40	360	2	E	0	M1
NMTTP	40	372	3	E	0	M1
NMTHO	41	0	0	192	C	0	M1
NMTTP	41	0	4	E	0	M1
NMSTR	41	192	7
NMSI_	41	192	7	96	48	3
NMTAP	41	240	6
BRSTR	41	288	1
BRSUR	41	288	1	96	384	2
EXTAP	41	288	7
CNSCR	43	0	2	0	384	0
NMHLD	44	0	4	288
NMHLD	44	288	2	96
NMHLD	45	0	3	144
NMHLD	45	144	4	144
NMSTR	45	288	5
NMSCL	45	288	5	96	288	7
NMTTP	46	0	3	B	0	M1
NMTTP	46	0	4	B	0	M1
NMTTP	46	0	4	E	0	M1
NMSTR	46	288	4
NMSCL	46	288	4	96	288	6
NMTTP	47	0	4	B	0	M1
NMTTP	47	0	5	B	0	M1
NMTTP	47	0	5	E	0	M1
NMSTR	47	288	3
NMSCL	47	288	3	96	288	5
NMTTP	48	0	5	B	0	M1
NMTTP	48	0	6	B	0	M1
NMTTP	48	0	6	E	0	M1
NMSTR	48	288	2
NMSXL	48	288	2	96	312	5
NMHLD	49	0	6	288
NMTAP	50	0	7
NMTAP	50	48	7
NMHLD	50	96	0	144
NMTAP	50	96	6
NMTAP	50	240	3
NMTAP	50	288	2
NMTAP	50	288	4
NMTAP	51	0	0
NMTAP	51	48	0
NMTAP	51	96	1
NMHLD	51	96	7	144
NMTAP	51	240	4
NMTAP	51	288	3
NMTAP	51	288	5
NMTAP	52	0	7
NMTAP	52	48	7
NMHLD	52	96	0	144
NMTAP	52	96	6
NMTAP	52	240	3
NMTAP	52	288	2
NMTAP	52	288	4
NMTAP	53	0	1
NMTAP	53	48	1
NMTAP	53	96	0
NMHLD	53	96	2	144
NMTAP	53	240	5
NMTAP	53	288	4
NMSTR	53	288	6
NMSCL	53	288	6	96	96	3
NMTAP	54	0	2
NMSTR	54	96	1
NMSI_	54	96	1	96	96	4
NMTAP	54	192	4
NMSTR	54	288	5
NMSCR	54	288	5	96	96	0
NMTAP	55	0	4
NMSTR	55	96	2
NMSI_	55	96	2	96	96	7
NMTAP	55	192	3
NMHLD	55	288	5	96
NMTAP	56	0	0
NMTAP	56	48	0
NMTAP	56	96	7
NMTAP	56	144	7
NMTAP	56	192	1
NMTAP	56	192	6
NMTAP	56	240	2
NMTAP	56	240	5
NMSTR	56	288	3
NMSCL	56	288	3	96	288	4
NMTAP	56	312	4
NMTAP	56	336	3
NMTAP	56	360	4
NMTTP	57	0	0	C	1	M1
NMSTR	58	0	3
NMSI_	58	0	3	96	48	1
NMTAP	58	48	3
NMSTR	58	96	6
NMSI_	58	96	6	96	48	4
NMTAP	58	144	6
NMSTR	58	192	3
NMSI_	58	192	3	96	48	1
NMTAP	58	240	3
NMSTR	58	288	5
NMSCR	58	288	5	96	96	1
NMTAP	58	336	5
EXTAP	59	0	1
CNSCL	59	96	1	0	96	5
EXTAP	59	96	3
NMHLD	59	192	2	96
NMTAP	59	288	4
NMTAP	59	336	5
NMSTR	60	0	6
NMSI_	60	0	6	96	48	4
NMTAP	60	48	6
NMSTR	60	96	3
NMSI_	60	96	3	96	48	1
NMTAP	60	144	3
NMSTR	60	192	6
NMSI_	60	192	6	96	48	4
NMTAP	60	240	6
NMSTR	60	288	2
NMSCL	60	288	2	96	96	6
NMTAP	60	336	2
EXTAP	61	0	6
EXTAP	61	96	4
CNSCR	61	96	6	0	96	2
NMTHO	61	192	0	96	C	0	M1
NMSTR	61	288	1
NMSCR	61	288	1	96	48	3
NMTAP	62	0	1
NMTAP	62	0	7
NMSTR	62	96	5
NMSCR	62	96	5	96	48	7
NMTAP	62	192	3
NMTAP	62	192	5
NMSTR	62	288	2
NMSI_	62	288	2	96	48	4
NMTAP	63	0	2
NMSTR	63	0	6
NMSI_	63	0	6	96	48	2
NMTAP	63	96	0
NMTAP	63	96	6
NMTAP	63	192	1
NMTAP	63	192	3
NMHLD	63	288	3	48
NMHLD	63	288	4	48
NMTAP	64	0	2
NMTAP	64	24	2
NMTAP	64	48	4
NMTAP	64	72	4
NMTAP	64	96	3
NMTAP	64	120	3
NMTAP	64	144	5
NMTAP	64	168	5
NMTAP	64	192	1
NMTAP	64	216	1
NMTAP	64	240	3
NMTAP	64	264	3
NMTAP	64	288	4
NMTAP	64	312	4
NMTAP	64	336	6
NMTAP	64	360	6
NMTHO	65	0	0	192	C	0	M1
NMTAP	65	144	0
NMSTR	65	192	7
NMSI_	65	192	7	96	48	3
NMTAP	65	288	0
NMTAP	65	288	7
NMSTR	66	0	2
NMSI_	66	0	2	96	72	4
BRHLD	66	0	4	360
CNSI_	66	168	4	0	72	1
CNSI_	66	240	1	0	72	5
CNSI_	66	312	5	0	72	0
EXHLD	67	0	5	288
NMTTP	67	96	0	B	0	M1
NMTTP	67	96	0	A	0	M1
NMTTP	67	96	1	B	0	M1
NMTTP	67	96	1	E	0	M1
NMTTP	67	96	1	A	0	M1
NMTTP	67	168	6	B	0	M1
NMTTP	67	168	6	A	0	M1
NMTTP	67	168	7	B	0	M1
NMTTP	67	168	7	E	0	M1
NMTTP	67	168	7	A	0	M1
NMTAP	67	240	4
NMSTR	67	288	4
BRSF_	67	288	4	96	48	0
EXTAP	68	0	4
NMTAP	68	96	2
NMTAP	68	96	6
NMTAP	68	168	5
NMTAP	68	192	4
NMSTR	68	216	7
NMSI_	68	216	7	96	48	5
NMTAP	68	264	2
NMTAP	68	288	2
NMSTR	68	312	7
NMSI_	68	312	7	96	48	1
NMTAP	68	360	4
NMTAP	69	0	4
NMSTR	69	24	7
NMSI_	69	24	7	96	48	3
NMTAP	69	72	3
NMTAP	69	96	3
NMTAP	69	120	7
NMTAP	69	168	2
NMTAP	69	192	2
EXTAP	69	240	1
EXTAP	69	240	3
BRTAP	69	288	0
BRTAP	69	288	4
BRTAP	69	336	0
BRTAP	69	336	4
NMTAP	70	0	1
NMTAP	70	24	3
NMTAP	70	48	2
NMTAP	70	72	4
NMTAP	70	96	3
NMTAP	70	120	5
NMTAP	70	144	2
NMTAP	70	168	6
NMSTR	70	192	4
NMSI_	70	192	4	96	48	0
NMTAP	70	216	5
NMTAP	70	240	3
NMTAP	70	264	6
NMTAP	70	288	4
NMTAP	71	0	7
NMTAP	71	24	1
NMTAP	71	48	6
NMTAP	71	72	2
NMTAP	71	96	4
NMTAP	71	120	2
NMTAP	71	144	5
NMTAP	71	168	1
NMSTR	71	192	4
NMSI_	71	192	4	96	48	0
NMTAP	71	240	3
NMTAP	71	240	5
NMTAP	71	288	4
BRSTR	71	288	6
BRSI_	71	288	6	96	96	2
EXHLD	72	0	0	288
CNSI_	72	96	2	0	48	5
CNSI_	72	144	5	0	48	3
CNSI_	72	192	3	0	96	7
NMTAP	73	0	0
NMTAP	73	24	6
NMTAP	73	48	0
NMTAP	73	72	6
NMTAP	73	96	0
NMTAP	73	120	6
NMTAP	73	144	0
NMTAP	73	168	6
NMTAP	73	192	1
NMTAP	73	204	2
NMTAP	73	216	3
NMTAP	73	228	4
NMTAP	73	240	5
NMTAP	73	252	6
NMTAP	73	264	7
NMTAP	73	276	0
BRHLD	73	288	1	96
BRSTR	73	288	5
BRSV_	73	288	5	96	48	0
EXTAP	74	0	5
NMTTP	74	96	2	A	1	M1
NMTTP	74	112	3	E	1	M1
NMTTP	74	128	4	E	1	M1
NMTTP	74	144	4	A	1	M1
BRTAP	74	192	6
BRSTR	74	192	7
BRSSR	74	192	7	96	96	3
BRTAP	75	24	7
BRTAP	75	72	0
BRTAP	75	72	6
BRTAP	75	96	0
BRTAP	75	96	6
BRTAP	75	144	1
BRTAP	75	144	5
BRTAP	75	192	2
BRSTR	75	192	4
NMSXL	75	192	4	96	144	4
NMSTR	75	288	1
BRSCR	75	288	1	96	48	4
EXTAP	76	0	1
NMTAP	76	96	3
NMTAP	76	96	6
NMTAP	76	168	2
NMTAP	76	192	3
NMSTR	76	216	1
NMSI_	76	216	1	96	48	7
NMTAP	76	264	5
NMTAP	76	288	5
NMSTR	76	312	1
NMSI_	76	312	1	96	48	3
NMTAP	76	360	4
NMTAP	77	0	4
NMSTR	77	24	1
NMSI_	77	24	1	96	48	5
NMTAP	77	72	0
NMTAP	77	96	0
NMTAP	77	120	1
NMTAP	77	168	7
NMSTR	77	192	7
BRSV_	77	192	7	96	48	2
BRSV_	77	192	7	96	48	4
NMTAP	77	240	0
NMTAP	77	240	6
BRTAP	77	288	7
NMTAP	78	0	1
NMTAP	78	0	5
NMTAP	78	24	5
NMTAP	78	48	0
NMTAP	78	96	3
NMHLD	78	96	6	48
NMTAP	78	144	1
NMTAP	78	192	2
NMTAP	78	192	4
NMTAP	78	216	4
NMTAP	78	240	1
NMTAP	78	288	3
NMHLD	78	288	5	48
NMTAP	78	336	1
NMTAP	79	0	2
NMTAP	79	0	4
NMTAP	79	24	4
NMTAP	79	48	1
NMTAP	79	96	3
NMHLD	79	96	7	48
NMTAP	79	144	1
NMTAP	79	192	3
NMSTR	79	192	6
NMSI_	79	192	6	96	48	3
NMTAP	79	240	2
NMTAP	79	240	7
NMTAP	79	288	3
NMTAP	79	288	6
NMTAP	80	0	1
NMTAP	80	24	0
NMTAP	80	48	1
NMTAP	80	72	0
NMTAP	80	96	2
NMTAP	80	120	7
NMTAP	80	144	2
NMTAP	80	168	7
NMTAP	80	192	3
NMTAP	80	204	4
NMTAP	80	216	5
NMTAP	80	228	6
NMTAP	80	240	7
NMTAP	80	252	0
NMTAP	80	264	1
NMTAP	80	276	2
NMTAP	80	288	3
NMTAP	80	300	4
NMTAP	80	312	5
NMTAP	80	324	6
NMTAP	80	336	7
NMTAP	80	348	0
NMTAP	80	360	1
NMTAP	80	372	2
NMSTR	81	0	3
NMSXR	81	0	3	96	144	0
NMSTR	81	0	7
NMSXR	81	0	7	96	144	4
NMSTR	81	288	1
BRSI_	81	288	1	96	48	6
NMSTR	81	288	5
BRSI_	81	288	5	96	48	2
BRTAP	82	0	1
BRTAP	82	0	5

T_REC_TAP	364
T_REC_BRK	24
T_REC_XTP	19
T_REC_BXX	10
T_REC_HLD	51
T_REC_XHO	7
T_REC_BHO	3
T_REC_BXH	3
T_REC_STR	60
T_REC_BST	7
T_REC_XST	0
T_REC_XBS	2
T_REC_TTP	59
T_REC_THO	4
T_REC_SLD	58
T_REC_BSL	12
T_REC_ALL	683
T_NUM_TAP	502
T_NUM_BRK	61
T_NUM_HLD	62
T_NUM_SLD	58
T_NUM_ALL	683
T_JUDGE_TAP	545
T_JUDGE_HLD	193
T_JUDGE_SLD	70
T_JUDGE_ALL	808
TTM_EACHPAIRS	91
TTM_SCR_TAP	251000
TTM_SCR_BRK	158600
TTM_SCR_HLD	62000
TTM_SCR_SLD	87000
TTM_SCR_ALL	558600
TTM_SCR_S	535950
TTM_SCR_SS	552500
TTM_RAT_ACV	10110

