VERSION	0.00.00	1.04.00
FES_MODE	0
BPM_DEF	157.000	157.000	157.000	157.000
MET_DEF	4	4
RESOLUTION	384
CLK_DEF	384
COMPATIBLE_CODE	MA2

BPM	0	0	157.000
MET	0	0	4	4

NMSTR	2	0	2
NMSUR	2	0	2	96	576	4
NMSTR	4	0	6
NMSCL	4	0	6	96	192	3
NMTAP	4	288	2
NMHLD	5	0	1	144
NMHLD	5	144	2	144
NMTAP	5	288	3
NMTAP	6	0	3
NMSTR	6	0	5
NMSUL	6	0	5	96	576	3
NMTAP	8	0	2
NMTAP	8	96	2
NMTAP	8	192	3
NMSTR	8	288	3
NMSCL	8	288	3	96	288	4
BRTAP	9	0	4
NMHLD	10	0	4	384
NMTTP	10	96	4	D	0	M1
NMTTP	10	192	3	E	0	M1
NMTTP	10	288	2	D	0	M1
NMHLD	11	0	2	384
NMTTP	11	96	4	E	0	M1
NMTTP	11	192	6	E	0	M1
NMTTP	11	288	0	E	0	M1
NMHLD	12	0	6	384
NMTTP	12	96	3	E	0	M1
NMTTP	12	192	5	E	0	M1
NMTTP	12	288	7	E	0	M1
NMHLD	13	0	0	384
NMTTP	13	96	2	E	0	M1
NMTTP	13	192	4	E	0	M1
NMTTP	13	288	6	E	0	M1
NMTAP	14	0	7
NMTAP	14	48	7
NMTAP	14	96	0
NMTAP	14	192	1
NMTAP	14	240	1
NMTAP	14	288	3
NMTAP	15	0	6
NMTAP	15	48	6
NMTAP	15	96	4
NMTAP	15	192	3
NMTAP	15	240	3
NMTAP	15	288	4
NMTAP	16	0	6
NMTAP	16	48	6
NMTAP	16	96	4
NMTAP	16	144	4
NMTAP	16	192	3
NMTAP	16	240	3
NMSTR	16	288	1
NMSI_	16	288	1	96	96	7
NMTAP	16	336	1
CNSI_	17	96	7	0	96	3
CNSI_	17	192	3	0	96	5
BRHLD	18	0	2	96
BRHLD	18	0	6	96
BRHLD	18	144	4	96
BRHLD	18	144	5	96
BRTAP	18	288	1
BRTAP	18	288	3
NMTAP	19	0	7
NMTAP	19	48	7
NMTAP	19	96	1
NMTAP	19	144	1
NMTAP	19	192	5
NMTAP	19	240	5
NMTAP	19	288	3
BRHLD	20	0	1	96
BRHLD	20	0	5	96
BRHLD	20	144	2	96
BRHLD	20	144	3	96
BRTAP	20	288	4
BRTAP	20	288	6
EXTAP	21	0	7
NMTAP	21	48	6
NMTAP	21	96	5
EXTAP	21	144	0
NMTAP	21	192	1
NMTAP	21	240	2
EXTAP	21	288	3
EXTAP	21	288	4
NMTAP	22	0	4
NMTAP	22	0	6
NMTAP	22	48	6
NMTAP	22	96	5
NMTAP	22	144	5
NMTAP	22	192	3
NMTAP	22	240	3
NMTAP	22	288	4
NMTAP	22	336	4
NMTAP	23	0	1
NMTAP	23	0	3
NMTAP	23	48	1
NMTAP	23	96	2
NMTAP	23	144	2
NMSTR	23	192	4
NMSI_	23	192	4	96	48	0
NMTAP	23	240	4
NMTAP	24	0	1
NMTAP	24	48	2
NMTAP	24	96	3
NMTAP	24	144	4
NMTAP	24	192	5
NMTAP	24	240	6
NMTAP	24	288	7
NMTTP	25	0	1	B	0	M1
NMTTP	25	0	2	B	0	M1
NMTTP	25	0	2	E	0	M1
NMTTP	25	96	5	B	0	M1
NMTTP	25	96	6	B	0	M1
NMTTP	25	96	6	E	0	M1
NMTTP	25	192	0	B	0	M1
NMTTP	25	192	0	E	1	M1
NMTTP	25	192	7	B	0	M1
EXSTR	26	0	2
NMSI_	26	0	2	96	48	4
EXTAP	26	0	4
NMSTR	26	96	6
NMSI_	26	96	6	96	48	4
NMSTR	26	192	1
NMSI_	26	192	1	96	48	4
NMSTR	26	288	7
NMSI_	26	288	7	96	48	4
NMSTR	27	0	1
NMSCR	27	0	1	96	48	4
NMSTR	27	96	7
NMSCL	27	96	7	96	48	4
NMSTR	27	192	0
NMSI_	27	192	0	96	48	4
NMTAP	27	288	7
EXTAP	28	0	3
EXSTR	28	0	5
NMSI_	28	0	5	96	48	3
NMSTR	28	96	1
NMSI_	28	96	1	96	48	3
NMSTR	28	192	6
NMSI_	28	192	6	96	48	3
NMSTR	28	288	0
NMSI_	28	288	0	96	48	3
NMSTR	29	0	6
NMSCL	29	0	6	96	48	3
NMSTR	29	96	0
NMSCR	29	96	0	96	48	3
NMTAP	29	192	7
EXTAP	29	288	0
EXTAP	29	288	6
EXTAP	29	336	0
EXTAP	29	336	6
NMTAP	30	0	1
NMTAP	30	0	5
NMTAP	30	96	3
NMTAP	30	144	3
NMTAP	30	192	2
NMTAP	30	240	3
NMTAP	30	288	1
NMTAP	30	288	4
NMTAP	31	0	2
NMTAP	31	0	6
NMTAP	31	96	4
NMTAP	31	144	4
NMTAP	31	192	5
NMTAP	31	240	4
NMTAP	31	288	3
NMTAP	31	288	6
NMTAP	32	0	1
NMTAP	32	0	5
NMHLD	32	96	3	72
NMHLD	32	168	4	72
NMHLD	32	240	5	72
NMHLD	32	312	6	72
NMTAP	33	0	7
NMTAP	33	48	7
NMSTR	33	96	0
NMSSL	33	96	0	96	144	4
NMTAP	33	96	6
BXTAP	34	0	5
BRSTR	34	0	6
NMSI_	34	0	6	96	48	2
BRSTR	34	192	0
NMSLR	34	192	0	96	96	4
BXTAP	34	192	4
EXTAP	35	24	6
EXTAP	35	72	6
EXTAP	35	96	7
EXTAP	35	144	7
BXTAP	35	192	1
BXTAP	35	192	5
EXSTR	36	0	2
NMSI_	36	0	2	96	48	4
EXTAP	36	0	4
NMSTR	36	96	6
NMSI_	36	96	6	96	48	4
NMSTR	36	192	1
NMSI_	36	192	1	96	48	4
NMSTR	36	288	7
NMSI_	36	288	7	96	48	4
NMSTR	37	0	1
NMSCR	37	0	1	96	48	4
NMSTR	37	96	7
NMSCL	37	96	7	96	48	4
NMTAP	37	192	0
EXTAP	37	288	1
EXTAP	37	288	7
EXTAP	37	336	1
EXTAP	37	336	7
NMTAP	38	0	2
NMTAP	38	0	6
NMTAP	38	96	4
NMTAP	38	144	4
NMTAP	38	192	5
NMTAP	38	240	4
NMTAP	38	288	3
NMTAP	38	288	6
NMTAP	39	0	1
NMTAP	39	48	1
NMTAP	39	96	3
NMTAP	39	144	3
NMTAP	39	192	2
NMTAP	39	240	3
NMTAP	39	288	1
NMTAP	39	288	4
NMTAP	40	0	6
NMTAP	40	48	6
NMTAP	40	96	4
NMTAP	40	144	4
NMTAP	40	192	3
NMTAP	40	240	3
NMTAP	40	288	1
NMTAP	40	336	1
BRSTR	41	0	7
NMSCL	41	0	7	96	240	0
NMTTP	42	0	0	C	1	M1
NMTTP	42	0	1	B	0	M1
NMTTP	42	0	2	B	0	M1
NMTTP	42	0	2	E	0	M1
NMTTP	42	0	5	B	0	M1
NMTTP	42	0	6	B	0	M1
NMTTP	42	0	6	E	0	M1
NMHLD	44	0	1	288
NMTAP	44	288	3
NMHLD	45	0	3	144
NMHLD	45	144	4	144
NMSTR	45	288	5
NMSCR	45	288	5	96	288	3
NMHLD	47	0	5	192
NMHLD	47	192	4	192
NMHLD	48	0	3	288
NMSTR	48	288	2
NMSCL	48	288	2	96	288	4
NMTAP	50	0	2
NMTAP	50	48	2
NMHLD	50	96	3	144
NMTAP	50	240	2
NMTAP	50	288	2
NMTAP	50	288	3
NMTAP	51	0	5
NMTAP	51	48	5
NMHLD	51	96	4	144
NMTAP	51	240	5
NMTAP	51	288	4
NMTAP	51	288	5
NMTAP	52	0	1
NMTAP	52	48	1
NMHLD	52	96	3	144
NMTAP	52	240	2
NMTAP	52	288	1
NMTAP	52	288	3
NMTAP	53	0	6
NMTAP	53	48	6
NMHLD	53	96	4	144
NMTAP	53	240	5
NMTAP	53	288	4
NMTAP	53	288	6
NMTAP	54	0	3
NMTAP	54	48	3
NMSTR	54	96	6
NMSI_	54	96	6	96	48	4
NMTAP	54	192	3
NMTAP	54	288	1
NMTAP	55	0	4
NMTAP	55	48	4
NMSTR	55	96	1
NMSI_	55	96	1	96	48	3
NMTAP	55	192	4
NMTAP	55	288	6
NMTAP	56	0	1
NMTAP	56	48	1
NMTAP	56	96	3
NMTAP	56	144	3
NMTAP	56	192	4
NMTAP	56	240	4
NMTAP	56	288	6
NMTAP	56	336	6
NMTHO	57	0	0	192	C	0	M1
NMSTR	58	0	7
NMSCL	58	0	7	96	96	4
NMTAP	58	96	0
NMSTR	58	192	1
NMSCL	58	192	1	96	96	6
NMTAP	58	288	2
NMSTR	59	0	3
NMSCL	59	0	3	96	96	0
NMTAP	59	96	4
NMTAP	59	192	5
NMTAP	59	288	6
NMTAP	59	288	7
NMSTR	60	0	0
NMSCR	60	0	0	96	96	3
NMTAP	60	96	7
NMSTR	60	192	6
NMSCR	60	192	6	96	96	1
NMTAP	60	288	5
NMSTR	61	0	4
NMSCR	61	0	4	96	96	7
NMTAP	61	96	3
NMSTR	61	192	2
BRSI_	61	192	2	96	48	6
EXTAP	62	0	0
NMTAP	62	48	0
EXTAP	62	96	1
NMTAP	62	144	1
EXTAP	62	192	2
NMTAP	62	240	2
EXTAP	62	288	3
NMTAP	62	336	3
EXTAP	63	0	4
NMTAP	63	48	4
EXTAP	63	96	5
NMTAP	63	144	5
EXTAP	63	192	6
NMTAP	63	240	6
EXHLD	63	288	0	48
EXHLD	63	288	7	48
EXTAP	64	0	0
EXTAP	64	0	7
NMTAP	64	48	0
NMTAP	64	48	7
EXTAP	64	96	1
EXTAP	64	96	6
NMTAP	64	144	1
NMTAP	64	144	6
EXTAP	64	192	2
EXTAP	64	192	5
NMTAP	64	240	2
NMTAP	64	240	5
EXSTR	64	288	3
NMSCL	64	288	3	96	96	0
EXSTR	64	288	4
NMSCR	64	288	4	96	96	7
NMTAP	64	336	3
NMTAP	64	336	4
NMSTR	65	192	1
BRSI_	65	192	1	96	48	5
NMSTR	65	192	6
BRSI_	65	192	6	96	48	2
EXTAP	66	0	0
EXTAP	66	0	7
EXHLD	66	96	1	48
EXHLD	66	96	3	48
EXHLD	66	168	2	48
EXHLD	66	168	4	48
EXHLD	66	240	3	48
EXHLD	66	240	5	48
EXHLD	66	312	4	48
EXHLD	66	312	6	48
EXTAP	67	0	3
EXTAP	67	0	7
NMHLD	67	96	4	48
NMHLD	67	96	6	48
NMHLD	67	168	3	48
NMHLD	67	168	5	48
NMHLD	67	240	2	48
NMHLD	67	240	4	48
NMHLD	67	312	1	48
NMHLD	67	312	3	48
BRTAP	68	0	0
BRTAP	68	0	4
NMSTR	68	96	6
NMSI_	68	96	6	96	48	3
NMSTR	68	192	2
NMSI_	68	192	2	96	48	5
NMSTR	68	288	7
NMSI_	68	288	7	96	48	4
NMSTR	69	0	1
NMSI_	69	0	1	96	48	4
NMSTR	69	96	0
NMSI_	69	96	0	96	48	3
NMSI_	69	96	0	96	48	5
EXTAP	69	288	1
EXTAP	69	288	7
EXTAP	69	336	1
EXTAP	69	336	7
BRTAP	70	0	2
BRTAP	70	0	6
NMTAP	70	96	5
NMTAP	70	144	5
NMTAP	70	192	4
NMTAP	70	240	7
NMTAP	70	288	0
NMTAP	70	288	6
EXTAP	71	0	1
EXTAP	71	0	5
NMTAP	71	96	2
NMTAP	71	144	2
NMTAP	71	192	3
NMTAP	71	240	0
NMTAP	71	288	1
NMTAP	71	288	7
NMTAP	72	0	2
NMTAP	72	0	6
NMHLD	72	96	4	72
NMHLD	72	168	3	72
NMHLD	72	240	2	72
NMHLD	72	312	1	72
NMTAP	73	0	0
NMTAP	73	48	0
NMTAP	73	96	1
NMSTR	73	96	7
NMSSR	73	96	7	96	144	3
BRSTR	74	0	1
NMSI_	74	0	1	96	48	5
BXTAP	74	0	2
BXTAP	74	192	3
BRSTR	74	192	7
NMSLL	74	192	7	96	96	3
EXTAP	75	24	1
EXTAP	75	72	1
EXTAP	75	96	0
EXTAP	75	144	0
BXTAP	75	192	2
BXTAP	75	192	6
EXTAP	76	0	3
EXTAP	76	0	4
NMSTR	76	96	1
NMSI_	76	96	1	96	48	4
NMSTR	76	192	5
NMSI_	76	192	5	96	48	2
NMSTR	76	288	0
NMSI_	76	288	0	96	48	3
NMSTR	77	0	6
NMSI_	77	0	6	96	48	3
NMSTR	77	96	7
NMSI_	77	96	7	96	48	2
NMSI_	77	96	7	96	48	4
BRSTR	77	288	0
NMSCR	77	288	0	96	48	3
BRSTR	77	288	6
NMSCL	77	288	6	96	48	3
EXTAP	78	96	1
EXTAP	78	96	5
NMTAP	78	192	6
NMTAP	78	192	7
NMTAP	78	240	0
NMTAP	78	240	7
NMTAP	78	288	0
NMTAP	78	288	1
NMTAP	79	0	4
NMTAP	79	0	6
NMTAP	79	48	4
NMTAP	79	48	6
NMTAP	79	96	3
NMTAP	79	96	5
NMTAP	79	144	3
NMTAP	79	144	5
NMTAP	79	192	2
NMTAP	79	192	4
NMTAP	79	240	2
NMTAP	79	240	4
EXTAP	79	288	1
EXTAP	79	288	3
NMTAP	80	0	6
NMTAP	80	0	7
NMTAP	80	48	6
NMTAP	80	48	7
NMTAP	80	96	0
NMTAP	80	96	1
NMTAP	80	144	0
NMTAP	80	144	1
NMTAP	80	192	7
NMTAP	80	216	0
NMTAP	80	240	7
NMTAP	80	264	0
EXTAP	80	288	7
NMSTR	81	0	0
NMSCL	81	0	0	96	48	5
NMSTR	81	0	1
NMSCR	81	0	1	96	48	4
NMSTR	81	192	6
NMSCL	81	192	6	96	48	3
NMSTR	81	192	7
NMSCR	81	192	7	96	48	2
BRTAP	82	0	0
BRTAP	82	0	7

T_REC_TAP	214
T_REC_BRK	11
T_REC_XTP	53
T_REC_BXX	8
T_REC_HLD	32
T_REC_XHO	10
T_REC_BHO	8
T_REC_BXH	0
T_REC_STR	51
T_REC_BST	7
T_REC_XST	5
T_REC_XBS	0
T_REC_TTP	28
T_REC_THO	1
T_REC_SLD	62
T_REC_BSL	3
T_REC_ALL	493
T_NUM_TAP	351
T_NUM_BRK	37
T_NUM_HLD	43
T_NUM_SLD	62
T_NUM_ALL	493
T_JUDGE_TAP	377
T_JUDGE_HLD	130
T_JUDGE_SLD	65
T_JUDGE_ALL	572
TTM_EACHPAIRS	86
TTM_SCR_TAP	175500
TTM_SCR_BRK	96200
TTM_SCR_HLD	43000
TTM_SCR_SLD	93000
TTM_SCR_ALL	407700
TTM_SCR_S	391900
TTM_SCR_SS	404000
TTM_RAT_ACV	10091

