VERSION	0.00.00	1.04.00
FES_MODE	0
BPM_DEF	190.000	190.000	190.000	190.000
MET_DEF	4	4
RESOLUTION	384
CLK_DEF	384
COMPATIBLE_CODE	MA2

BPM	0	0	190.000
MET	0	0	4	4

NMSTR	2	0	2
NMSCR	2	0	2	96	96	4
NMTAP	2	192	5
NMSTR	3	0	5
NMSCL	3	0	5	96	96	3
NMTAP	3	192	2
NMSTR	4	0	2
NMSCR	4	0	2	96	96	4
NMTAP	4	192	5
NMTAP	5	0	4
NMTAP	5	96	3
NMTAP	5	192	2
NMSTR	6	0	0
NMSCR	6	0	0	96	96	3
NMTAP	6	192	5
NMSTR	7	0	7
NMSCL	7	0	7	96	96	4
NMTAP	7	192	2
NMSTR	8	0	0
NMSI_	8	0	0	96	96	2
NMSTR	8	192	7
NMSI_	8	192	7	96	96	5
NMSTR	9	0	0
NMSI_	9	0	0	96	96	4
NMSTR	9	192	7
NMSI_	9	192	7	96	96	3
NMHLD	10	0	0	192
NMTTP	10	96	2	E	0	M1
NMHLD	10	192	7	192
NMTTP	10	288	6	E	0	M1
NMHLD	11	0	1	192
NMTTP	11	96	3	E	0	M1
NMHLD	11	192	6	192
NMTTP	11	288	5	E	0	M1
EXTAP	12	0	1
NMTAP	12	64	1
EXTAP	12	96	3
NMTAP	12	160	3
EXTAP	12	192	4
NMTAP	12	256	4
EXTAP	12	288	6
NMTAP	12	352	6
EXTAP	13	0	1
NMTAP	13	32	2
NMTAP	13	64	3
EXTAP	13	96	4
NMTAP	13	128	5
NMTAP	13	160	6
EXSTR	13	192	7
NMSI_	13	192	7	96	48	3
BRTAP	13	288	0
BRTAP	13	288	7
NMTAP	14	0	2
NMTAP	14	0	4
NMTAP	14	96	0
NMTAP	14	96	7
NMTAP	14	160	5
NMTAP	14	192	4
NMTAP	14	256	7
NMSTR	14	288	0
NMSI_	14	288	0	96	48	2
NMSTR	15	0	0
NMSI_	15	0	0	96	48	6
NMSTR	15	96	0
NMSI_	15	96	0	96	48	4
NMTAP	15	192	0
NMTAP	15	288	5
NMTAP	16	0	2
NMTAP	16	0	4
NMTAP	16	96	0
NMTAP	16	96	7
NMTAP	16	160	4
NMTAP	16	192	5
NMTAP	16	256	0
NMTAP	16	288	7
NMTAP	16	352	2
NMSTR	17	0	3
NMSI_	17	0	3	96	48	7
NMTAP	17	96	0
NMSTR	17	192	4
NMSI_	17	192	4	96	48	0
NMTAP	17	192	5
BRTAP	17	288	7
NMTAP	18	0	2
NMTAP	18	0	3
NMTAP	18	96	0
NMTAP	18	96	7
NMTAP	18	160	5
NMTAP	18	192	4
NMTAP	18	256	6
NMSTR	18	288	7
NMSI_	18	288	7	96	48	1
NMSTR	19	0	7
NMSI_	19	0	7	96	48	5
NMSTR	19	96	7
NMSI_	19	96	7	96	48	3
NMTAP	19	192	7
NMTAP	19	288	5
EXTAP	19	352	0
EXSTR	19	352	7
NMSUL	19	352	7	96	48	3
NMTAP	20	64	1
NMTAP	20	96	1
NMSTR	20	160	0
NMSUR	20	160	0	96	48	4
NMTAP	20	192	0
NMTAP	20	256	5
NMTAP	20	288	5
NMSTR	20	352	6
NMSUL	20	352	6	96	48	2
NMTAP	21	0	6
NMTAP	21	64	1
NMTAP	21	96	1
NMTAP	21	160	0
NMHLD	21	192	0	96
NMTAP	21	256	7
BRTAP	21	288	7
NMTAP	22	0	4
NMTAP	22	0	5
NMTAP	22	96	2
NMTAP	22	96	3
NMTAP	22	192	0
NMTAP	22	224	1
NMTAP	22	256	2
NMSTR	22	288	0
NMSCR	22	288	0	96	48	3
NMTAP	22	320	7
NMTAP	22	352	6
NMSTR	23	0	0
NMSCL	23	0	0	96	48	5
NMSTR	23	96	0
NMSI_	23	96	0	96	48	4
NMTAP	23	192	0
NMTAP	23	288	5
NMTAP	24	0	2
NMTAP	24	0	3
NMTAP	24	96	4
NMTAP	24	96	5
EXTAP	24	192	6
EXTAP	24	192	7
EXTAP	24	256	0
EXTAP	24	256	5
EXTAP	24	320	1
EXTAP	24	320	4
EXTAP	25	0	2
NMSTR	25	0	3
NMSI_	25	0	3	96	48	6
NMTAP	25	96	7
NMSTR	25	192	4
NMSI_	25	192	4	96	48	1
NMTAP	25	192	5
BRTAP	25	288	0
EXTAP	26	0	1
EXTAP	26	0	7
NMTAP	26	96	2
NMTAP	26	96	3
NMTAP	26	192	4
NMTAP	26	224	5
NMTAP	26	256	6
NMSTR	26	288	4
NMSCR	26	288	4	96	48	7
NMTAP	26	320	3
NMTAP	26	352	2
NMSTR	27	0	4
NMSCL	27	0	4	96	48	1
NMSTR	27	96	4
NMSI_	27	96	4	96	48	0
NMTAP	27	192	4
NMTAP	27	288	1
NMTAP	27	352	1
NMTAP	27	352	7
NMSTR	28	64	0
NMSLR	28	64	0	96	48	4
NMTAP	28	96	0
NMTAP	28	160	6
NMTAP	28	192	6
NMSTR	28	256	7
NMSLL	28	256	7	96	48	3
NMTAP	28	288	7
NMTAP	28	352	2
NMTAP	29	0	2
NMSTR	29	64	1
NMSLR	29	64	1	96	48	5
NMTAP	29	96	1
NMTAP	29	160	6
NMTAP	29	192	6
NMSTR	29	256	7
BRSI_	29	256	7	96	48	3
BRSTR	29	352	2
BRSCL	29	352	2	96	416	3
BRTAP	29	352	7
NMTTP	29	368	0	C	1	M1
NMSTR	31	256	0
BRSI_	31	256	0	96	48	4
BRTAP	31	352	0
BRHLD	31	352	5	320
EXTAP	32	96	4
EXTAP	32	192	4
EXTAP	32	288	4
EXTAP	33	0	6
EXTAP	33	32	4
EXTAP	33	64	5
EXTAP	33	96	1
EXTAP	33	128	3
EXTAP	33	160	2
EXTAP	33	192	3
EXTAP	33	192	4
NMTTP	33	288	4	E	0	M1
NMTAP	34	0	6
NMTAP	34	64	6
NMTAP	34	96	4
NMTAP	34	160	4
NMTAP	34	192	5
NMTTP	34	288	2	E	0	M1
NMTAP	35	0	1
NMTAP	35	64	1
NMTAP	35	96	3
NMTAP	35	160	3
NMTAP	35	192	2
NMTTP	35	288	6	E	0	M1
NMTAP	36	0	6
NMTAP	36	64	6
NMTAP	36	96	4
NMTAP	36	160	4
NMTAP	36	192	5
NMTTP	36	288	2	B	0	M1
NMTTP	36	288	2	E	0	M1
NMTAP	37	0	1
NMTAP	37	64	1
NMTAP	37	96	3
NMTAP	37	160	3
NMTAP	37	192	2
NMTAP	37	288	3
NMTAP	37	288	4
NMTAP	38	0	5
NMTAP	38	64	5
NMTAP	38	96	4
NMTAP	38	160	4
NMTAP	38	192	7
NMTAP	38	288	0
NMTAP	38	288	6
NMTAP	39	0	1
NMTAP	39	64	1
NMTAP	39	96	3
NMTAP	39	160	3
NMTAP	39	192	2
NMTAP	39	288	2
NMTAP	39	288	4
NMTTP	40	0	0	B	0	M1
NMTTP	40	0	1	B	0	M1
NMTTP	40	0	1	E	0	M1
BXTAP	40	0	5
BXTAP	40	192	2
NMTTP	40	192	6	B	0	M1
NMTTP	40	192	7	B	0	M1
NMTTP	40	192	7	E	0	M1
BXTAP	41	0	0
NMTTP	41	0	3	B	0	M1
NMTTP	41	0	4	B	0	M1
NMTTP	41	0	4	E	0	M1
BXTAP	41	192	1
BXTAP	41	192	6
BXTAP	42	0	0
BXTAP	42	0	1
NMTAP	42	64	1
NMTAP	42	96	2
NMTAP	42	160	2
NMTAP	42	192	3
NMTAP	42	288	4
NMTAP	42	288	5
NMTAP	43	0	6
NMTAP	43	64	6
NMTAP	43	96	5
NMTAP	43	160	5
NMTAP	43	192	4
NMTAP	43	288	3
NMTAP	43	288	5
NMTAP	44	0	2
NMTAP	44	64	2
NMTAP	44	96	1
NMTAP	44	160	1
NMTAP	44	192	0
NMTAP	44	288	0
NMTAP	44	288	6
NMTAP	45	0	5
NMTAP	45	64	5
NMTAP	45	96	6
NMTAP	45	160	6
NMTAP	45	192	7
NMTAP	45	288	0
NMTAP	45	288	7
NMTAP	46	0	1
NMTAP	46	64	1
NMTAP	46	96	2
NMTAP	46	160	2
NMTAP	46	192	3
NMTAP	46	256	3
NMTAP	46	288	4
NMTAP	46	352	4
NMTAP	47	0	5
NMTAP	47	64	5
NMTAP	47	96	6
NMTAP	47	160	6
NMHLD	47	192	7	96
NMTAP	47	288	6
EXTAP	47	352	0
EXTAP	47	352	5
EXTAP	48	0	0
EXTAP	48	0	5
EXTAP	48	64	1
EXTAP	48	64	4
EXTAP	48	128	2
EXTAP	48	128	3
EXTAP	48	192	0
EXTAP	48	192	1
EXTAP	48	256	0
EXTAP	48	256	7
EXTAP	48	320	6
EXTAP	48	320	7
EXTAP	49	0	4
EXTAP	49	0	5
EXTAP	49	64	3
EXTAP	49	64	4
EXTAP	49	128	2
EXTAP	49	128	3
EXTAP	49	192	0
NMTTP	49	192	0	C	1	M1
NMHLD	50	0	6	64
NMHLD	50	0	7	64
NMHLD	50	96	4	64
NMHLD	50	96	5	64
NMHLD	50	192	2	32
NMHLD	50	192	3	32
NMHLD	50	256	1	32
NMHLD	50	256	4	32
NMHLD	50	320	0	32
NMHLD	50	320	5	32
NMSTR	51	0	6
NMSI_	51	0	6	96	48	2
NMTAP	51	0	7
NMSTR	51	96	0
BRSI_	51	96	0	96	48	4
NMTAP	51	96	6
NMTAP	51	192	0
CNSI_	51	240	4	0	48	0
EXHLD	52	0	0	64
NMHLD	52	0	1	64
NMHLD	52	96	2	64
NMHLD	52	96	3	64
NMHLD	52	192	4	32
NMHLD	52	192	5	32
NMHLD	52	256	3	32
NMHLD	52	256	6	32
NMHLD	52	320	2	32
NMHLD	52	320	7	32
NMSTR	53	0	0
NMSI_	53	0	0	96	48	5
NMTAP	53	0	1
NMSTR	53	96	0
NMSI_	53	96	0	96	48	3
NMTAP	53	192	0
EXTAP	53	288	7
EXTAP	53	320	7
EXTAP	53	352	7
EXTAP	54	0	1
EXHLD	54	32	1	64
EXTAP	54	96	0
NMHLD	54	192	2	32
NMHLD	54	192	4	32
NMHLD	54	256	3	32
NMHLD	54	256	5	32
NMHLD	54	320	4	32
NMHLD	54	320	6	32
NMSTR	55	0	5
NMSI_	55	0	5	96	48	1
NMTAP	55	0	7
NMTAP	55	96	5
NMSTR	55	96	7
BRSI_	55	96	7	96	48	3
NMTAP	55	192	7
CNSI_	55	240	3	0	48	7
NMHLD	56	0	2	64
NMHLD	56	0	6	64
NMHLD	56	96	2	64
NMHLD	56	96	6	64
NMHLD	56	192	1	32
NMHLD	56	192	5	32
NMHLD	56	256	0	32
NMHLD	56	256	4	32
NMHLD	56	320	3	32
NMHLD	56	320	7	32
NMTAP	57	0	6
NMTAP	57	32	6
NMTAP	57	64	6
NMTAP	57	96	4
NMTAP	57	128	4
NMTAP	57	160	4
NMTAP	57	192	2
NMTAP	57	224	2
NMTAP	57	256	2
BRTAP	57	288	0
NMHLD	58	0	0	64
NMHLD	58	0	7	64
NMHLD	58	96	4	64
NMHLD	58	96	5	64
NMHLD	58	192	1	32
NMHLD	58	192	3	32
NMHLD	58	256	5	32
NMHLD	58	256	7	32
NMHLD	58	320	0	32
NMHLD	58	320	1	32
NMSTR	59	0	6
NMSI_	59	0	6	96	48	2
NMTAP	59	0	7
NMSTR	59	96	0
BRSI_	59	96	0	96	48	4
NMTAP	59	96	6
NMTAP	59	192	0
CNSI_	59	240	4	0	48	0
EXHLD	60	0	0	64
NMHLD	60	0	7	64
NMHLD	60	96	2	64
NMHLD	60	96	3	64
NMHLD	60	192	4	32
NMHLD	60	192	6	32
NMHLD	60	256	0	32
NMHLD	60	256	2	32
NMHLD	60	320	6	32
NMHLD	60	320	7	32
NMTAP	61	0	0
NMSTR	61	0	1
NMSXL	61	0	1	96	48	3
NMTAP	61	96	1
NMSTR	61	96	7
NMSXR	61	96	7	96	48	5
NMTAP	61	192	1
NMTAP	61	192	7
EXTAP	61	288	0
EXTAP	61	320	0
EXTAP	61	352	0
NMTAP	62	0	6
NMHLD	62	32	6	64
NMTAP	62	96	7
NMHLD	62	192	3	32
NMHLD	62	192	5	32
NMHLD	62	256	1	32
NMHLD	62	256	3	32
NMHLD	62	320	5	32
NMHLD	62	320	6	32
NMTAP	63	0	0
NMSTR	63	0	1
NMSI_	63	0	1	96	48	5
NMTAP	63	96	1
NMSTR	63	96	7
BRSI_	63	96	7	96	48	3
NMTAP	63	192	7
CNSI_	63	240	3	0	48	7
NMSTR	64	0	3
NMSCL	64	0	3	96	48	0
EXSTR	64	0	7
NMSCL	64	0	7	96	48	4
NMSTR	64	192	0
NMSCR	64	192	0	96	48	3
NMSTR	64	192	4
NMSCR	64	192	4	96	48	7
EXTAP	65	0	3
EXTAP	65	0	7
EXTAP	65	32	3
EXTAP	65	32	7
EXTAP	65	64	3
EXTAP	65	64	7
EXTAP	65	96	2
EXTAP	65	96	6
EXTAP	65	128	2
EXTAP	65	128	6
EXTAP	65	160	2
EXTAP	65	160	6
EXSTR	65	192	1
NMSI_	65	192	1	96	48	6
EXSTR	65	192	5
NMSI_	65	192	5	96	48	2
BRSTR	66	0	0
NMSLR	66	0	0	96	384	4
BRTAP	66	0	4
CNSCR	67	96	4	0	288	7
CNSUR	68	0	7	0	576	2
NMSTR	70	0	2
NMSI_	70	0	2	96	96	5
CNSCR	70	192	5	0	192	1
NMSTR	71	0	5
NMSI_	71	0	5	96	96	2
CNSCL	71	192	2	0	192	6
NMSTR	72	0	1
NMSCR	72	0	1	96	96	3
NMSTR	72	192	6
NMSCL	72	192	6	96	96	4
NMHLD	73	0	3	192
NMTAP	73	192	4
NMTTP	74	0	0	C	0	M1
NMTTP	74	0	1	E	0	M1
NMTTP	74	96	0	C	0	M1
NMTTP	74	96	2	E	0	M1
NMTTP	74	192	0	C	0	M1
NMTTP	74	192	3	E	0	M1
NMTTP	74	288	0	C	0	M1
NMTTP	74	288	4	E	0	M1
NMTTP	75	0	0	C	0	M1
NMTTP	75	0	7	E	0	M1
NMTTP	75	96	0	C	0	M1
NMTTP	75	96	6	E	0	M1
NMTTP	75	192	0	C	0	M1
NMTTP	75	192	5	E	0	M1
NMTTP	75	288	0	C	0	M1
NMTTP	75	288	4	E	0	M1
NMTTP	76	0	0	C	0	M1
NMTTP	76	0	1	E	0	M1
NMTTP	76	0	1	D	0	M1
NMTTP	76	96	0	C	0	M1
NMTTP	76	96	2	E	0	M1
NMTTP	76	96	2	D	0	M1
NMTTP	76	192	0	C	0	M1
NMTTP	76	192	3	E	0	M1
NMTTP	76	192	3	D	0	M1
NMTTP	76	288	0	C	0	M1
NMTTP	76	288	4	E	0	M1
NMTTP	76	288	4	D	0	M1
NMTTP	77	0	0	C	0	M1
NMTTP	77	0	6	E	0	M1
NMTTP	77	0	6	D	0	M1
NMTTP	77	96	0	C	0	M1
NMTTP	77	96	5	E	0	M1
NMTTP	77	96	5	D	0	M1
NMTTP	77	192	0	C	0	M1
NMTTP	77	192	4	E	0	M1
NMTTP	77	192	4	D	0	M1
NMTAP	77	288	0
NMTAP	77	288	7
NMHLD	78	0	1	1344
NMHLD	78	0	6	96
NMHLD	78	192	5	96
NMSTR	79	0	4
NMSI_	79	0	4	96	160	6
CNSI_	79	256	6	0	160	2
CNSI_	80	32	2	0	160	0
EXSTR	80	288	0
NMSI_	80	288	0	96	48	2
CNSI_	81	48	2	0	96	6
CNSI_	81	144	6	0	48	4
BRTAP	81	288	0
BRTAP	81	288	4
NMHLD	82	0	2	64
NMHLD	82	0	3	64
NMHLD	82	96	4	64
NMHLD	82	96	5	64
NMTAP	82	192	6
NMTAP	82	192	7
NMTAP	82	256	4
NMTAP	82	256	5
NMTAP	82	320	2
NMTAP	82	320	3
NMSTR	83	0	0
NMSI_	83	0	0	96	48	5
NMSI_	83	0	0	96	48	6
NMTAP	83	0	1
NMSTR	83	96	0
NMSI_	83	96	0	96	48	2
NMSI_	83	96	0	96	48	3
NMSTR	83	192	0
NMSF_	83	192	0	96	48	4
NMTAP	83	288	0
EXHLD	84	0	4	64
EXHLD	84	0	5	64
NMHLD	84	96	2	64
NMHLD	84	96	3	64
NMTAP	84	192	0
NMTAP	84	192	1
NMTAP	84	256	2
NMTAP	84	256	3
NMTAP	84	320	4
NMTAP	84	320	5
NMSTR	85	0	6
NMSI_	85	0	6	96	48	3
NMSTR	85	0	7
NMSI_	85	0	7	96	48	2
NMSTR	85	192	4
NMSUL	85	192	4	96	48	0
NMTAP	85	192	5
BRTAP	85	288	7
NMHLD	86	0	2	64
NMHLD	86	0	3	64
NMHLD	86	96	0	64
NMHLD	86	96	7	64
NMTAP	86	192	4
NMTAP	86	192	5
NMTAP	86	256	6
NMTAP	86	256	7
NMTAP	86	320	0
NMTAP	86	320	1
NMTAP	87	0	2
NMSTR	87	0	3
NMSI_	87	0	3	96	48	1
NMSI_	87	0	3	96	48	5
NMSTR	87	96	3
NMSI_	87	96	3	96	48	7
NMTAP	87	192	3
NMTAP	87	288	1
NMTAP	87	352	0
NMTAP	87	352	6
NMSTR	88	64	7
NMSCL	88	64	7	96	96	3
NMTAP	88	96	7
NMSTR	88	160	3
NMSCL	88	160	3	96	96	7
NMSTR	88	256	7
NMSCL	88	256	7	96	224	7
NMTTP	88	352	0	C	1	M1
BRTAP	89	288	6
BRTAP	89	288	7
NMSTR	90	0	5
NMSI_	90	0	5	96	48	0
NMTAP	90	64	5
NMSTR	90	96	1
NMSI_	90	96	1	96	48	4
NMTAP	90	160	1
NMSTR	90	192	6
NMSI_	90	192	6	96	48	3
NMTAP	90	256	6
NMSTR	90	288	2
NMSI_	90	288	2	96	48	7
NMTAP	90	352	2
NMSTR	91	0	4
NMSI_	91	0	4	96	48	7
NMTAP	91	64	4
NMSTR	91	96	0
NMSI_	91	96	0	96	48	3
NMTAP	91	160	0
NMTAP	91	192	5
NMTAP	91	256	6
NMTAP	91	288	4
NMTAP	91	288	6
NMSTR	92	0	2
NMSI_	92	0	2	96	48	7
NMTAP	92	64	2
NMSTR	92	96	6
NMSI_	92	96	6	96	48	3
NMTAP	92	160	6
NMSTR	92	192	1
NMSI_	92	192	1	96	48	4
NMTAP	92	256	1
NMSTR	92	288	5
NMSI_	92	288	5	96	48	0
NMTAP	92	352	5
NMSTR	93	0	3
NMSI_	93	0	3	96	48	0
NMTAP	93	64	3
NMSTR	93	96	7
NMSI_	93	96	7	96	48	4
NMTAP	93	160	7
NMSTR	93	192	2
NMSI_	93	192	2	96	48	0
NMTAP	93	256	2
BRTAP	93	288	7
NMSTR	94	0	6
NMSI_	94	0	6	96	48	2
NMTAP	94	64	6
NMSTR	94	96	1
NMSI_	94	96	1	96	48	5
NMTAP	94	160	1
NMSTR	94	192	7
NMSI_	94	192	7	96	48	3
NMTAP	94	256	7
NMSTR	94	288	0
NMSI_	94	288	0	96	48	4
NMTAP	94	352	0
NMTAP	95	0	5
NMTAP	95	64	5
NMTAP	95	96	3
NMTAP	95	160	2
NMTAP	95	160	6
NMSTR	95	256	1
NMSCR	95	256	1	96	48	4
NMTAP	95	288	0
NMTAP	95	352	1
NMTAP	95	352	7
NMSTR	96	64	6
NMSCL	96	64	6	96	48	3
NMTAP	96	96	7
NMTAP	96	160	0
NMTAP	96	160	6
NMSTR	96	256	2
NMSCL	96	256	2	96	48	7
NMTAP	96	288	3
NMTAP	96	352	2
NMTAP	96	352	4
NMSTR	97	64	5
NMSCR	97	64	5	96	48	0
NMTAP	97	96	4
NMTAP	97	160	3
NMTAP	97	160	5
NMTAP	97	256	1
BRTAP	97	288	0
BRTAP	97	288	1
NMSTR	98	0	2
NMSI_	98	0	2	96	48	7
NMSTR	98	0	3
NMSI_	98	0	3	96	48	7
NMTAP	98	96	2
NMTAP	98	96	3
NMSTR	98	192	4
NMSI_	98	192	4	96	48	0
NMSTR	98	192	5
NMSI_	98	192	5	96	48	0
NMTAP	98	288	4
NMTAP	98	288	5
NMSTR	99	0	3
NMSI_	99	0	3	96	48	1
NMSTR	99	0	4
NMSI_	99	0	4	96	48	6
NMSTR	99	96	3
NMSI_	99	96	3	96	48	7
NMSTR	99	96	4
NMSI_	99	96	4	96	48	0
NMTAP	99	192	3
NMTAP	99	192	4
BXTAP	99	288	1
BXTAP	99	288	6
NMTAP	100	0	3
NMTAP	100	0	4
NMSTR	100	64	1
NMSI_	100	64	1	96	48	3
NMSTR	100	96	0
NMSI_	100	96	0	96	48	4
NMTAP	100	160	1
NMTAP	100	192	0
NMSTR	100	256	7
NMSI_	100	256	7	96	48	3
NMSTR	100	288	6
NMSI_	100	288	6	96	48	4
NMTAP	100	352	7
NMTAP	101	0	6
NMSTR	101	64	0
NMSCL	101	64	0	96	128	1
NMTAP	101	96	7
NMTAP	101	160	0
NMTAP	101	256	7
BRTAP	101	288	7
NMSTR	101	352	6
NMSI_	101	352	6	96	48	4
NMSTR	102	0	7
NMSI_	102	0	7	96	48	3
NMTAP	102	64	6
NMTAP	102	96	7
NMSTR	102	160	0
NMSI_	102	160	0	96	48	4
NMSTR	102	192	1
NMSI_	102	192	1	96	48	3
NMTAP	102	256	0
NMTAP	102	288	1
NMSTR	102	352	7
NMSUL	102	352	7	96	48	3
NMSTR	103	0	0
NMSUR	103	0	0	96	48	4
NMSTR	103	64	7
NMSCR	103	64	7	96	128	6
NMTAP	103	96	0
NMTAP	103	160	7
NMTAP	103	256	0
NMTAP	103	288	0
NMTAP	103	352	2
NMTAP	103	352	7
NMTAP	104	64	6
NMTAP	104	96	7
NMTAP	104	160	0
NMTAP	104	160	5
NMTAP	104	256	2
NMTAP	104	288	3
NMTAP	104	352	1
NMTAP	104	352	4
NMTAP	105	64	5
NMTAP	105	96	4
NMTAP	105	160	3
NMTAP	105	160	6
NMTAP	105	256	0
NMTAP	105	256	7
BRHLD	105	352	1	576
BRSTR	105	352	6
NMSI_	105	352	6	96	160	2
CNSI_	106	224	2	0	160	7
CNSI_	107	0	7	0	160	3
NMTAP	107	256	2
NMTAP	107	256	4
BRSTR	107	352	0
NMSI_	107	352	0	96	96	5
BRHLD	107	352	6	576
CNSI_	108	160	5	0	96	2
CNSI_	108	256	2	0	96	7
CNSCL	108	352	7	0	192	3
NMTAP	109	256	1
NMTAP	109	256	5
BRSTR	109	352	3
NMSI_	109	352	3	96	64	1
BRHLD	109	352	7	576
CNSI_	110	128	1	0	96	4
CNSI_	110	224	4	0	64	6
CNSI_	110	288	6	0	96	2
CNSI_	111	0	2	0	64	0
CNSI_	111	64	0	0	96	5
NMTAP	111	256	3
NMTAP	111	256	6
BRHLD	111	352	1	320
BRTAP	111	352	4
NMTAP	112	96	5
NMTAP	112	192	6
NMTAP	112	288	7
NMTAP	113	0	0
NMTAP	113	32	2
NMTAP	113	64	4
NMSTR	113	96	7
NMSI_	113	96	7	96	48	3
NMTAP	113	128	5
NMTAP	113	160	3
BRTAP	113	192	7

T_REC_TAP	319
T_REC_BRK	20
T_REC_XTP	68
T_REC_BXX	9
T_REC_HLD	81
T_REC_XHO	5
T_REC_BHO	5
T_REC_BXH	0
T_REC_STR	105
T_REC_BST	5
T_REC_XST	6
T_REC_XBS	0
T_REC_TTP	58
T_REC_THO	0
T_REC_SLD	112
T_REC_BSL	7
T_REC_ALL	800
T_NUM_TAP	556
T_NUM_BRK	46
T_NUM_HLD	86
T_NUM_SLD	112
T_NUM_ALL	800
T_JUDGE_TAP	590
T_JUDGE_HLD	216
T_JUDGE_SLD	119
T_JUDGE_ALL	925
TTM_EACHPAIRS	148
TTM_SCR_TAP	278000
TTM_SCR_BRK	119600
TTM_SCR_HLD	86000
TTM_SCR_SLD	168000
TTM_SCR_ALL	651600
TTM_SCR_S	627600
TTM_SCR_SS	647000
TTM_RAT_ACV	10071

