VERSION	0.00.00	1.04.00
FES_MODE	0
BPM_DEF	190.000	190.000	190.000	190.000
MET_DEF	4	4
RESOLUTION	384
CLK_DEF	384
COMPATIBLE_CODE	MA2

BPM	0	0	190.000
MET	0	0	4	4

NMHLD	2	0	6	192
NMTAP	2	192	4
NMSTR	2	288	4
NMSXL	2	288	4	96	240	3
NMHLD	4	0	1	192
NMTAP	4	192	3
NMSTR	4	288	3
NMSXR	4	288	3	96	240	4
NMHLD	6	0	6	192
NMTAP	6	192	4
NMSTR	6	288	4
NMSUL	6	288	4	96	240	3
NMHLD	8	0	1	192
NMTAP	8	192	3
NMTAP	8	288	3
NMTAP	9	0	4
NMTAP	9	96	4
NMTAP	9	192	2
NMTAP	9	192	5
NMHLD	10	0	4	96
NMHLD	10	0	6	96
NMHLD	10	192	4	96
NMHLD	10	192	6	96
NMHLD	11	0	4	96
NMHLD	11	0	6	96
NMTAP	11	192	3
NMTAP	11	192	4
NMTAP	11	288	3
NMTAP	11	288	4
NMHLD	12	0	1	96
NMHLD	12	0	3	96
NMHLD	12	192	1	96
NMHLD	12	192	3	96
NMHLD	13	0	1	96
NMHLD	13	0	3	96
NMTAP	13	192	0
NMTAP	13	192	7
BRTAP	13	288	0
BRTAP	13	288	7
NMHLD	14	0	6	96
NMHLD	14	96	5	96
NMTAP	14	192	4
NMTAP	14	256	4
NMTAP	14	288	3
NMTAP	15	0	3
NMTAP	15	0	4
NMTAP	15	96	2
NMTAP	15	96	3
NMTAP	15	192	1
NMTAP	15	192	2
BRTAP	15	288	0
NMHLD	16	0	1	96
NMHLD	16	96	2	96
EXTAP	16	192	3
EXTAP	16	256	3
EXTAP	16	320	3
NMTAP	17	0	3
NMTAP	17	0	4
NMTAP	17	96	4
NMTAP	17	96	5
NMTAP	17	192	5
NMTAP	17	192	6
BRTAP	17	288	7
NMHLD	18	0	6	96
NMHLD	18	96	5	96
NMTAP	18	192	4
NMTAP	18	256	4
NMTAP	18	288	3
NMTAP	19	0	3
NMTAP	19	0	4
NMTAP	19	96	2
NMTAP	19	96	3
NMTAP	19	192	1
NMTAP	19	192	2
BRSTR	19	288	0
NMSCR	19	288	0	96	96	3
NMTAP	20	96	6
NMSTR	20	192	7
NMSUR	20	192	7	96	240	0
EXTAP	21	288	1
EXTAP	21	288	7
NMHLD	22	0	2	96
NMHLD	22	96	1	96
NMTAP	22	192	0
NMTAP	22	256	0
NMTAP	22	288	7
NMTAP	23	0	0
NMTAP	23	0	7
NMTAP	23	96	6
NMTAP	23	96	7
NMTAP	23	192	5
NMTAP	23	192	6
BRTAP	23	288	4
NMHLD	24	0	5	96
NMHLD	24	96	6	96
EXTAP	24	192	7
EXTAP	24	256	7
EXTAP	24	320	7
NMTAP	25	0	0
NMTAP	25	0	7
NMTAP	25	96	0
NMTAP	25	96	1
NMTAP	25	192	1
NMTAP	25	192	2
BRTAP	25	288	3
NMHLD	26	0	2	96
NMHLD	26	96	1	96
NMTAP	26	192	0
NMTAP	26	256	0
NMTAP	26	288	7
NMTAP	27	0	0
NMTAP	27	0	7
NMTAP	27	96	6
NMTAP	27	96	7
NMTAP	27	192	5
NMTAP	27	192	6
BRTAP	27	288	4
NMTAP	28	0	2
NMTAP	28	0	3
NMTAP	28	96	0
NMTAP	28	96	1
NMTAP	28	192	6
NMTAP	28	192	7
NMTAP	28	288	4
NMTAP	28	288	5
NMTAP	29	0	2
NMTAP	29	0	3
NMTAP	29	96	2
NMTAP	29	96	4
EXTAP	29	192	0
EXTAP	29	192	6
EXTAP	29	256	0
EXSTR	29	256	6
NMSCL	29	256	6	96	416	7
NMTTP	29	352	0	C	1	M1
EXTAP	31	192	0
EXTAP	31	192	6
EXTAP	31	256	0
EXSTR	31	256	6
NMSCL	31	256	6	96	416	7
NMTTP	31	352	0	C	1	M1
BXHLD	33	192	0	96
BXHLD	33	192	7	96
NMTAP	34	0	2
NMTAP	34	0	5
NMSTR	34	96	3
NMSI_	34	96	3	96	96	0
NMSTR	34	96	6
NMSI_	34	96	6	96	96	3
NMTAP	35	0	2
NMTAP	35	0	5
NMTAP	35	96	3
NMSTR	35	96	6
NMSI_	35	96	6	96	96	3
EXTAP	35	288	0
NMTAP	36	0	2
NMTAP	36	0	5
NMSTR	36	96	1
NMSI_	36	96	1	96	96	4
NMSTR	36	96	4
NMSI_	36	96	4	96	96	7
NMTAP	37	0	2
NMTAP	37	0	5
NMSTR	37	96	1
NMSI_	37	96	1	96	96	4
NMTAP	37	96	4
EXTAP	37	288	7
NMTAP	38	0	2
NMTAP	38	0	5
NMSTR	38	96	3
NMSI_	38	96	3	96	96	0
NMSTR	38	96	6
NMSCL	38	96	6	96	96	3
NMTAP	39	0	2
NMTAP	39	0	5
NMSTR	39	96	3
NMSCL	39	96	3	96	96	0
NMTAP	39	96	6
NMTAP	39	288	4
NMTAP	40	0	2
NMTAP	40	0	5
NMSTR	40	96	1
NMSCR	40	96	1	96	96	4
NMSTR	40	96	4
NMSI_	40	96	4	96	96	7
NMTAP	41	0	2
NMTAP	41	0	5
NMTAP	41	96	1
NMSTR	41	96	4
NMSCR	41	96	4	96	96	7
EXTAP	41	288	3
NMTAP	42	0	2
NMTAP	42	0	6
NMSTR	42	96	1
NMSCR	42	96	1	96	96	4
NMSTR	42	96	5
NMSCR	42	96	5	96	96	0
NMTAP	43	0	2
NMTAP	43	0	6
NMSTR	43	96	1
NMSCR	43	96	1	96	96	4
NMTAP	43	96	5
NMTAP	43	288	7
NMTAP	44	0	1
NMTAP	44	0	5
NMSTR	44	96	2
NMSCL	44	96	2	96	96	7
NMSTR	44	96	6
NMSCL	44	96	6	96	96	3
NMTAP	45	0	1
NMTAP	45	0	5
NMTAP	45	96	2
NMSTR	45	96	6
NMSCL	45	96	6	96	96	3
NMTAP	45	288	0
NMTAP	46	0	1
NMTAP	46	0	5
NMSTR	46	96	2
NMSCR	46	96	2	96	96	5
NMSTR	46	96	6
NMSCR	46	96	6	96	96	1
NMTAP	47	0	3
NMTAP	47	0	7
NMSTR	47	96	2
NMSCR	47	96	2	96	96	5
NMTAP	47	96	6
NMTAP	47	288	7
NMTAP	48	0	2
NMTAP	48	0	6
NMSTR	48	96	1
NMSCL	48	96	1	96	96	6
NMSTR	48	96	5
NMSCL	48	96	5	96	96	2
NMTAP	49	0	0
NMTAP	49	0	4
NMHLD	49	96	1	96
NMTAP	49	96	5
BRTAP	49	192	7
NMTAP	50	0	4
NMTAP	50	0	6
NMTAP	50	96	0
NMTAP	50	96	7
NMTAP	50	192	4
NMTAP	50	192	6
NMTAP	50	256	3
NMTAP	50	256	5
NMTAP	50	320	2
NMTAP	50	320	4
NMTAP	51	0	1
NMTAP	51	0	3
NMTAP	51	96	1
NMTAP	51	96	3
EXTAP	51	192	0
EXTAP	51	192	4
EXTAP	51	256	0
EXTAP	51	256	4
NMTAP	52	0	1
NMTAP	52	0	3
NMTAP	52	96	0
NMTAP	52	96	7
NMTAP	52	192	1
NMTAP	52	192	3
NMTAP	52	256	2
NMTAP	52	256	4
NMTAP	52	320	3
NMTAP	52	320	5
NMTAP	53	0	4
NMTAP	53	0	6
NMTAP	53	96	4
NMTAP	53	96	6
NMTAP	53	192	4
NMTAP	53	192	6
NMTTP	53	288	4	E	1	M1
EXTAP	54	0	7
NMTAP	54	96	0
NMTAP	54	96	6
NMTAP	54	192	2
NMTAP	54	192	4
NMTAP	54	256	1
NMTAP	54	256	5
NMTAP	54	320	0
NMTAP	54	320	6
NMTAP	55	0	0
NMTAP	55	0	6
NMTAP	55	96	2
NMTAP	55	96	4
NMTAP	55	192	1
NMTAP	55	192	5
NMTAP	55	256	1
NMTAP	55	256	5
NMHLD	56	0	6	96
NMTAP	56	96	4
NMTAP	56	192	3
NMTAP	56	192	4
NMTAP	56	256	2
NMTAP	56	256	5
NMTAP	56	320	1
NMTAP	56	320	6
NMTAP	57	0	0
NMTAP	57	32	7
NMTAP	57	64	0
NMTAP	57	96	7
EXSTR	57	192	1
NMSCR	57	192	1	96	48	3
EXSTR	57	192	6
NMSCL	57	192	6	96	48	4
EXTAP	58	0	4
EXTAP	58	0	5
NMTAP	58	96	6
NMTAP	58	96	7
NMTAP	58	192	6
NMTAP	58	192	7
NMTAP	58	256	0
NMTAP	58	256	7
NMTAP	58	320	0
NMTAP	58	320	1
NMTAP	59	0	0
NMTAP	59	0	1
NMTAP	59	96	2
NMTAP	59	96	3
EXTAP	59	192	1
EXTAP	59	192	4
EXTAP	59	256	1
EXTAP	59	256	4
NMTAP	60	0	2
NMTAP	60	0	3
NMTAP	60	96	0
NMTAP	60	96	1
NMTAP	60	192	0
NMTAP	60	192	1
NMTAP	60	256	0
NMTAP	60	256	7
NMTAP	60	320	6
NMTAP	60	320	7
NMTAP	61	0	6
NMTAP	61	0	7
NMTAP	61	96	4
NMTAP	61	96	5
NMTAP	61	192	3
NMSTR	61	192	6
NMSLL	61	192	6	96	96	2
EXTAP	62	0	0
NMTAP	62	96	1
NMTAP	62	96	7
NMTAP	62	192	3
NMTAP	62	192	5
NMTAP	62	256	2
NMTAP	62	256	6
NMTAP	62	320	1
NMTAP	62	320	7
NMTAP	63	0	1
NMTAP	63	0	7
NMTAP	63	96	3
NMTAP	63	96	5
NMTAP	63	192	2
NMSTR	63	192	6
NMSI_	63	192	6	96	48	2
EXSTR	64	0	0
NMSI_	64	0	0	96	48	2
NMSI_	64	0	0	96	48	4
EXSTR	64	192	7
NMSI_	64	192	7	96	48	3
NMSI_	64	192	7	96	48	5
EXTAP	65	0	2
EXTAP	65	32	4
EXTAP	65	64	2
EXTAP	65	96	4
NMTTP	65	192	0	C	1	M1
NMSTR	66	0	7
NMSCL	66	0	7	96	480	0
NMSTR	68	0	7
NMSCL	68	0	7	96	480	0
NMHLD	70	0	6	288
NMTAP	70	288	4
NMHLD	71	0	4	288
NMTAP	71	288	3
NMHLD	72	0	3	288
NMTAP	72	288	1
NMHLD	73	0	1	192
NMTAP	73	192	3
NMTTP	74	0	5	B	0	M1
NMTTP	74	96	6	B	0	M1
NMTTP	74	192	7	B	0	M1
NMTTP	74	288	0	B	0	M1
NMTTP	75	0	1	B	0	M1
NMTTP	75	96	2	B	0	M1
NMTTP	75	192	3	B	0	M1
NMTTP	75	192	4	B	0	M1
NMTTP	76	0	2	E	0	M1
NMTTP	76	96	1	E	0	M1
NMTTP	76	192	0	E	0	M1
NMTTP	76	288	7	E	0	M1
NMTTP	77	0	6	E	0	M1
NMTTP	77	96	5	E	0	M1
NMTTP	77	192	3	E	0	M1
NMTTP	77	192	4	E	0	M1
NMSTR	78	0	2
NMSI_	78	0	2	96	48	4
NMSTR	78	192	6
NMSI_	78	192	6	96	48	3
NMSTR	79	0	0
NMSI_	79	0	0	96	48	4
NMHLD	79	192	5	96
NMHLD	79	288	7	96
NMHLD	80	0	0	96
NMHLD	80	96	2	96
NMTAP	80	192	5
NMTAP	80	288	3
NMTAP	80	288	4
NMSTR	81	0	3
NMSCL	81	0	3	96	96	0
NMSTR	81	0	4
NMSCR	81	0	4	96	96	7
EXTAP	81	288	0
EXTAP	81	288	7
NMTAP	82	0	0
NMTAP	82	0	7
NMTAP	82	96	0
NMTAP	82	96	1
EXTAP	82	192	1
EXTAP	82	192	3
EXTAP	82	256	3
EXTAP	82	256	4
EXTAP	82	320	4
EXTAP	82	320	6
NMTAP	83	0	0
NMTAP	83	0	7
NMSTR	83	96	0
NMSI_	83	96	0	96	48	4
NMSTR	83	96	1
NMSI_	83	96	1	96	48	5
EXTAP	83	288	6
EXTAP	83	288	7
NMTAP	84	0	0
NMTAP	84	0	7
NMTAP	84	96	6
NMTAP	84	96	7
EXTAP	84	192	4
EXTAP	84	192	6
EXTAP	84	256	3
EXTAP	84	256	4
EXTAP	84	320	1
EXTAP	84	320	3
NMTAP	85	0	0
NMTAP	85	0	7
NMSTR	85	96	6
NMSI_	85	96	6	96	48	2
NMSTR	85	96	7
NMSI_	85	96	7	96	48	3
EXTAP	85	288	0
EXTAP	85	288	1
NMTAP	86	0	0
NMTAP	86	0	7
NMTAP	86	96	0
NMTAP	86	96	1
EXTAP	86	192	1
EXTAP	86	192	3
EXTAP	86	256	3
EXTAP	86	256	4
EXTAP	86	320	4
EXTAP	86	320	6
NMTAP	87	0	0
NMTAP	87	0	7
NMSTR	87	96	0
NMSI_	87	96	0	96	48	4
NMSTR	87	96	1
NMSI_	87	96	1	96	48	5
EXTAP	87	288	6
EXTAP	87	288	7
NMHLD	88	0	5	96
NMTAP	88	96	7
NMHLD	88	192	2	96
NMSTR	88	288	0
NMSXR	88	288	0	96	192	4
EXTAP	89	288	3
EXTAP	89	288	5
NMTAP	90	0	2
NMTAP	90	0	3
NMTAP	90	96	0
NMTAP	90	96	1
NMTAP	90	192	2
NMTAP	90	256	2
NMTAP	90	288	4
NMTAP	90	352	4
NMTAP	91	0	1
NMTAP	91	64	1
NMTAP	91	96	6
NMTAP	91	160	6
NMTAP	91	192	7
NMTAP	91	288	1
NMTAP	91	288	4
NMTAP	92	0	4
NMTAP	92	0	5
NMTAP	92	96	6
NMTAP	92	96	7
NMTAP	92	192	5
NMTAP	92	256	5
NMTAP	92	288	3
NMTAP	92	352	3
NMTAP	93	0	6
NMTAP	93	64	6
NMTAP	93	96	1
NMTAP	93	160	1
NMTAP	93	192	0
NMTAP	93	288	3
NMTAP	93	288	6
NMTAP	94	0	2
NMTAP	94	0	3
NMTAP	94	96	0
NMTAP	94	96	1
NMTAP	94	192	2
NMTAP	94	256	2
NMTAP	94	288	4
NMTAP	94	352	4
NMTAP	95	0	1
NMTAP	95	64	1
NMTAP	95	96	5
NMTAP	95	160	5
NMTAP	95	192	4
NMSTR	95	288	3
NMSCL	95	288	3	96	48	0
NMTAP	95	288	6
NMSTR	96	96	4
NMSCR	96	96	4	96	48	7
NMSTR	96	288	3
NMSUR	96	288	3	96	192	4
EXTAP	97	288	4
EXTAP	97	288	5
BXTAP	98	96	6
BXTAP	98	96	7
BXTAP	98	288	0
BXTAP	98	288	1
NMTAP	99	0	1
NMTAP	99	0	6
NMSTR	99	96	0
NMSCR	99	96	0	96	48	3
NMSTR	99	96	7
NMSCL	99	96	7	96	48	4
BRTAP	99	288	1
BRTAP	99	288	6
NMSTR	100	0	0
NMSI_	100	0	0	96	48	5
NMSTR	100	0	1
NMSI_	100	0	1	96	48	4
NMTAP	100	192	6
NMTAP	100	256	6
NMTAP	100	288	4
NMTAP	100	352	4
NMTAP	101	0	7
NMTAP	101	64	7
NMTAP	101	96	1
NMTAP	101	160	1
NMTAP	101	192	3
NMTAP	101	288	4
NMTAP	101	288	6
NMSTR	102	0	6
NMSI_	102	0	6	96	48	3
NMSTR	102	0	7
NMSI_	102	0	7	96	48	2
NMTAP	102	192	1
NMTAP	102	256	1
NMTAP	102	288	3
NMTAP	102	352	3
NMTAP	103	0	0
NMTAP	103	64	0
NMTAP	103	96	6
NMTAP	103	160	6
NMTAP	103	192	4
NMHLD	103	288	1	96
NMTAP	103	288	3
NMHLD	104	0	3	96
NMHLD	104	96	4	96
NMHLD	104	192	6	96
NMTAP	104	288	0
NMTAP	105	0	1
NMTAP	105	0	3
NMTAP	105	96	4
NMTAP	105	96	6
EXTAP	105	192	2
EXTAP	105	192	4
EXTAP	105	256	2
EXSTR	105	256	4
NMSCL	105	256	4	96	416	5
NMTTP	105	352	0	C	1	M1
EXTAP	107	192	2
EXTAP	107	192	4
EXTAP	107	256	2
EXSTR	107	256	4
NMSCL	107	256	4	96	416	5
NMTTP	107	352	0	C	1	M1
EXTAP	109	192	2
EXTAP	109	192	4
EXSTR	109	256	2
BRSI_	109	256	2	96	64	4
BXHLD	109	352	5	416
CNSI_	110	32	4	0	96	1
CNSI_	110	128	1	0	96	5
CNSI_	110	224	5	0	160	7
EXTAP	111	192	2
EXTAP	111	192	4
EXTAP	111	256	2
EXTAP	111	256	4
NMHLD	111	352	1	128
NMTAP	111	352	5
NMTAP	112	96	4
EXTAP	112	192	2
EXTAP	112	192	3
EXTAP	112	256	1
EXTAP	112	256	4
EXTAP	112	320	0
EXTAP	112	320	5
EXSTR	113	0	6
NMSCL	113	0	6	96	48	3
EXSTR	113	0	7
NMSCR	113	0	7	96	48	2
NMTTP	113	192	0	B	0	M1
NMTTP	113	192	0	C	1	M1
NMTTP	113	192	1	E	0	M1
NMTTP	113	192	5	B	0	M1
NMTTP	113	192	5	E	0	M1

T_REC_TAP	317
T_REC_BRK	10
T_REC_XTP	81
T_REC_BXX	4
T_REC_HLD	45
T_REC_XHO	0
T_REC_BHO	0
T_REC_BXH	3
T_REC_STR	52
T_REC_BST	1
T_REC_XST	11
T_REC_XBS	0
T_REC_TTP	27
T_REC_THO	0
T_REC_SLD	65
T_REC_BSL	1
T_REC_ALL	617
T_NUM_TAP	488
T_NUM_BRK	19
T_NUM_HLD	45
T_NUM_SLD	65
T_NUM_ALL	617
T_JUDGE_TAP	503
T_JUDGE_HLD	126
T_JUDGE_SLD	66
T_JUDGE_ALL	695
TTM_EACHPAIRS	187
TTM_SCR_TAP	244000
TTM_SCR_BRK	49400
TTM_SCR_HLD	45000
TTM_SCR_SLD	97500
TTM_SCR_ALL	435900
TTM_SCR_S	421000
TTM_SCR_SS	434000
TTM_RAT_ACV	10043

