VERSION	0.00.00	1.04.00
FES_MODE	0
BPM_DEF	190.000	190.000	190.000	190.000
MET_DEF	4	4
RESOLUTION	384
CLK_DEF	384
COMPATIBLE_CODE	MA2

BPM	0	0	190.000
MET	0	0	4	4

NMTAP	2	0	1
NMTAP	2	192	1
NMTAP	3	0	2
NMTAP	3	192	2
NMTAP	4	0	3
NMTAP	4	192	3
NMTAP	5	0	4
NMTAP	5	0	5
NMTAP	6	0	6
NMTAP	6	192	6
NMTAP	7	0	5
NMTAP	7	192	5
NMTAP	8	0	4
NMTAP	8	192	4
NMTAP	9	0	2
NMTAP	9	0	3
NMTAP	10	0	1
NMTAP	10	96	1
NMTAP	10	192	0
NMTAP	10	192	1
NMTAP	11	0	2
NMTAP	11	96	2
NMTAP	11	192	2
NMTAP	11	192	3
NMTAP	12	0	5
NMTAP	12	96	5
NMTAP	12	192	4
NMTAP	12	192	5
NMTAP	13	0	6
NMTAP	13	96	6
BRTAP	13	192	6
BRTAP	13	192	7
NMTAP	14	0	5
NMTAP	14	96	5
NMTAP	14	192	6
NMTAP	14	288	6
NMTAP	15	0	7
NMTAP	15	96	7
NMTAP	15	192	0
NMTAP	15	192	1
NMTAP	16	0	2
NMTAP	16	96	2
NMTAP	16	192	1
NMTAP	16	288	1
NMTAP	17	0	0
NMTAP	17	96	0
NMTAP	17	192	6
NMTAP	17	192	7
NMTAP	18	0	6
NMTAP	18	96	6
NMTAP	18	192	5
NMTAP	18	288	5
NMTAP	19	0	4
NMTAP	19	96	4
NMTAP	19	192	2
NMTAP	19	192	3
NMTAP	20	0	0
NMTAP	20	0	1
NMTAP	20	96	0
NMTAP	20	96	1
NMTAP	20	192	0
NMTAP	20	192	1
NMTAP	21	0	2
NMTAP	21	0	3
NMTAP	21	96	2
NMTAP	21	96	3
NMTAP	21	192	2
NMTAP	21	192	3
NMTAP	22	0	2
NMTAP	22	96	2
NMTAP	22	192	1
NMTAP	22	288	1
NMTAP	23	0	0
NMTAP	23	96	0
NMTAP	23	192	6
NMTAP	23	192	7
NMTAP	24	0	5
NMTAP	24	96	5
NMTAP	24	192	6
NMTAP	24	288	6
NMTAP	25	0	7
NMTAP	25	96	7
NMTAP	25	192	0
NMTAP	25	192	1
NMTAP	26	0	1
NMTAP	26	96	1
NMTAP	26	192	2
NMTAP	26	288	2
NMTAP	27	0	3
NMTAP	27	96	3
NMTAP	27	192	4
NMTAP	27	192	5
NMTAP	28	0	6
NMTAP	28	0	7
NMTAP	28	96	6
NMTAP	28	96	7
NMTAP	28	192	6
NMTAP	28	192	7
NMTAP	29	0	4
NMTAP	29	0	5
NMTAP	29	96	4
NMTAP	29	96	5
NMTAP	29	192	4
NMTAP	29	192	5
EXSTR	30	0	6
NMSI_	30	0	6	96	288	3
EXSTR	32	0	1
NMSI_	32	0	1	96	288	4
NMHLD	34	0	5	192
NMHLD	34	192	4	192
NMHLD	35	0	3	192
NMTAP	35	192	2
NMHLD	36	0	2	192
NMHLD	36	192	3	192
NMHLD	37	0	4	192
NMTAP	37	192	5
NMHLD	38	0	6	192
NMHLD	38	192	5	192
NMHLD	39	0	4	192
NMTAP	39	192	3
NMHLD	40	0	1	192
NMHLD	40	192	2	192
NMHLD	41	0	3	192
NMTAP	41	192	4
NMHLD	42	0	5	192
NMTAP	42	192	4
NMTAP	43	0	5
NMTAP	43	96	5
NMTAP	43	192	4
NMTAP	43	192	5
NMHLD	44	0	2	192
NMTAP	44	192	3
NMTAP	45	0	2
NMTAP	45	96	2
NMTAP	45	192	2
NMTAP	45	192	3
NMHLD	46	0	1	192
NMTAP	46	192	0
NMTAP	47	0	1
NMTAP	47	96	1
NMTAP	47	192	0
NMTAP	47	192	1
NMHLD	48	0	6	192
NMTAP	48	192	7
NMTAP	49	0	6
NMTAP	49	96	6
EXTAP	49	192	0
EXTAP	49	192	7
NMTTP	50	0	1	B	0	L1
NMTTP	50	96	2	B	0	L1
NMTTP	50	192	3	B	0	L1
NMTTP	51	0	6	B	0	L1
NMTTP	51	96	5	B	0	L1
NMTTP	51	192	4	B	0	L1
NMTTP	52	0	1	B	0	L1
NMTTP	52	96	2	B	0	L1
NMTTP	52	192	3	B	0	L1
NMTTP	52	288	4	B	0	L1
NMTTP	53	0	5	B	0	L1
NMTTP	53	96	6	B	0	L1
NMTTP	53	192	0	C	0	L1
NMTTP	54	0	3	B	0	L1
NMTTP	54	96	2	B	0	L1
NMTTP	54	192	0	B	0	L1
NMTTP	54	192	1	B	0	L1
NMTTP	55	0	4	B	0	L1
NMTTP	55	96	5	B	0	L1
NMTTP	55	192	6	B	0	L1
NMTTP	55	192	7	B	0	L1
NMTTP	56	0	2	B	0	L1
NMTTP	56	96	1	B	0	L1
NMTTP	56	192	0	B	0	L1
NMTTP	56	288	7	B	0	L1
NMTTP	57	0	6	B	0	L1
NMTTP	57	96	5	B	0	L1
NMTTP	57	192	3	B	0	L1
NMTTP	57	192	4	B	0	L1
NMTAP	58	0	1
NMTAP	58	96	2
NMTAP	58	192	3
NMTAP	59	0	4
NMTAP	59	0	5
NMTAP	59	96	4
NMTAP	59	96	5
NMTAP	59	192	4
NMTAP	59	192	5
NMTAP	60	0	6
NMTAP	60	96	5
NMTAP	60	192	4
NMTAP	61	0	2
NMTAP	61	0	3
NMTAP	61	96	2
NMTAP	61	96	3
NMTAP	61	192	2
NMTAP	61	192	3
NMTAP	62	0	1
NMTAP	62	96	1
NMTAP	62	192	0
NMTAP	62	192	1
NMTAP	63	0	6
NMTAP	63	96	6
NMTAP	63	192	6
NMTAP	63	192	7
EXTAP	64	0	0
EXTAP	64	0	1
EXTAP	64	192	6
EXTAP	64	192	7
NMTAP	65	0	0
NMTAP	65	0	7
NMTAP	65	96	0
NMTAP	65	96	7
BRTAP	65	192	0
BRTAP	65	192	7
NMSTR	66	0	1
NMSCR	66	0	1	96	288	4
NMSTR	68	0	5
NMSCR	68	0	5	96	288	0
NMSTR	70	0	1
NMSCR	70	0	1	96	288	4
NMTAP	72	0	5
NMTAP	72	96	5
NMTAP	72	192	6
NMTAP	72	288	6
NMTAP	73	0	0
NMTAP	73	0	7
NMSTR	74	0	6
NMSCL	74	0	6	96	288	3
NMSTR	76	0	2
NMSCL	76	0	2	96	288	7
NMSTR	78	0	6
NMSCL	78	0	6	96	288	3
NMTAP	80	0	2
NMTAP	80	96	2
NMTAP	80	192	1
NMTAP	80	288	1
BRTAP	81	0	0
BRTAP	81	0	7
NMTAP	82	0	1
NMTAP	82	96	1
NMTAP	82	192	0
NMTAP	82	192	1
NMTAP	82	288	0
NMTAP	82	288	1
NMTAP	83	0	2
NMTAP	83	96	2
NMTAP	83	192	2
NMTAP	83	192	3
NMTAP	83	288	2
NMTAP	83	288	3
NMTAP	84	0	4
NMTAP	84	96	4
NMTAP	84	192	4
NMTAP	84	192	5
NMTAP	84	288	4
NMTAP	84	288	5
NMTAP	85	0	6
NMTAP	85	0	7
NMTAP	85	96	6
NMTAP	85	96	7
NMTAP	85	192	6
NMTAP	85	192	7
NMTAP	86	0	6
NMTAP	86	96	6
NMTAP	86	192	6
NMTAP	86	192	7
NMTAP	86	288	6
NMTAP	86	288	7
NMTAP	87	0	5
NMTAP	87	96	5
NMTAP	87	192	4
NMTAP	87	192	5
NMTAP	87	288	4
NMTAP	87	288	5
NMTAP	88	0	3
NMTAP	88	96	3
NMTAP	88	192	2
NMTAP	88	192	3
NMTAP	88	288	2
NMTAP	88	288	3
NMTAP	89	0	0
NMTAP	89	0	1
NMTAP	89	96	0
NMTAP	89	96	1
NMTAP	89	192	0
NMTAP	89	192	1
NMTAP	90	0	2
NMTAP	90	96	2
NMTAP	90	192	0
NMTAP	90	192	1
NMTAP	90	288	0
NMTAP	90	288	1
NMTAP	91	0	7
NMTAP	91	96	6
NMTAP	91	192	4
NMTAP	91	192	5
NMTAP	91	288	4
NMTAP	91	288	5
NMTAP	92	0	6
NMTAP	92	96	7
NMTAP	92	192	0
NMTAP	92	192	1
NMTAP	92	288	0
NMTAP	92	288	1
NMTAP	93	0	2
NMTAP	93	96	2
NMTAP	93	192	3
NMTAP	93	192	4
NMTAP	94	0	5
NMTAP	94	96	5
NMTAP	94	192	6
NMTAP	94	192	7
NMTAP	94	288	6
NMTAP	94	288	7
NMTAP	95	0	0
NMTAP	95	96	1
NMTAP	95	192	2
NMTAP	95	192	3
NMTAP	95	288	2
NMTAP	95	288	3
NMTAP	96	0	1
NMTAP	96	96	0
NMTAP	96	192	6
NMTAP	96	192	7
NMTAP	96	288	6
NMTAP	96	288	7
NMTAP	97	0	5
NMTAP	97	96	5
NMTAP	97	192	3
NMTAP	97	192	4
NMTAP	98	0	4
NMTAP	98	96	5
NMTAP	98	192	6
NMTAP	98	288	7
NMTAP	99	0	0
NMTAP	99	96	1
NMTAP	99	192	2
NMTAP	99	288	3
NMTAP	100	0	4
NMTAP	100	96	5
NMTAP	100	192	6
NMTAP	100	288	7
NMTAP	101	0	0
NMTAP	101	0	1
NMTAP	101	96	0
NMTAP	101	96	1
NMTAP	101	192	2
NMTAP	101	192	7
NMTAP	102	0	3
NMTAP	102	96	2
NMTAP	102	192	1
NMTAP	102	288	0
NMTAP	103	0	7
NMTAP	103	96	6
NMTAP	103	192	5
NMTAP	103	288	4
NMTAP	104	0	3
NMTAP	104	96	2
NMTAP	104	192	1
NMTAP	104	288	0
NMTAP	105	0	6
NMTAP	105	0	7
NMTAP	105	96	6
NMTAP	105	96	7
NMTAP	105	192	0
NMTAP	105	192	5
EXSTR	106	0	6
NMSI_	106	0	6	96	288	3
EXSTR	106	0	7
NMSI_	106	0	7	96	288	2
EXSTR	108	0	0
NMSI_	108	0	0	96	288	5
EXSTR	108	0	1
NMSI_	108	0	1	96	288	4
EXSTR	110	0	6
NMSCL	110	0	6	96	288	3
EXSTR	110	0	7
NMSCR	110	0	7	96	288	2
EXSTR	112	0	0
NMSCL	112	0	0	96	288	5
EXSTR	112	0	1
NMSCR	112	0	1	96	288	4

T_REC_TAP	292
T_REC_BRK	6
T_REC_XTP	6
T_REC_BXX	0
T_REC_HLD	16
T_REC_XHO	0
T_REC_BHO	0
T_REC_BXH	0
T_REC_STR	6
T_REC_BST	0
T_REC_XST	10
T_REC_XBS	0
T_REC_TTP	29
T_REC_THO	0
T_REC_SLD	16
T_REC_BSL	0
T_REC_ALL	381
T_NUM_TAP	343
T_NUM_BRK	6
T_NUM_HLD	16
T_NUM_SLD	16
T_NUM_ALL	381
T_JUDGE_TAP	349
T_JUDGE_HLD	64
T_JUDGE_SLD	16
T_JUDGE_ALL	429
TTM_EACHPAIRS	85
TTM_SCR_TAP	171500
TTM_SCR_BRK	15600
TTM_SCR_HLD	16000
TTM_SCR_SLD	24000
TTM_SCR_ALL	227100
TTM_SCR_S	219750
TTM_SCR_SS	226500
TTM_RAT_ACV	10026

