VERSION	0.00.00	1.04.00
FES_MODE	0
BPM_DEF	123.000	123.000	123.000	123.000
MET_DEF	4	4
RESOLUTION	384
CLK_DEF	384
COMPATIBLE_CODE	MA2

BPM	0	0	123.000
MET	0	0	4	4

NMHLD	1	0	2	144
NMTAP	1	0	4
NMTAP	1	144	3
NMHLD	1	240	4	96
NMTAP	1	336	3
NMHLD	2	48	1	96
NMTAP	2	144	3
NMTAP	2	240	2
NMTAP	2	240	4
NMTAP	2	336	3
NMTAP	2	336	5
NMTAP	3	48	4
NMHLD	3	48	6	192
NMTAP	3	144	5
NMTAP	3	240	7
NMSTR	3	288	7
NMSCR	3	288	7	96	48	2
EXSTR	4	0	7
NMSCL	4	0	7	96	48	4
EXSTR	4	96	7
NMSF_	4	96	7	96	48	3
EXTAP	4	192	7
BRTAP	4	288	0
BRTAP	4	288	6
NMTAP	5	0	1
NMTAP	5	48	1
NMTAP	5	48	3
NMTAP	5	96	4
NMTAP	5	144	2
NMTAP	5	144	4
NMSTR	5	192	3
NMSCL	5	192	3	96	48	1
NMTAP	5	224	3
NMTAP	5	240	4
NMTAP	5	336	6
NMTAP	6	0	0
NMTAP	6	48	0
NMTAP	6	48	7
NMTAP	6	96	6
NMTAP	6	144	5
NMTAP	6	144	7
NMSTR	6	192	6
NMSCL	6	192	6	96	48	4
NMTAP	6	224	6
NMTAP	6	240	7
NMTAP	6	336	1
NMTAP	7	0	2
NMTAP	7	48	2
NMTAP	7	48	3
NMTAP	7	96	1
NMTAP	7	144	0
NMTAP	7	144	2
NMSTR	7	192	1
NMSI_	7	192	1	96	48	4
NMTAP	7	224	1
NMTAP	7	240	0
NMTAP	7	336	5
NMTAP	8	0	6
NMTAP	8	32	6
NMTAP	8	48	7
NMTAP	8	96	5
NMTAP	8	144	4
NMTAP	8	144	5
NMHLD	8	192	3	48
NMTAP	8	240	2
NMHLD	8	288	4	48
NMTAP	8	336	5
NMTAP	9	0	3
NMTAP	9	0	4
NMTAP	9	48	4
NMTAP	9	48	5
NMTAP	9	96	6
NMTAP	9	128	6
NMTAP	9	144	7
NMHLD	9	192	5	96
NMTAP	9	240	4
NMTAP	9	288	4
NMTAP	10	0	3
NMTAP	10	0	4
NMTAP	10	48	2
NMTAP	10	48	3
NMTAP	10	96	1
NMTAP	10	128	1
NMTAP	10	144	0
NMHLD	10	192	2	96
NMTAP	10	240	3
NMTAP	10	288	3
NMTAP	11	0	5
NMTAP	11	48	4
NMTAP	11	48	5
NMTAP	11	96	6
NMTAP	11	144	6
NMTAP	11	144	7
NMSTR	11	192	1
NMSCR	11	192	1	96	48	4
NMTAP	11	224	1
NMTAP	11	240	0
NMTAP	11	336	6
NMTAP	12	0	5
NMTAP	12	32	5
NMTAP	12	48	4
NMTAP	12	96	6
NMSTR	12	144	0
NMSCL	12	144	0	96	96	4
NMTAP	12	144	6
NMHLD	13	0	3	288
NMTTP	13	80	3	B	0	M1
NMHLD	13	192	4	96
NMHLD	14	0	2	288
NMTTP	14	80	2	B	0	M1
NMHLD	14	192	1	96
NMHLD	15	0	7	288
NMTTP	15	80	7	B	0	M1
NMHLD	15	192	0	96
NMHLD	16	0	6	80
NMHLD	16	80	5	64
NMTAP	16	144	4
NMTAP	16	192	4
NMTAP	16	288	3
NMTAP	16	288	6
NMTAP	17	0	5
NMTAP	17	48	6
NMTAP	17	48	7
NMTAP	17	96	0
NMTAP	17	192	6
NMTAP	17	240	4
NMTAP	17	240	5
NMTAP	17	288	3
NMTAP	18	0	5
NMTAP	18	48	3
NMTAP	18	48	4
NMTAP	18	96	2
NMTAP	18	144	3
NMTAP	18	144	4
NMTAP	18	192	5
NMTAP	18	240	4
NMTAP	18	240	5
NMTAP	18	288	3
NMTAP	18	288	6
NMTAP	19	0	7
NMTAP	19	48	0
NMTAP	19	48	1
NMTAP	19	96	2
NMTAP	19	192	1
NMTAP	19	240	2
NMTAP	19	240	3
NMTAP	19	288	4
NMTAP	19	336	2
NMTAP	19	336	3
NMTAP	20	0	1
NMTAP	20	48	0
NMTAP	20	48	7
NMTAP	20	96	6
NMTAP	20	144	4
NMTAP	20	144	5
NMHLD	20	192	2	96
NMHLD	20	192	7	96
NMSTR	21	0	1
NMSI_	21	0	1	96	48	3
NMHLD	21	0	6	288
NMTAP	21	48	0
NMSTR	21	192	2
NMSI_	21	192	2	96	48	4
NMTAP	21	240	1
NMSTR	22	0	3
NMSI_	22	0	3	96	48	5
NMHLD	22	0	7	192
NMTAP	22	48	2
CNSI_	22	144	5	0	48	1
NMHLD	23	0	1	288
NMSTR	23	0	6
NMSI_	23	0	6	96	48	4
NMTAP	23	48	7
NMSTR	23	192	5
NMSI_	23	192	5	96	48	3
NMTAP	23	240	6
NMHLD	24	0	0	192
NMSTR	24	0	4
NMSI_	24	0	4	96	48	2
NMTAP	24	48	5
CNSI_	24	144	2	0	48	6
CNSCR	24	192	6	0	96	1
NMSTR	25	0	2
NMSI_	25	0	2	96	48	0
NMHLD	25	0	5	288
NMTAP	25	48	3
NMSTR	25	192	1
NMSI_	25	192	1	96	48	7
NMTAP	25	240	2
NMSTR	26	0	0
NMSI_	26	0	0	96	48	6
NMHLD	26	0	4	192
NMTAP	26	48	1
CNSI_	26	144	6	0	48	2
NMTAP	26	288	3
NMTAP	26	288	5
NMHLD	27	0	1	96
NMTAP	27	48	3
NMTAP	27	96	2
NMHLD	27	192	5	96
NMTAP	27	240	3
NMTAP	27	288	4
NMTAP	28	0	2
NMTAP	28	0	6
NMTAP	28	32	2
NMTAP	28	32	6
NMTAP	28	64	2
NMTAP	28	64	6
NMSTR	28	96	1
BRSI_	28	96	1	96	48	4
NMSTR	28	96	7
BRSI_	28	96	7	96	48	4
NMTAP	28	128	1
NMTAP	28	128	7
NMTAP	28	160	1
NMTAP	28	160	7
EXTAP	28	192	1
EXTAP	28	192	7
NMTAP	29	0	1
NMSTR	29	0	3
NMSCR	29	0	3	96	48	6
NMTAP	29	48	2
NMTAP	29	96	5
NMTAP	29	144	7
NMSTR	29	192	5
NMSCL	29	192	5	96	48	2
NMTAP	29	192	7
NMTAP	29	240	6
NMTAP	29	288	3
NMTAP	29	336	1
NMSTR	30	0	0
NMSXL	30	0	0	96	96	4
NMTAP	30	48	1
NMTAP	30	48	7
NMTAP	30	96	6
NMTAP	30	192	5
BRTAP	30	288	1
BRTAP	30	288	4
NMTAP	31	0	6
NMTAP	31	32	6
NMTAP	31	48	7
NMTAP	31	80	0
NMTAP	31	80	5
NMTAP	31	128	2
NMTAP	31	144	3
NMTAP	31	192	1
NMTAP	31	224	1
NMTAP	31	240	0
NMTAP	31	272	2
NMTAP	31	272	7
NMTAP	31	320	5
NMTAP	31	336	4
NMSTR	32	0	6
NMSI_	32	0	6	96	48	3
NMSTR	32	48	3
NMSI_	32	48	3	96	48	7
NMTAP	32	48	7
NMTAP	32	96	2
NMTAP	32	96	6
NMTAP	32	144	2
NMTAP	32	192	1
NMTAP	32	240	0
NMTAP	32	288	6
NMTAP	32	288	7
NMSTR	33	0	4
NMSCL	33	0	4	96	48	1
NMTAP	33	0	6
NMTAP	33	48	5
NMTAP	33	96	2
NMTAP	33	144	0
NMTAP	33	192	0
NMSTR	33	192	2
NMSCR	33	192	2	96	48	5
NMTAP	33	240	1
NMTAP	33	288	4
NMTAP	33	336	6
NMSTR	34	0	7
NMSXR	34	0	7	96	96	3
NMTAP	34	48	0
NMTAP	34	48	6
NMTAP	34	96	1
NMTAP	34	192	2
BRTAP	34	288	3
BRTAP	34	288	6
NMTAP	35	0	1
NMTAP	35	32	1
NMTAP	35	48	0
NMTAP	35	80	2
NMTAP	35	80	7
NMTAP	35	128	5
NMTAP	35	144	4
NMTAP	35	192	6
NMTAP	35	224	6
NMTAP	35	240	7
NMTAP	35	272	0
NMTAP	35	272	5
NMTAP	35	320	2
NMTAP	35	336	3
NMSTR	36	0	1
NMSI_	36	0	1	96	48	3
NMSTR	36	48	0
NMSI_	36	48	0	96	48	4
NMTAP	36	96	1
NMTAP	36	144	0
NMSTR	36	192	1
NMSLR	36	192	1	96	96	5
NMSTR	36	288	5
NMSLR	36	288	5	96	96	1
NMTAP	37	0	7
NMTTP	37	96	7	B	0	M1
NMTTP	37	192	0	C	0	M1
NMTTP	37	288	3	B	0	M1
NMHLD	38	0	0	96
NMHLD	38	0	6	96
NMSTR	38	192	7
NMSCL	38	192	7	96	48	3
NMSCR	38	192	7	96	48	3
EXTAP	38	288	7
NMTAP	39	0	2
NMTAP	39	48	2
NMTAP	39	48	3
NMTAP	39	96	4
NMTAP	39	96	5
NMTAP	39	144	3
NMTAP	39	144	6
NMTAP	39	192	5
NMTAP	39	224	5
NMTAP	39	240	4
NMTAP	39	288	2
NMTAP	39	288	3
NMTAP	39	336	0
NMTAP	39	336	1
NMTAP	40	0	6
NMTAP	40	32	6
NMTAP	40	48	7
NMTAP	40	96	5
NMTAP	40	144	4
NMTAP	40	144	5
NMSTR	40	192	2
NMSUL	40	192	2	96	48	6
NMTAP	40	224	2
NMTAP	40	240	3
NMTAP	40	288	6
NMTAP	41	0	5
NMTAP	41	48	4
NMTAP	41	48	5
NMTAP	41	96	6
NMTAP	41	96	7
NMTAP	41	144	0
NMTAP	41	144	5
NMTAP	41	192	1
NMTAP	41	224	1
NMTAP	41	240	0
NMTAP	41	288	2
NMTAP	41	288	3
NMTAP	41	336	1
NMTAP	41	336	4
NMTAP	42	0	2
NMTAP	42	32	2
NMTAP	42	48	3
NMTAP	42	96	4
NMTAP	42	96	5
NMTAP	42	144	3
NMTAP	42	144	6
NMHLD	42	192	4	48
NMTAP	42	192	5
NMTAP	42	240	7
NMHLD	42	288	5	48
NMTAP	42	336	7
NMTAP	43	0	1
NMTAP	43	48	0
NMTAP	43	48	1
NMTAP	43	96	2
NMTAP	43	128	2
NMTAP	43	144	3
NMTAP	43	176	3
NMHLD	43	192	1	48
NMTAP	43	240	0
NMTAP	43	288	7
NMTAP	43	336	2
NMTAP	43	336	6
NMTAP	44	0	5
NMTAP	44	48	4
NMTAP	44	48	6
NMTAP	44	96	7
NMTAP	44	128	7
NMTAP	44	144	0
NMTAP	44	176	0
NMHLD	44	192	6	48
NMTAP	44	240	5
NMTAP	44	288	4
NMTAP	44	336	3
NMTAP	44	336	7
NMTAP	45	0	2
NMTAP	45	48	0
NMTAP	45	48	2
NMTAP	45	96	6
NMTAP	45	144	0
NMTAP	45	144	6
NMTAP	45	192	1
NMTAP	45	224	1
NMTAP	45	240	0
NMTAP	45	288	2
NMTAP	45	288	3
NMTAP	45	336	1
NMTAP	45	336	4
NMTAP	46	0	6
NMTAP	46	32	6
NMTAP	46	48	4
NMTAP	46	80	4
NMTAP	46	96	3
NMTAP	46	144	1
NMSTR	46	192	0
NMSF_	46	192	0	96	48	4
NMHLD	47	0	1	192
NMTAP	47	192	2
NMTAP	47	272	0
NMTAP	47	272	3
NMTAP	47	336	4
NMTAP	47	336	7
NMTAP	48	0	5
NMHLD	48	0	6	192
NMTAP	48	192	5
NMTAP	48	272	4
NMTAP	48	272	7
NMTAP	48	336	0
NMTAP	48	336	3
NMHLD	49	0	1	192
NMTAP	49	0	2
NMTAP	49	192	2
NMTAP	49	272	0
NMTAP	49	272	3
NMTAP	49	336	4
NMTAP	49	336	7
NMTAP	50	0	5
NMTAP	50	0	6
NMTAP	50	48	4
NMTAP	50	48	7
NMTAP	50	96	5
NMTAP	50	96	6
NMTAP	50	144	4
NMTAP	50	144	7
NMSTR	50	192	0
NMSI_	50	192	0	96	48	3
NMSTR	50	192	3
NMSI_	50	192	3	96	48	7
NMHLD	51	0	2	672
NMTTP	51	96	1	A	0	M1
NMTTP	51	96	1	D	0	M1
NMTTP	51	192	4	B	0	M1
NMTTP	51	288	1	A	0	M1
NMTTP	51	288	1	D	0	M1
NMTTP	52	0	3	E	0	M1
NMTTP	52	96	0	D	0	M1
NMTTP	52	96	7	A	0	M1
NMTTP	52	192	1	A	0	M1
NMTTP	52	192	1	D	0	M1
NMTTP	52	288	3	A	0	M1
NMTTP	52	288	3	D	0	M1
NMHLD	53	0	4	672
NMTTP	53	96	5	A	0	M1
NMTTP	53	96	6	D	0	M1
NMTTP	53	192	2	B	0	M1
NMTTP	53	288	5	A	0	M1
NMTTP	53	288	6	D	0	M1
NMTTP	54	0	4	E	0	M1
NMTTP	54	96	7	A	0	M1
NMTTP	54	96	7	D	0	M1
NMTTP	54	192	5	A	0	M1
NMTTP	54	192	6	D	0	M1
NMTTP	54	288	3	A	0	M1
NMTTP	54	288	4	D	0	M1
NMTAP	55	0	2
NMTAP	55	0	5
NMTAP	55	96	1
NMTAP	55	96	5
NMTAP	55	144	1
NMTAP	55	144	4
NMTAP	55	192	1
NMTAP	55	192	3
NMTAP	55	240	1
NMTAP	55	288	1
NMTAP	55	288	2
NMTAP	55	336	1
NMTAP	55	336	3
NMTAP	56	0	1
NMTAP	56	0	4
NMTAP	56	48	5
NMTAP	56	96	1
NMTAP	56	96	6
NMTAP	56	144	2
NMTAP	56	144	6
NMTAP	56	192	3
NMTAP	56	192	6
NMTAP	56	240	4
NMTAP	56	240	6
NMSTR	56	288	5
NMSUR	56	288	5	96	48	2
NMSTR	56	288	6
NMSCR	56	288	6	96	48	1
EXTAP	57	96	1
NMTAP	57	128	2
NMTAP	57	160	3
EXTAP	57	192	1
EXTAP	57	192	4
NMTAP	57	224	2
NMTAP	57	256	3
EXHLD	57	288	1	48
EXTAP	57	288	4
NMHLD	57	336	0	48
NMHLD	58	0	7	48
NMHLD	58	48	6	48
NMHLD	58	96	5	48
NMHLD	58	144	4	48
NMTAP	58	192	3
NMTAP	58	288	2
NMTAP	58	288	5
NMSTR	59	0	1
NMSI_	59	0	1	96	48	3
NMHLD	59	0	6	288
NMTTP	59	48	0	A	0	M1
NMSTR	59	192	2
NMSI_	59	192	2	96	48	4
NMTTP	59	240	1	A	0	M1
NMSTR	60	0	3
NMSI_	60	0	3	96	48	5
NMHLD	60	0	7	192
NMTTP	60	48	2	A	0	M1
CNSI_	60	144	5	0	48	1
NMHLD	61	0	1	288
NMSTR	61	0	6
NMSI_	61	0	6	96	48	4
NMTTP	61	48	7	A	0	M1
NMSTR	61	192	5
NMSI_	61	192	5	96	48	3
NMTTP	61	240	6	A	0	M1
NMHLD	62	0	0	192
NMSTR	62	0	4
NMSI_	62	0	4	96	48	2
NMTTP	62	48	5	A	0	M1
CNSI_	62	144	2	0	48	6
CNSCR	62	192	6	0	96	1
NMSTR	63	0	2
NMSI_	63	0	2	96	48	0
NMHLD	63	0	5	288
NMTTP	63	48	3	A	0	M1
NMSTR	63	192	1
NMSI_	63	192	1	96	48	7
NMTTP	63	240	2	A	0	M1
NMSTR	64	0	0
NMSI_	64	0	0	96	48	6
NMHLD	64	0	4	192
NMTTP	64	48	1	A	0	M1
CNSI_	64	144	6	0	48	2
NMTAP	64	288	3
NMTAP	64	288	5
NMHLD	65	0	1	96
NMTAP	65	48	3
NMTAP	65	96	2
NMHLD	65	192	5	96
NMTAP	65	240	3
NMTAP	65	288	4
NMTAP	66	0	6
NMTAP	66	0	7
NMTAP	66	32	6
NMTAP	66	32	7
NMTAP	66	64	6
NMTAP	66	64	7
NMSTR	66	96	0
BRSI_	66	96	0	96	48	4
NMSTR	66	96	1
BRSI_	66	96	1	96	48	5
NMTAP	66	128	0
NMTAP	66	128	1
NMTAP	66	160	0
NMTAP	66	160	1
EXTAP	66	192	0
EXTAP	66	192	1
NMSTR	67	0	4
NMSCL	67	0	4	96	48	1
NMTAP	67	0	6
NMTAP	67	48	5
NMTAP	67	96	2
NMTAP	67	96	4
NMTAP	67	144	0
NMTAP	67	192	0
NMSTR	67	192	2
NMSCR	67	192	2	96	48	5
NMTAP	67	240	1
NMTAP	67	288	2
NMTAP	67	288	4
NMTAP	67	336	6
NMSTR	68	0	6
NMSI_	68	0	6	96	48	3
NMTAP	68	48	7
NMSTR	68	96	2
NMSI_	68	96	2	96	48	7
NMTAP	68	144	1
BRTAP	68	288	0
BRTAP	68	288	4
NMTAP	69	0	1
NMTAP	69	32	1
NMTAP	69	48	0
NMTAP	69	80	2
NMTAP	69	80	7
NMTAP	69	128	5
NMTAP	69	144	4
NMTAP	69	192	6
NMTAP	69	224	6
NMTAP	69	240	7
NMTAP	69	272	0
NMTAP	69	272	5
NMTAP	69	320	2
NMTAP	69	336	3
NMSTR	70	0	1
NMSI_	70	0	1	96	48	4
NMTAP	70	48	0
NMSTR	70	48	4
NMSI_	70	48	4	96	48	0
NMTAP	70	96	1
NMTAP	70	96	5
NMTAP	70	144	5
NMTAP	70	192	6
NMTAP	70	240	7
NMTAP	70	288	0
NMTAP	70	288	1
NMTAP	71	0	1
NMSTR	71	0	3
NMSCR	71	0	3	96	48	6
NMTAP	71	48	2
NMTAP	71	96	3
NMTAP	71	96	5
NMTAP	71	144	7
NMSTR	71	192	5
NMSCL	71	192	5	96	48	2
NMTAP	71	192	7
NMTAP	71	240	6
NMTAP	71	288	3
NMTAP	71	288	5
NMTAP	71	336	1
NMSTR	72	0	1
NMSI_	72	0	1	96	48	4
NMTAP	72	48	0
NMSTR	72	96	5
NMSI_	72	96	5	96	48	0
NMTAP	72	144	6
BRTAP	72	288	3
BRTAP	72	288	7
NMTAP	73	0	6
NMTAP	73	32	6
NMTAP	73	48	7
NMTAP	73	80	0
NMTAP	73	80	5
NMTAP	73	128	2
NMTAP	73	144	3
NMTAP	73	192	1
NMTAP	73	224	1
NMTAP	73	240	0
NMTAP	73	272	2
NMTAP	73	272	7
NMTAP	73	320	4
NMTAP	73	336	3
NMSTR	74	0	5
NMSI_	74	0	5	96	48	7
NMSTR	74	48	4
NMSI_	74	48	4	96	48	0
NMTAP	74	96	5
NMTAP	74	144	4
NMSTR	74	192	5
NMSLL	74	192	5	96	96	1
NMSTR	74	288	1
NMSLL	74	288	1	96	96	5
NMTAP	75	0	7
NMTTP	75	96	3	B	0	M1
NMTTP	75	192	0	C	0	M1
NMTTP	75	288	7	B	0	M1
NMHLD	76	0	0	96
NMHLD	76	0	6	96
NMSTR	76	192	0
NMSUR	76	192	0	96	48	4
NMSTR	76	192	1
NMSUR	76	192	1	96	48	5
BRTAP	76	288	0
BRTAP	76	288	1
NMHLD	77	0	6	288
NMSTR	77	0	7
NMSI_	77	0	7	96	48	4
NMTAP	77	96	7
NMTAP	77	192	5
NMTAP	77	240	7
NMTAP	77	288	0
NMTAP	77	336	1
NMHLD	78	0	2	288
NMSTR	78	0	3
NMSI_	78	0	3	96	48	0
NMTAP	78	96	3
NMSTR	78	192	1
NMSCR	78	192	1	96	48	4
NMHLD	79	0	5	288
NMSTR	79	0	7
NMSI_	79	0	7	96	48	4
NMTAP	79	96	7
NMTAP	79	192	6
NMTAP	79	240	7
NMTAP	79	288	0
NMTAP	79	336	1
NMHLD	80	0	2	96
NMTAP	80	96	3
NMSTR	80	192	0
NMSI_	80	192	0	96	48	3
NMSTR	80	192	3
NMSI_	80	192	3	96	48	0
EXTAP	80	288	0
EXTAP	80	288	3

T_REC_TAP	440
T_REC_BRK	12
T_REC_XTP	12
T_REC_BXX	0
T_REC_HLD	56
T_REC_XHO	1
T_REC_BHO	0
T_REC_BXH	0
T_REC_STR	69
T_REC_BST	0
T_REC_XST	2
T_REC_XBS	0
T_REC_TTP	42
T_REC_THO	0
T_REC_SLD	68
T_REC_BSL	4
T_REC_ALL	706
T_NUM_TAP	565
T_NUM_BRK	16
T_NUM_HLD	57
T_NUM_SLD	68
T_NUM_ALL	706
T_JUDGE_TAP	577
T_JUDGE_HLD	195
T_JUDGE_SLD	72
T_JUDGE_ALL	844
TTM_EACHPAIRS	151
TTM_SCR_TAP	282500
TTM_SCR_BRK	41600
TTM_SCR_HLD	57000
TTM_SCR_SLD	102000
TTM_SCR_ALL	483100
TTM_SCR_S	467100
TTM_SCR_SS	481500
TTM_RAT_ACV	10033

