VERSION	0.00.00	1.04.00
FES_MODE	0
BPM_DEF	123.000	123.000	123.000	123.000
MET_DEF	4	4
RESOLUTION	384
CLK_DEF	384
COMPATIBLE_CODE	MA2

BPM	0	0	123.000
MET	0	0	4	4

EXTAP	1	0	3
EXHLD	1	48	3	96
NMHLD	1	240	2	96
NMHLD	1	240	4	96
NMHLD	2	48	3	96
NMHLD	2	48	5	96
NMHLD	2	240	4	96
NMHLD	3	48	2	96
NMHLD	3	48	3	96
NMHLD	3	240	3	96
NMHLD	3	240	4	96
EXTAP	4	0	3
EXTAP	4	0	4
EXTAP	4	96	3
EXTAP	4	96	4
EXTAP	4	192	2
EXTAP	4	192	5
NMTAP	5	0	2
NMTAP	5	48	2
NMTAP	5	96	2
NMTAP	5	192	1
NMTAP	5	192	7
NMTAP	5	288	0
NMTAP	5	288	6
NMTAP	6	0	5
NMTAP	6	48	5
NMTAP	6	96	5
NMTAP	6	192	0
NMTAP	6	192	6
NMTAP	6	288	1
NMTAP	6	288	7
NMTAP	7	0	2
NMTAP	7	48	2
NMTAP	7	96	3
NMTAP	7	192	5
NMTAP	7	288	4
NMTAP	7	288	5
NMTAP	8	0	2
NMTAP	8	48	2
NMTAP	8	96	3
NMTAP	8	192	2
NMTAP	8	192	4
NMTAP	8	288	1
NMTAP	8	288	5
NMTAP	9	0	6
NMTAP	9	48	6
NMTAP	9	96	7
NMTAP	9	192	1
NMTAP	9	288	0
NMTAP	9	288	1
NMTAP	10	0	6
NMTAP	10	48	6
NMTAP	10	96	7
NMTAP	10	192	0
NMTAP	10	192	6
NMTAP	10	288	1
NMTAP	10	288	5
NMHLD	11	0	2	96
NMTAP	11	0	4
NMHLD	11	96	0	96
NMHLD	11	192	7	96
NMTAP	11	288	5
NMTAP	12	0	2
NMTAP	12	0	4
NMTAP	12	48	2
NMTAP	12	48	4
NMTAP	12	96	2
NMTAP	12	96	4
BRTAP	12	192	1
BRTAP	12	192	5
EXTAP	13	0	2
EXTAP	13	0	4
EXHLD	13	80	2	208
EXHLD	13	80	4	160
NMTAP	14	0	3
NMTAP	14	0	5
NMHLD	14	80	3	160
NMHLD	14	80	5	208
NMTAP	15	0	2
NMTAP	15	0	3
NMHLD	15	80	2	160
NMHLD	15	80	3	208
NMTAP	16	0	3
NMTAP	16	0	4
NMTAP	16	72	3
NMTAP	16	72	4
NMTAP	16	144	2
NMHLD	16	144	5	96
BRTAP	16	240	0
BRTAP	16	288	0
NMHLD	17	0	1	96
NMTAP	17	0	7
NMHLD	17	96	2	96
NMHLD	17	192	3	192
NMTAP	17	288	4
NMHLD	18	0	2	96
NMHLD	18	96	3	96
NMHLD	18	192	4	192
NMTAP	18	288	5
NMSTR	19	0	5
NMSI_	19	0	5	96	96	1
NMTAP	19	192	0
NMTAP	19	288	0
NMSTR	20	0	1
NMSCL	20	0	1	96	96	6
BRTAP	20	192	4
NMTAP	20	288	4
NMTAP	21	0	3
NMHLD	21	0	4	768
NMTTP	21	192	4	B	0	M1
NMTTP	21	192	5	E	0	M1
NMTTP	21	288	6	E	0	M1
NMTTP	22	0	7	B	0	M1
NMTTP	22	0	7	E	0	M1
NMTAP	22	192	0
NMTAP	22	288	1
NMHLD	23	0	2	768
NMTTP	23	192	3	B	0	M1
NMTTP	23	192	3	E	0	M1
NMTTP	23	288	2	E	0	M1
NMTTP	24	0	0	B	0	M1
NMTTP	24	0	1	E	0	M1
NMTAP	24	192	7
NMTAP	24	288	7
NMHLD	25	0	7	864
NMTTP	25	192	4	B	0	M1
NMTTP	25	192	5	B	0	M1
NMTTP	25	288	2	B	0	M1
NMTTP	25	288	3	B	0	M1
NMTHO	26	0	0	192	C	0	M1
NMHLD	27	0	0	96
NMTAP	27	192	0
NMTAP	27	192	7
NMHLD	27	288	1	288
NMSTR	27	288	6
NMSUL	27	288	6	96	192	3
NMSTR	29	0	1
NMSI_	29	0	1	96	48	3
NMSTR	29	96	0
NMSI_	29	96	0	96	48	4
NMSTR	29	192	1
NMSI_	29	192	1	96	48	3
BRTAP	29	288	7
EXHLD	30	0	6	48
EXHLD	30	0	7	48
EXTAP	30	72	6
EXTAP	30	72	7
EXTAP	30	120	0
EXTAP	30	120	5
BXHLD	30	168	1	24
BXHLD	30	168	4	24
NMTAP	30	336	2
NMTAP	30	336	3
NMHLD	31	0	1	72
NMTAP	31	0	3
NMHLD	31	72	2	72
NMTAP	31	144	3
NMHLD	31	192	6	72
NMHLD	31	264	5	72
NMTAP	31	336	4
NMTAP	32	0	2
NMTAP	32	48	2
NMTAP	32	96	3
NMTAP	32	144	1
NMTAP	32	192	7
NMTAP	32	240	6
EXTAP	32	288	0
EXTAP	32	288	5
NMSTR	33	0	6
NMSI_	33	0	6	96	48	4
NMSTR	33	96	7
NMSI_	33	96	7	96	48	3
NMSTR	33	192	6
NMSI_	33	192	6	96	48	4
BRTAP	33	288	0
EXHLD	34	0	0	48
EXHLD	34	0	1	48
EXTAP	34	72	0
EXTAP	34	72	1
EXTAP	34	120	2
EXTAP	34	120	7
BXHLD	34	168	3	24
BXHLD	34	168	6	24
NMTAP	34	336	4
NMTAP	34	336	5
NMTAP	35	0	4
NMHLD	35	0	6	72
NMHLD	35	72	5	72
NMTAP	35	144	4
NMHLD	35	192	1	72
NMHLD	35	264	2	72
NMTAP	35	336	3
NMTAP	36	0	5
NMTAP	36	48	5
NMTAP	36	96	4
NMTAP	36	144	6
NMTAP	36	192	0
NMTAP	36	240	1
EXTAP	36	288	2
EXTAP	36	288	7
NMSTR	37	0	0
NMSI_	37	0	0	96	48	4
NMTAP	37	0	1
NMTAP	37	192	2
NMSTR	37	288	1
NMSCR	37	288	1	96	48	4
NMSTR	37	288	7
NMSCL	37	288	7	96	48	4
NMTTP	38	192	0	B	1	M1
NMTTP	38	192	1	B	0	M1
NMTTP	38	192	7	B	0	M1
NMTAP	39	0	5
NMTAP	39	48	5
NMTAP	39	96	4
NMTAP	39	192	3
NMTAP	39	192	6
NMTAP	39	288	2
NMTAP	39	288	4
NMTAP	40	0	1
NMTAP	40	48	1
NMTAP	40	96	0
NMTAP	40	192	2
NMTAP	40	192	7
NMTAP	40	288	0
NMTAP	40	288	6
NMTAP	41	0	5
NMTAP	41	48	5
NMTAP	41	96	4
NMTAP	41	192	2
NMHLD	41	288	1	96
NMTAP	41	288	3
NMHLD	42	0	0	96
NMHLD	42	96	7	96
NMTAP	42	192	5
NMTAP	42	288	3
NMTAP	42	288	6
NMTAP	43	0	1
NMTAP	43	48	1
NMTAP	43	96	0
NMTAP	43	192	1
NMTAP	43	192	7
NMTAP	43	288	0
NMTAP	43	288	5
NMTAP	44	0	6
NMTAP	44	48	6
NMTAP	44	96	7
NMTAP	44	192	0
NMTAP	44	192	6
NMTAP	44	288	1
NMTAP	44	288	7
NMTAP	45	0	3
NMHLD	45	0	5	96
NMHLD	45	96	4	96
NMHLD	45	192	3	96
NMTAP	45	288	2
NMTAP	46	0	4
NMTAP	46	48	4
NMTAP	46	96	3
NMTAP	46	96	5
BRTAP	46	192	1
BRTAP	46	192	7
NMHLD	47	0	2	192
NMSTR	47	0	4
NMSCR	47	0	4	96	96	0
NMSTR	48	0	3
NMSCL	48	0	3	96	96	7
NMHLD	48	0	5	192
NMTAP	49	0	3
NMSTR	49	0	6
NMSI_	49	0	6	96	96	2
NMSTR	49	192	0
NMSI_	49	192	0	96	96	4
NMSTR	50	0	5
NMSI_	50	0	5	96	96	0
NMTAP	50	192	1
NMTAP	50	288	0
NMTAP	50	288	1
NMSTR	51	0	2
BRSCR	51	0	2	96	96	5
NMTAP	51	0	7
NMHLD	51	192	6	192
NMSTR	52	0	7
BRSCR	52	0	7	96	96	2
NMHLD	52	192	3	192
NMSTR	53	0	1
BRSCL	53	0	1	96	96	6
NMHLD	53	192	5	192
NMSTR	54	0	4
BRSCL	54	0	4	96	96	1
BXTAP	54	192	7
NMTAP	54	288	7
BXHLD	55	0	0	1152
BXTAP	55	0	6
NMTTP	55	192	7	E	0	M1
NMTTP	55	288	0	C	0	M1
NMTTP	56	0	3	E	0	M1
NMTTP	56	96	2	E	0	M1
NMTTP	56	192	0	E	0	M1
NMTTP	56	288	7	E	0	M1
NMTTP	57	0	6	E	0	M1
NMTTP	57	96	0	C	0	M1
NMTTP	57	192	2	E	0	M1
NMTTP	57	288	3	E	0	M1
NMTTP	58	0	4	E	0	M1
NMTTP	58	96	2	B	0	M1
NMTTP	58	96	3	E	0	M1
NMTTP	58	96	5	B	0	M1
NMTTP	58	96	5	E	0	M1
NMTTP	58	192	0	C	0	M1
NMTTP	58	192	1	B	0	M1
NMTTP	58	192	6	B	0	M1
NMHLD	59	0	7	96
NMHLD	59	96	0	96
NMHLD	59	192	1	96
BXHLD	59	288	2	480
NMTAP	60	0	3
NMTAP	60	96	3
NMTAP	60	192	4
NMTAP	60	288	3
NMHLD	61	0	1	96
NMHLD	61	96	0	96
NMHLD	61	192	7	96
NMSTR	61	288	6
NMSUL	61	288	6	96	192	1
EXTAP	62	192	7
EXTAP	62	288	7
NMHLD	63	0	0	96
NMHLD	63	96	7	96
NMHLD	63	192	6	96
BXHLD	63	288	5	576
NMTAP	64	0	4
NMTAP	64	96	4
NMTAP	64	192	3
NMTAP	64	288	4
NMHLD	65	0	4	96
BXHLD	65	192	2	96
NMHLD	65	192	3	96
NMTTP	66	0	0	C	1	M1
NMTTP	66	0	2	B	0	M1
NMTTP	66	0	3	B	0	M1
NMSTR	67	0	1
NMSI_	67	0	1	96	48	4
NMSTR	67	96	0
NMSI_	67	96	0	96	48	5
NMSTR	67	192	1
NMSI_	67	192	1	96	48	4
BRTAP	67	288	6
NMHLD	68	0	6	48
NMHLD	68	0	7	48
NMTAP	68	72	6
NMTAP	68	72	7
NMTAP	68	120	0
NMTAP	68	120	5
BRHLD	68	168	1	24
BRHLD	68	168	4	24
NMTAP	68	336	2
NMTAP	68	336	3
NMHLD	69	0	2	72
NMTAP	69	0	3
NMHLD	69	72	1	72
NMTAP	69	144	0
NMHLD	69	192	5	72
NMHLD	69	264	6	72
NMTAP	69	336	7
NMTAP	70	0	1
NMTAP	70	48	1
NMTAP	70	96	0
NMTAP	70	144	2
NMTAP	70	192	4
NMTAP	70	240	5
EXTAP	70	288	3
EXTAP	70	288	6
NMSTR	71	0	6
NMSI_	71	0	6	96	48	3
NMSTR	71	96	7
NMSI_	71	96	7	96	48	2
NMSTR	71	192	6
NMSI_	71	192	6	96	48	3
BRTAP	71	288	1
NMHLD	72	0	0	48
NMHLD	72	0	1	48
NMTAP	72	72	0
NMTAP	72	72	1
NMTAP	72	120	2
NMTAP	72	120	7
BRHLD	72	168	3	24
BRHLD	72	168	6	24
NMTAP	72	336	0
NMTAP	72	336	5
NMHLD	73	0	0	72
NMHLD	73	0	5	48
NMTAP	73	144	2
NMTAP	73	144	7
NMHLD	73	192	2	48
NMHLD	73	192	7	72
NMTAP	73	336	3
NMTAP	74	0	3
NMSTR	74	0	4
NMSI_	74	0	4	96	48	6
NMSTR	74	96	2
NMSI_	74	96	2	96	48	0
NMSTR	74	192	7
NMSI_	74	192	7	96	48	3
EXTAP	74	288	0
BRHLD	75	0	1	288
NMTAP	75	192	3
NMSTR	75	288	2
NMSI_	75	288	2	96	48	6
NMSTR	76	192	7
NMSI_	76	192	7	96	48	2
NMSI_	76	192	7	96	48	4
BXTAP	77	0	1
BXTAP	77	0	5
NMTAP	77	144	3
NMHLD	77	192	3	96
NMHLD	78	0	2	96
NMHLD	78	0	4	96
NMTAP	78	144	2
NMTAP	78	144	4
NMHLD	78	192	2	96
NMHLD	78	192	4	96
NMHLD	79	0	3	96
NMHLD	79	0	5	96
NMTAP	79	144	3
NMTAP	79	144	5
NMHLD	79	192	3	96
NMHLD	79	192	5	96
NMHLD	80	0	4	96
NMTAP	80	144	4
NMSTR	80	192	4
NMSI_	80	192	4	96	48	2
NMSI_	80	192	4	96	48	6

T_REC_TAP	182
T_REC_BRK	11
T_REC_XTP	26
T_REC_BXX	4
T_REC_HLD	80
T_REC_XHO	7
T_REC_BHO	5
T_REC_BXH	8
T_REC_STR	34
T_REC_BST	0
T_REC_XST	0
T_REC_XBS	0
T_REC_TTP	38
T_REC_THO	1
T_REC_SLD	32
T_REC_BSL	4
T_REC_ALL	432
T_NUM_TAP	280
T_NUM_BRK	32
T_NUM_HLD	88
T_NUM_SLD	32
T_NUM_ALL	432
T_JUDGE_TAP	295
T_JUDGE_HLD	307
T_JUDGE_SLD	36
T_JUDGE_ALL	638
TTM_EACHPAIRS	94
TTM_SCR_TAP	140000
TTM_SCR_BRK	83200
TTM_SCR_HLD	88000
TTM_SCR_SLD	48000
TTM_SCR_ALL	359200
TTM_SCR_S	345350
TTM_SCR_SS	356000
TTM_RAT_ACV	10089

