VERSION	0.00.00	1.04.00
FES_MODE	0
BPM_DEF	133.000	133.000	133.000	133.000
MET_DEF	4	4
RESOLUTION	384
CLK_DEF	384
COMPATIBLE_CODE	MA2

BPM	0	0	133.000
MET	0	0	4	4

NMSTR	1	288	2
NMSCR	1	288	2	96	144	5
NMSTR	2	96	6
NMSUL	2	96	6	96	144	2
NMSTR	2	288	1
NMSXR	2	288	1	96	240	6
NMSTR	3	288	5
NMSCL	3	288	5	96	144	2
NMSTR	4	96	1
NMSUR	4	96	1	96	144	5
NMSTR	4	288	6
NMSI_	4	288	6	96	96	0
CNSI_	5	96	0	0	96	4
CNSI_	5	192	4	0	96	2
NMHLD	5	288	1	96
NMSTR	6	0	3
NMSCR	6	0	3	96	96	6
NMTAP	6	96	2
NMSTR	6	192	0
NMSCR	6	192	0	96	96	3
NMTAP	6	288	7
NMSTR	7	0	5
NMSCR	7	0	5	96	96	0
NMTAP	7	96	4
NMTAP	7	192	2
NMSTR	7	288	1
NMSI_	7	288	1	96	96	6
NMTAP	8	0	3
NMSTR	8	96	5
NMSCL	8	96	5	96	96	2
NMTAP	8	192	7
NMHLD	8	288	0	192
NMTAP	9	0	3
NMTAP	9	48	3
NMSTR	9	96	3
NMSI_	9	96	3	96	48	7
NMTAP	9	144	3
BXTAP	9	192	2
BXTAP	9	192	3
BRTAP	10	0	1
BRTAP	10	0	7
NMTAP	10	48	6
NMTAP	10	96	3
NMTAP	10	96	5
NMTAP	10	144	1
NMTAP	10	144	7
NMTAP	10	192	2
NMTAP	10	240	2
NMTAP	10	240	4
NMTAP	10	288	5
NMTAP	10	336	3
NMTAP	10	336	5
NMTAP	11	0	0
NMTAP	11	0	6
NMTAP	11	48	1
NMTAP	11	96	2
NMTAP	11	96	4
NMTAP	11	144	1
NMTAP	11	144	5
NMTAP	11	192	6
NMTAP	11	240	3
NMTAP	11	240	5
NMTAP	11	288	2
NMTAP	11	336	3
NMTAP	11	336	5
NMTAP	12	0	0
NMTAP	12	0	6
NMTAP	12	48	1
NMTAP	12	96	2
NMTAP	12	96	4
NMTAP	12	144	0
NMTAP	12	144	6
NMTAP	12	192	5
NMTAP	12	224	5
NMTAP	12	240	4
NMTAP	12	288	2
NMTAP	12	320	2
NMTAP	12	336	3
NMTAP	13	0	7
NMTAP	13	32	7
NMTAP	13	48	0
NMTAP	13	96	2
NMTAP	13	128	2
NMTAP	13	144	4
NMTAP	13	176	4
NMTAP	13	192	3
NMSTR	13	240	1
NMSCR	13	240	1	96	48	4
NMSTR	13	240	5
NMSCR	13	240	5	96	48	0
NMTAP	13	288	2
NMTAP	13	288	6
NMTAP	13	336	1
NMTAP	13	336	5
BXTAP	14	48	3
BXTAP	14	48	7
NMTAP	14	96	6
NMTAP	14	144	4
NMTAP	14	144	5
NMSTR	14	192	4
NMSI_	14	192	4	96	48	0
NMSTR	14	192	5
NMSI_	14	192	5	96	48	7
EXTAP	14	240	3
EXTAP	14	240	6
EXTAP	15	0	0
EXTAP	15	0	7
NMHLD	15	48	1	48
NMHLD	15	96	3	48
NMHLD	15	144	4	48
NMHLD	15	192	6	48
NMTAP	15	240	4
NMTAP	15	272	4
NMSTR	15	288	5
NMSI_	15	288	5	96	48	3
NMTAP	15	336	6
NMTAP	16	0	2
NMTAP	16	0	5
NMTAP	16	48	1
NMTAP	16	96	0
NMTAP	16	144	1
NMTAP	16	144	5
NMTAP	16	192	6
NMTAP	16	224	6
NMTAP	16	240	4
NMSTR	16	288	4
NMSUL	16	288	4	96	96	3
NMTAP	16	288	5
BRTAP	17	176	1
BRTAP	17	176	5
NMHLD	17	288	6	864
NMTAP	18	0	4
NMTAP	18	96	3
NMTAP	18	144	3
NMTAP	18	192	3
NMTAP	18	288	4
NMTAP	19	0	5
NMTAP	19	48	5
NMSTR	19	96	5
NMSCL	19	96	5	96	96	2
NMHLD	20	0	1	768
NMTAP	20	96	3
NMTAP	20	144	3
NMTAP	20	192	3
NMTAP	20	288	2
NMTAP	21	0	3
NMTAP	21	48	3
NMSTR	21	96	3
NMSUL	21	96	3	96	96	7
NMHLD	22	0	6	672
NMTAP	22	96	4
NMTAP	22	144	4
NMTAP	22	192	4
NMTAP	22	288	2
NMTAP	23	0	3
NMTAP	23	48	3
NMSTR	23	96	3
NMSI_	23	96	3	96	96	7
EXTAP	23	336	0
EXTAP	23	336	7
EXTAP	24	0	0
EXTAP	24	0	7
NMTAP	24	48	3
NMTAP	24	96	4
NMTAP	24	96	6
EXTAP	24	144	0
EXTAP	24	144	7
EXTAP	24	192	0
EXTAP	24	192	7
NMTAP	24	240	4
NMTAP	24	288	1
NMSTR	24	288	3
NMSI_	24	288	3	96	48	6
NMTAP	25	0	2
NMSTR	25	0	3
NMSI_	25	0	3	96	48	0
NMSTR	25	96	3
NMSI_	25	96	3	96	48	7
NMTAP	25	96	5
NMHLD	25	192	1	96
NMTAP	25	192	3
NMTAP	25	288	7
NMTAP	25	336	3
NMTAP	25	336	5
NMTAP	26	0	2
NMTAP	26	0	6
NMTAP	26	48	5
NMTAP	26	80	5
NMTAP	26	96	4
NMTAP	26	144	6
NMTAP	26	176	6
NMTAP	26	192	0
NMTAP	26	240	1
NMTAP	26	272	1
NMTAP	26	288	3
NMTAP	26	336	6
NMTAP	26	368	6
NMTAP	27	0	4
NMTAP	27	48	3
NMTAP	27	48	5
NMSTR	27	96	6
NMSXL	27	96	6	96	144	3
NMTAP	27	144	4
NMTAP	27	144	7
NMTAP	27	192	3
NMTAP	27	336	0
NMTAP	28	0	1
NMTAP	28	0	4
NMTAP	28	48	2
NMTAP	28	80	2
NMTAP	28	96	3
NMTAP	28	144	1
NMTAP	28	176	1
NMTAP	28	192	7
NMTAP	28	240	6
NMTAP	28	272	6
NMTAP	28	288	4
NMTAP	28	336	1
BRSTR	29	0	0
NMSXL	29	0	0	96	144	4
BRSTR	29	0	4
NMSXL	29	0	4	96	144	0
EXTAP	29	288	2
EXTAP	29	288	6
EXTAP	29	336	2
EXTAP	29	336	6
NMTAP	30	0	3
NMTAP	30	0	5
NMTAP	30	48	6
NMTAP	30	80	6
NMTAP	30	96	7
NMTAP	30	144	5
NMTAP	30	176	5
NMTAP	30	192	3
NMTAP	30	240	1
NMTAP	30	272	1
NMTAP	30	288	0
NMTAP	30	336	6
NMTAP	30	368	6
NMTAP	31	0	7
NMTAP	31	48	0
NMTAP	31	48	5
NMSTR	31	96	2
NMSXL	31	96	2	96	144	0
NMTAP	31	144	1
NMTAP	31	144	4
NMTAP	31	192	7
NMTAP	31	336	5
NMTAP	32	0	3
NMTAP	32	0	4
NMTAP	32	48	2
NMTAP	32	80	1
NMTAP	32	80	3
NMTAP	32	128	6
NMTAP	32	144	6
NMTAP	32	144	7
NMTAP	32	192	5
NMTAP	32	224	4
NMTAP	32	224	6
NMTAP	32	272	1
NMTAP	32	288	0
NMTAP	32	288	1
NMTAP	32	336	3
NMTAP	32	336	4
NMTAP	33	0	2
NMTAP	33	0	5
NMTAP	33	48	6
NMTAP	33	80	6
NMTAP	33	96	4
NMTAP	33	128	4
NMTAP	33	144	3
NMTAP	33	176	3
NMTAP	33	192	1
NMTAP	33	224	1
NMTAP	33	240	4
NMTAP	33	272	4
NMSTR	33	288	2
NMSI_	33	288	2	96	96	6
NMTAP	33	336	3
NMHLD	34	0	4	192
CNSLR	34	96	6	0	112	4
CNSI_	34	208	4	0	80	1
EXSTR	34	288	5
NMSI_	34	288	5	96	96	0
EXTAP	34	336	5
NMHLD	35	0	3	192
CNSLR	35	96	0	0	96	4
CNSI_	35	192	4	0	96	6
EXSTR	35	288	2
NMSI_	35	288	2	96	96	7
EXTAP	35	336	2
NMHLD	36	0	4	192
CNSLL	36	96	7	0	96	3
CNSI_	36	192	3	0	96	0
NMTAP	36	288	5
NMTAP	37	0	6
NMTAP	37	32	6
NMTAP	37	48	4
NMTAP	37	96	2
NMTAP	37	128	2
NMTAP	37	144	3
NMTAP	37	192	4
NMTAP	37	224	4
NMTAP	37	240	3
NMTAP	37	272	3
NMSTR	37	288	5
NMSI_	37	288	5	96	96	1
NMTAP	37	336	4
NMHLD	38	0	3	192
CNSLL	38	96	1	0	112	3
CNSI_	38	208	3	0	80	6
EXSTR	38	288	2
NMSI_	38	288	2	96	96	6
EXTAP	38	336	2
NMHLD	39	0	4	192
CNSLL	39	96	6	0	96	1
CNSI_	39	192	1	0	96	3
NMTAP	39	288	5
NMTAP	39	336	6
NMHLD	40	0	0	32
NMHLD	40	0	7	32
NMHLD	40	64	1	32
NMHLD	40	64	3	32
NMHLD	40	128	4	32
NMHLD	40	128	5	32
NMHLD	40	192	0	32
NMHLD	40	192	6	32
NMHLD	40	256	1	32
NMHLD	40	256	2	32
NMHLD	40	320	4	32
NMHLD	40	320	6	32
EXTAP	41	0	2
EXTAP	41	0	4
EXTAP	41	48	2
EXSTR	41	48	4
BRSF_	41	48	4	96	48	0
EXTAP	41	96	3
EXTAP	41	96	5
BXTAP	41	144	4
BXSTR	41	288	2
NMSI_	41	288	2	96	48	4
BRTAP	41	288	5
BRTAP	41	336	0
BRTAP	41	336	7
NMTAP	42	0	2
NMSTR	42	0	6
NMSI_	42	0	6	96	48	0
NMTAP	42	48	7
NMTAP	42	96	3
NMTAP	42	96	6
NMTAP	42	144	2
NMTAP	42	192	0
NMTAP	42	192	1
NMTAP	42	224	0
NMTAP	42	224	1
NMTAP	42	272	2
NMHLD	42	272	7	64
NMTAP	42	336	4
NMTAP	43	0	3
NMTAP	43	0	5
NMTAP	43	48	2
NMTAP	43	80	2
NMSTR	43	96	4
NMSI_	43	96	4	96	48	0
NMSI_	43	96	4	96	48	1
NMTAP	43	144	3
NMTAP	43	144	5
NMTAP	43	192	4
NMTAP	43	288	0
NMTAP	43	336	7
NMTAP	44	0	4
NMSTR	44	0	6
NMSI_	44	0	6	96	48	0
NMTTP	44	80	3	E	1	M1
EXTAP	44	80	6
NMTAP	44	144	2
NMSTR	44	192	1
NMSI_	44	192	1	96	48	7
NMTAP	44	192	3
EXTAP	44	272	1
NMTTP	44	272	5	E	1	M1
NMTAP	44	336	6
NMTAP	45	0	6
NMTAP	45	0	7
NMTAP	45	48	5
NMTAP	45	80	5
NMSTR	45	96	4
NMSI_	45	96	4	96	48	1
NMSI_	45	96	4	96	48	7
NMTAP	45	144	3
NMTAP	45	144	5
BRTAP	45	288	2
BXSTR	45	288	5
NMSI_	45	288	5	96	48	3
NMTAP	45	336	0
NMTAP	45	336	7
NMSTR	46	0	1
NMSI_	46	0	1	96	48	7
NMTAP	46	0	5
NMTAP	46	48	0
NMTAP	46	96	1
NMTAP	46	96	4
NMTAP	46	144	5
NMTAP	46	192	6
NMTAP	46	192	7
NMTAP	46	240	0
NMTAP	46	240	5
NMHLD	46	272	0	64
NMTAP	46	272	5
NMTAP	46	336	3
NMTAP	47	0	5
NMTAP	47	48	6
NMTAP	47	80	6
NMSTR	47	96	7
NMSF_	47	96	7	96	48	3
NMTAP	47	144	0
NMTAP	47	144	6
NMTAP	47	192	7
NMTAP	47	288	4
NMTAP	47	336	2
NMTAP	48	0	0
NMSTR	48	0	1
NMSI_	48	0	1	96	48	6
EXTAP	48	80	1
NMTTP	48	80	4	E	1	M1
NMTAP	48	144	5
NMSTR	48	192	6
NMSI_	48	192	6	96	48	1
NMTAP	48	192	7
NMTTP	48	272	4	E	1	M1
EXTAP	48	272	6
NMTAP	48	336	2
NMTAP	49	0	0
NMTAP	49	0	1
NMTAP	49	48	2
NMTAP	49	48	3
NMSTR	49	96	4
BRSCL	49	96	4	96	48	1
NMSTR	49	96	5
BRSUL	49	96	5	96	48	0
NMTAP	49	144	6
NMTAP	49	144	7
NMTAP	50	0	0
NMTAP	50	0	6
NMTAP	50	48	1
NMTAP	50	80	1
NMTAP	50	96	4
NMTAP	50	128	4
NMTAP	50	144	2
NMTAP	50	176	2
NMTAP	50	192	5
NMTAP	50	224	5
NMTAP	50	240	3
NMTAP	50	272	3
NMTAP	50	288	6
NMTAP	50	320	6
NMTAP	50	336	4
NMTAP	51	0	1
NMTAP	51	0	7
NMTAP	51	48	6
NMTAP	51	80	6
NMTAP	51	96	3
NMTAP	51	128	3
NMTAP	51	144	5
NMTAP	51	176	5
NMTAP	51	192	2
NMTAP	51	224	2
NMTAP	51	240	4
NMTAP	51	272	4
NMTAP	51	288	1
NMTAP	51	320	1
NMTAP	51	336	3
NMTAP	52	0	0
NMTAP	52	0	6
NMTAP	52	48	2
NMTAP	52	80	2
NMTAP	52	96	4
NMTAP	52	144	1
NMTAP	52	144	7
NMTAP	52	192	5
NMTAP	52	224	5
NMTAP	52	240	3
NMTAP	52	288	0
NMTAP	52	288	6
NMTAP	52	336	0
NMTAP	52	336	6
BRHLD	53	0	1	48
BRHLD	53	0	3	48
BRTAP	53	80	4
BRTAP	53	80	6
BRTAP	53	144	0
BRTAP	53	144	7
NMTAP	53	240	3
NMTAP	53	240	4
NMTAP	53	288	2
NMTAP	53	288	5
NMTAP	54	0	6
NMTAP	54	0	7
NMTAP	54	48	4
NMTAP	54	96	0
NMTAP	54	96	1
NMHLD	54	144	3	80
NMTAP	54	224	5
NMTAP	54	256	6
NMTAP	54	288	0
NMTAP	54	288	7
NMTAP	54	320	1
NMTAP	54	352	2
NMTAP	55	0	3
NMTAP	55	0	4
NMTAP	55	48	4
NMTAP	55	48	5
NMTAP	55	96	4
NMTAP	55	96	6
NMTAP	55	144	7
NMTAP	55	192	2
NMTAP	55	192	3
NMTAP	55	240	0
NMTAP	55	240	1
NMTAP	55	288	6
NMTAP	55	288	7
NMTAP	55	336	4
NMTAP	55	336	5
NMSTR	56	0	6
NMSI_	56	0	6	96	48	3
NMTAP	56	48	3
NMTAP	56	96	2
NMTAP	56	144	1
NMTAP	56	192	0
NMTAP	56	240	2
NMTAP	56	240	3
NMTAP	56	288	1
NMTAP	56	288	4
NMTAP	56	320	1
NMTAP	56	320	4
NMTAP	56	352	1
NMTAP	56	352	4
NMTAP	57	0	1
NMTAP	57	0	4
NMTAP	57	48	0
NMTAP	57	96	3
NMTAP	57	96	5
NMTAP	57	144	3
NMTAP	57	144	5
NMTAP	57	192	4
NMTAP	57	192	6
NMTAP	57	240	4
NMTAP	57	240	6
NMTAP	57	272	3
NMTAP	57	272	5
NMTAP	57	304	2
NMTAP	57	304	4
BRTAP	57	336	1
BRSTR	57	336	3
NMSCR	57	336	3	96	48	6
NMTAP	58	48	2
NMSTR	58	48	3
NMSI_	58	48	3	96	48	0
NMTAP	58	96	1
NMTAP	58	144	3
NMTAP	58	144	4
NMHLD	58	192	5	48
NMHLD	58	240	7	48
NMHLD	58	288	0	48
NMHLD	58	336	2	48
NMTAP	59	0	4
NMTAP	59	48	3
NMTAP	59	48	5
NMTAP	59	96	1
NMTAP	59	144	0
NMTAP	59	144	2
NMTAP	59	192	6
NMTAP	59	240	5
NMTAP	59	240	7
NMSTR	59	288	0
NMSI_	59	288	0	96	48	4
NMTAP	59	336	0
NMTAP	60	0	0
NMTAP	60	0	5
NMTAP	60	48	5
NMSTR	60	96	6
NMSI_	60	96	6	96	48	2
NMTAP	60	144	6
NMTAP	60	192	1
NMTAP	60	192	6
NMTAP	60	240	1
NMTAP	60	288	0
NMTAP	60	288	7
NMTAP	60	336	0
NMTAP	60	336	7
NMTAP	61	0	3
NMTAP	61	0	5
NMTAP	61	48	6
NMTAP	61	80	6
NMTAP	61	96	7
NMTAP	61	128	7
NMTAP	61	144	5
NMTAP	61	176	5
NMTAP	61	192	4
NMTAP	61	224	4
NMTAP	61	240	6
NMTAP	61	272	6
NMTAP	61	288	7
NMTAP	61	336	4
NMTAP	61	336	5
NMTAP	62	0	2
NMTAP	62	0	4
NMTAP	62	48	1
NMTAP	62	80	1
NMTAP	62	96	0
NMTAP	62	128	0
NMTAP	62	144	2
NMTAP	62	176	2
NMTAP	62	192	3
NMTAP	62	224	3
NMTAP	62	240	1
NMTAP	62	272	1
NMTAP	62	288	0
NMTAP	62	336	2
NMTAP	62	336	3
NMTAP	63	0	3
NMTAP	63	0	5
NMTAP	63	48	2
NMTAP	63	48	6
NMTAP	63	80	5
NMTAP	63	96	3
NMTAP	63	128	2
NMTAP	63	144	4
NMTAP	63	176	5
NMTAP	63	192	3
NMTAP	63	224	2
NMTAP	63	240	4
NMTAP	63	272	5
NMTAP	63	288	3
NMTAP	63	336	4
NMTAP	63	336	5
NMHLD	64	0	5	48
NMHLD	64	0	7	48
NMHLD	64	96	0	48
NMHLD	64	96	2	48
NMHLD	64	192	5	48
NMHLD	64	192	7	48
NMHLD	64	288	0	48
NMHLD	64	288	2	48
NMTAP	65	0	1
NMTTP	65	0	4	B	0	M1
NMTTP	65	0	5	B	0	M1
NMTTP	65	0	5	E	1	M1
NMTTP	65	80	2	B	0	M1
NMTTP	65	80	3	B	0	M1
NMTTP	65	80	3	E	1	M1
NMTAP	65	80	6
NMTTP	65	144	0	A	0	M1
NMTTP	65	144	1	E	0	M1
NMTTP	65	144	1	D	0	M1
NMTTP	65	144	4	A	0	M1
NMTTP	65	144	5	E	1	M1
NMTTP	65	144	5	D	0	M1
BRTAP	65	288	2
BXSTR	65	288	5
NMSI_	65	288	5	96	48	3
BRTAP	65	336	0
BRTAP	65	336	7
NMSTR	66	0	1
NMSI_	66	0	1	96	48	7
NMTAP	66	0	5
NMTAP	66	48	0
NMTAP	66	96	1
NMSTR	66	96	4
NMSI_	66	96	4	96	48	2
NMTAP	66	144	5
NMHLD	66	192	1	144
CNSUR	66	240	2	0	48	7
NMTAP	66	336	0
NMTAP	67	0	2
NMTAP	67	0	6
NMTAP	67	48	5
NMTAP	67	80	5
NMSTR	67	96	4
NMSCL	67	96	4	96	48	1
NMSCR	67	96	4	96	48	7
NMTAP	67	144	3
NMTAP	67	144	5
EXTAP	67	192	4
NMTAP	67	288	4
NMTAP	67	336	2
NMSTR	68	0	1
NMSI_	68	0	1	96	48	4
NMTAP	68	0	3
EXTAP	68	80	1
NMTTP	68	80	6	E	1	M1
NMTAP	68	144	7
NMTAP	68	192	4
NMSTR	68	192	6
NMSI_	68	192	6	96	48	3
NMTTP	68	272	2	E	1	M1
EXTAP	68	272	6
NMTAP	68	336	1
NMTAP	69	0	0
NMTAP	69	0	1
NMTAP	69	48	2
NMTAP	69	80	2
NMSTR	69	96	3
NMSI_	69	96	3	96	48	0
NMSI_	69	96	3	96	48	6
NMTAP	69	144	1
NMTAP	69	144	4
BXSTR	69	288	2
NMSI_	69	288	2	96	48	4
BRTAP	69	288	5
NMTAP	69	336	0
NMTAP	69	336	7
NMTAP	70	0	2
NMSTR	70	0	6
NMSI_	70	0	6	96	48	0
NMTAP	70	48	7
NMSTR	70	96	3
NMSI_	70	96	3	96	48	5
NMTAP	70	96	6
NMTAP	70	144	2
NMHLD	70	192	6	144
CNSUL	70	240	5	0	48	0
NMTAP	70	336	7
NMTAP	71	0	1
NMTAP	71	0	5
NMTAP	71	48	2
NMTAP	71	80	2
NMSTR	71	96	3
NMSSR	71	96	3	96	96	7
NMTAP	71	144	2
NMTAP	71	144	4
NMTAP	71	192	3
NMTAP	71	288	2
NMTAP	71	336	7
NMTAP	72	0	3
NMSTR	72	0	6
NMSI_	72	0	6	96	48	3
NMTTP	72	80	0	E	1	M1
EXTAP	72	80	6
NMTAP	72	144	1
NMSTR	72	192	2
NMSCL	72	192	2	96	48	7
NMTAP	72	192	4
EXTAP	72	272	2
NMTTP	72	272	4	E	1	M1
NMTAP	72	336	5
EXTAP	73	0	6
EXTAP	73	0	7
EXTAP	73	48	4
EXTAP	73	48	5
EXSTR	73	96	0
BRSF_	73	96	0	96	48	4
EXTAP	73	96	1
EXTAP	73	144	2
EXTAP	73	144	3
BRTAP	73	192	0
BRSTR	73	288	2
NMSI_	73	288	2	96	48	4
BRSTR	73	288	6
NMSI_	73	288	6	96	48	0
BRTAP	73	336	3
BRTAP	73	336	7
NMSTR	74	0	2
NMSV_	74	0	2	96	48	1
NMSTR	74	0	6
NMSV_	74	0	6	96	48	5
EXTAP	74	96	2
EXTAP	74	96	6
NMTAP	74	192	0
NMTAP	74	224	0
NMTAP	74	240	7
NMTAP	74	272	7
NMSTR	74	288	2
NMSCL	74	288	2	96	48	7
NMTAP	74	336	3
NMSTR	75	0	5
NMSCL	75	0	5	96	48	2
NMTAP	75	48	6
NMSTR	75	96	0
NMSI_	75	96	0	96	48	4
NMSCL	75	96	0	96	48	5
NMTAP	75	144	1
NMTAP	75	288	3
NMHLD	75	288	6	48
NMTAP	75	336	4
NMSTR	75	368	4
BRSI_	75	368	4	96	48	7
NMTAP	76	0	5
BRTAP	76	80	2
NMTTP	76	80	4	A	1	M1
NMTAP	76	144	0
NMSTR	76	176	0
BRSI_	76	176	0	96	48	3
NMTAP	76	192	7
NMTTP	76	272	0	A	1	M1
BRTAP	76	272	6
NMTAP	76	336	7
NMTAP	77	0	2
NMTAP	77	0	6
NMTAP	77	32	2
NMTAP	77	32	6
NMTAP	77	64	2
NMTAP	77	64	6
NMSTR	77	96	3
BRSCL	77	96	3	96	96	4
NMTAP	77	96	5
NMTAP	77	128	3
NMTAP	77	128	5
NMTAP	77	160	3
NMTAP	77	160	5
BXSTR	77	192	4
NMSV_	77	192	4	96	48	1
NMSV_	77	192	4	96	48	7
CNSI_	77	336	1	0	48	3
CNSI_	77	336	7	0	48	5
BRTAP	78	48	1
BRTAP	78	48	7
NMTAP	78	96	1
NMTAP	78	144	2
NMTAP	78	144	4
NMTAP	78	192	6
NMTAP	78	192	7
NMTAP	78	240	0
NMTAP	78	272	0
NMTAP	78	288	4
NMTAP	78	320	4
NMTAP	78	336	1
NMTAP	79	0	2
NMTAP	79	48	3
NMTAP	79	48	5
NMSTR	79	96	6
NMSI_	79	96	6	96	48	2
NMSTR	79	96	7
NMSI_	79	96	7	96	48	3
NMTAP	79	144	0
NMTAP	79	192	6
NMTAP	79	192	7
NMHLD	79	288	1	48
NMTAP	79	288	4
NMTAP	79	336	3
NMSTR	79	368	3
BRSV_	79	368	3	96	48	0
NMTAP	80	0	2
NMTTP	80	80	3	A	1	M1
BRTAP	80	80	5
NMTAP	80	144	7
NMSTR	80	176	7
BRSV_	80	176	7	96	48	4
NMTAP	80	192	0
BRTAP	80	272	1
NMTTP	80	272	7	A	1	M1
NMTAP	80	336	0
EXSTR	81	0	1
NMSI_	81	0	1	96	48	6
EXTAP	81	0	3
NMTAP	81	96	1
NMSTR	81	96	5
NMSI_	81	96	5	96	48	1
NMSTR	81	192	3
BRSI_	81	192	3	96	48	0
BRSI_	81	192	3	96	48	6
NMTAP	81	192	5
NMTAP	81	288	3
BRTAP	82	0	1
BRTAP	82	0	5
NMTAP	82	48	2
NMTAP	82	80	2
NMTAP	82	96	4
EXTAP	82	144	3
EXTAP	82	144	5
NMTAP	82	192	6
NMTAP	82	224	6
NMTAP	82	240	4
NMTAP	82	288	3
NMTAP	82	288	5
NMTAP	82	336	3
NMTAP	82	336	5
BXTAP	83	0	2
BXTAP	83	0	6
NMTAP	83	48	5
NMTAP	83	80	5
NMTAP	83	96	3
EXTAP	83	144	2
EXTAP	83	144	4
NMTAP	83	192	1
NMTAP	83	224	1
NMTAP	83	240	3
NMTAP	83	288	2
NMTAP	83	288	4
NMTAP	83	336	2
NMTAP	83	336	4
BXTAP	84	0	1
BXTAP	84	0	5
NMTAP	84	48	2
NMTAP	84	80	2
NMTAP	84	96	4
EXTAP	84	128	3
EXTAP	84	128	5
EXTAP	84	144	3
EXTAP	84	144	5
NMTAP	84	192	6
NMTAP	84	224	6
NMTAP	84	240	4
NMSTR	84	288	0
NMSI_	84	288	0	96	48	4
NMTAP	84	304	7
NMTAP	84	320	0
NMTAP	84	336	7
BRTAP	85	0	0
BRSTR	85	80	5
NMSXL	85	80	5	96	112	2
BRHLD	85	144	3	144

T_REC_TAP	555
T_REC_BRK	29
T_REC_XTP	51
T_REC_BXX	9
T_REC_HLD	46
T_REC_XHO	0
T_REC_BHO	3
T_REC_BXH	0
T_REC_STR	69
T_REC_BST	6
T_REC_XST	6
T_REC_XBS	5
T_REC_TTP	24
T_REC_THO	0
T_REC_SLD	82
T_REC_BSL	11
T_REC_ALL	896
T_NUM_TAP	705
T_NUM_BRK	63
T_NUM_HLD	46
T_NUM_SLD	82
T_NUM_ALL	896
T_JUDGE_TAP	754
T_JUDGE_HLD	123
T_JUDGE_SLD	93
T_JUDGE_ALL	970
TTM_EACHPAIRS	196
TTM_SCR_TAP	352500
TTM_SCR_BRK	163800
TTM_SCR_HLD	46000
TTM_SCR_SLD	123000
TTM_SCR_ALL	685300
TTM_SCR_S	658650
TTM_SCR_SS	679000
TTM_RAT_ACV	10092

