VERSION	0.00.00	1.04.00
FES_MODE	0
BPM_DEF	133.000	133.000	133.000	133.000
MET_DEF	4	4
RESOLUTION	384
CLK_DEF	384
COMPATIBLE_CODE	MA2

BPM	0	0	133.000
MET	0	0	4	4

NMSTR	2	0	0
NMSI_	2	0	0	96	96	4
NMSTR	2	0	1
NMSI_	2	0	1	96	96	3
NMSTR	3	0	6
NMSI_	3	0	6	96	96	4
NMSTR	3	0	7
NMSI_	3	0	7	96	96	3
NMSTR	4	0	0
NMSI_	4	0	0	96	96	5
NMSTR	4	0	1
NMSI_	4	0	1	96	96	4
NMSTR	5	0	0
NMSCR	5	0	0	96	96	3
NMSTR	5	0	7
NMSCL	5	0	7	96	96	4
NMTAP	6	0	2
NMHLD	6	0	3	288
NMTAP	6	96	2
NMTAP	6	192	1
NMTAP	6	288	1
NMHLD	7	0	2	288
NMTAP	7	0	3
NMTAP	7	96	3
NMTAP	7	192	4
NMTAP	7	288	4
NMTAP	8	0	2
NMTAP	8	0	3
NMTAP	8	96	1
NMTAP	8	96	4
NMTAP	8	192	3
NMTAP	8	192	5
NMTAP	8	288	4
NMTAP	8	288	6
NMTAP	9	0	6
NMTAP	9	0	7
NMTAP	9	48	6
NMTAP	9	48	7
NMTAP	9	96	6
NMTAP	9	96	7
NMTAP	9	144	6
NMTAP	9	144	7
BRTAP	9	192	0
BRTAP	9	192	5
NMTAP	10	0	2
NMTAP	10	0	7
NMTAP	10	96	0
NMTAP	10	96	1
NMTAP	10	192	2
NMTAP	10	240	2
NMTAP	10	288	3
NMTAP	11	0	3
NMTAP	11	0	4
NMTAP	11	96	4
NMTAP	11	96	5
NMTAP	11	192	6
NMTAP	11	288	6
NMTAP	11	288	7
NMTAP	12	0	0
NMTAP	12	0	5
NMTAP	12	96	6
NMTAP	12	96	7
NMTAP	12	192	5
NMTAP	12	240	5
NMTAP	12	288	4
NMTAP	13	0	3
NMTAP	13	0	4
NMSTR	13	96	1
NMSI_	13	96	1	96	96	5
BXTAP	14	48	6
BXTAP	14	48	7
NMTAP	14	144	0
EXTAP	14	240	1
EXTAP	14	240	4
EXTAP	14	288	1
EXTAP	14	288	4
NMTAP	15	0	2
NMTAP	15	0	3
NMTAP	15	96	3
NMTAP	15	96	4
NMTAP	15	192	5
NMTAP	15	288	6
NMTAP	15	288	7
NMTAP	16	0	0
NMTAP	16	0	5
NMTAP	16	96	6
NMTAP	16	96	7
NMTAP	16	192	2
NMTAP	16	192	7
NMTAP	16	288	0
NMTAP	16	288	1
NMSTR	17	0	7
NMSI_	17	0	7	96	48	3
BXTAP	17	176	0
NMHLD	18	0	1	576
NMTAP	18	192	3
NMTAP	19	0	2
NMTAP	19	192	3
NMHLD	20	0	5	576
NMTAP	20	192	4
NMTAP	21	0	3
NMTAP	21	192	4
NMHLD	22	0	6	576
NMTAP	22	192	5
NMTAP	23	0	7
NMTAP	23	192	0
NMSTR	23	288	1
NMSCR	23	288	1	96	48	3
NMSTR	24	96	5
NMSCL	24	96	5	96	48	3
NMTAP	24	288	1
NMTAP	25	0	2
NMTAP	25	0	3
NMTAP	25	96	4
NMTAP	25	96	5
NMHLD	25	192	0	96
NMHLD	25	192	7	96
NMTAP	26	0	6
NMTAP	26	96	5
NMTAP	26	144	5
NMTAP	26	192	4
NMTAP	26	192	5
NMTAP	26	288	6
NMTAP	26	288	7
NMTAP	27	0	0
NMTAP	27	0	1
NMTAP	27	96	2
NMTAP	27	96	3
NMTAP	27	192	4
NMTAP	27	192	5
NMTAP	27	288	4
NMTAP	27	288	6
NMTAP	28	0	4
NMTAP	28	0	5
NMTAP	28	96	2
NMTAP	28	144	2
NMTAP	28	192	2
NMTAP	28	192	3
NMTAP	28	288	0
NMTAP	28	288	1
NMHLD	29	0	6	80
NMHLD	29	80	5	64
NMTAP	29	144	4
NMTAP	29	192	4
NMTAP	29	288	2
NMTAP	29	288	4
NMTAP	30	0	2
NMTAP	30	0	3
NMTAP	30	96	1
NMTAP	30	144	1
NMTAP	30	192	0
NMTAP	30	192	1
NMTAP	30	288	6
NMTAP	30	288	7
NMTAP	31	0	4
NMTAP	31	0	5
NMTAP	31	96	2
NMTAP	31	144	2
NMTAP	31	192	0
NMTAP	31	192	2
NMTAP	31	288	1
NMTAP	31	288	7
EXHLD	32	0	6	72
EXHLD	32	72	5	72
EXHLD	32	144	4	72
EXHLD	32	216	3	72
EXTAP	32	288	2
NMTAP	33	0	0
NMTAP	33	0	2
NMTAP	33	96	1
NMTAP	33	96	7
NMTAP	33	192	0
NMSTR	33	192	6
NMSCL	33	192	6	96	48	3
NMHLD	34	0	1	288
NMTTP	34	96	3	B	0	M1
NMTTP	34	192	2	A	0	M1
NMTTP	34	288	3	E	0	M1
NMHLD	35	0	5	288
NMTTP	35	96	3	B	0	M1
NMTTP	35	192	4	A	0	M1
NMTTP	35	288	4	E	0	M1
NMHLD	36	0	2	288
NMTTP	36	96	4	B	0	M1
NMTTP	36	192	3	A	0	M1
NMTTP	36	288	4	E	0	M1
NMTAP	37	0	1
NMTAP	37	0	4
NMTAP	37	96	0
NMTAP	37	96	5
NMTAP	37	192	6
NMTAP	37	192	7
NMTAP	37	288	0
NMTAP	37	288	5
NMHLD	38	0	1	288
NMTTP	38	96	0	B	0	M1
NMTTP	38	192	2	E	0	M1
NMTTP	38	288	3	B	0	M1
NMHLD	39	0	4	288
NMTTP	39	96	5	B	0	M1
NMTTP	39	192	4	E	0	M1
NMTTP	39	288	2	B	0	M1
EXTAP	40	0	4
EXTAP	40	0	6
EXTAP	40	64	4
EXTAP	40	64	6
EXTAP	40	128	4
EXTAP	40	128	6
EXTAP	40	192	1
EXTAP	40	192	3
EXTAP	40	256	1
EXTAP	40	256	3
EXTAP	40	320	1
EXSTR	40	320	3
NMSF_	40	320	3	96	64	7
BXTAP	41	144	1
BXTAP	41	144	5
NMTAP	41	288	2
NMTAP	41	288	3
NMSTR	42	0	0
NMSI_	42	0	0	96	48	5
NMSTR	42	0	1
NMSI_	42	0	1	96	48	4
NMSTR	42	192	6
NMSI_	42	192	6	96	48	3
NMSTR	42	192	7
NMSI_	42	192	7	96	48	2
NMHLD	43	0	1	80
NMHLD	43	80	3	64
NMTAP	43	144	4
NMTAP	43	192	4
NMTAP	43	288	6
NMTAP	43	288	7
NMTAP	43	336	6
NMTAP	43	336	7
NMTAP	44	0	6
NMTAP	44	0	7
BXTAP	44	80	1
BXTAP	44	80	5
NMTAP	44	144	0
NMTAP	44	144	1
NMTAP	44	192	0
NMTAP	44	192	1
BXTAP	44	272	2
BXTAP	44	272	6
NMTAP	44	336	6
NMTAP	44	336	7
NMTAP	45	0	6
NMTAP	45	0	7
NMSTR	45	96	0
NMSUR	45	96	0	96	48	4
NMSTR	45	96	1
NMSCR	45	96	1	96	48	3
NMTAP	45	288	5
NMSTR	46	0	6
NMSI_	46	0	6	96	48	3
NMSTR	46	0	7
NMSI_	46	0	7	96	48	2
NMSTR	46	192	0
NMSI_	46	192	0	96	48	5
NMSTR	46	192	1
NMSI_	46	192	1	96	48	4
NMHLD	47	0	6	80
NMHLD	47	80	4	64
NMTAP	47	144	3
NMTAP	47	192	3
NMTAP	47	288	0
NMTAP	47	288	1
NMTAP	47	336	0
NMTAP	47	336	1
NMTAP	48	0	0
NMTAP	48	0	1
BXTAP	48	80	2
BXTAP	48	80	6
NMTAP	48	144	6
NMTAP	48	144	7
NMTAP	48	192	6
NMTAP	48	192	7
BXTAP	48	272	1
BXTAP	48	272	5
NMTAP	48	336	0
NMTAP	48	336	1
NMTAP	49	0	0
NMTAP	49	0	1
NMTAP	49	96	6
NMTAP	49	96	7
NMTAP	49	144	6
NMTAP	49	144	7
BRTAP	49	192	1
BRTAP	49	192	4
NMTAP	50	0	3
NMTAP	50	0	4
EXTAP	50	96	6
EXTAP	50	96	7
EXTAP	50	144	6
EXTAP	50	144	7
NMTAP	50	240	1
NMTAP	50	240	4
NMTAP	50	288	1
NMTAP	50	288	4
NMTAP	51	0	2
NMTAP	51	0	3
EXTAP	51	96	0
EXTAP	51	96	1
EXTAP	51	144	0
EXTAP	51	144	1
NMTAP	51	240	3
NMTAP	51	240	6
NMTAP	51	288	3
NMTAP	51	288	6
NMTAP	52	0	4
NMTAP	52	0	5
EXTAP	52	96	6
EXTAP	52	96	7
EXTAP	52	144	6
EXTAP	52	144	7
NMTAP	52	240	1
NMTAP	52	240	4
NMTAP	52	288	1
NMTAP	52	288	4
EXTAP	53	0	2
EXTAP	53	0	3
EXTAP	53	80	4
EXTAP	53	80	5
BXHLD	53	144	2	144
BXHLD	53	144	7	144
NMTAP	54	0	4
NMTAP	54	0	5
NMTAP	54	96	6
NMTAP	54	96	7
NMTAP	54	192	7
NMTAP	54	240	0
NMTAP	54	288	1
NMTAP	55	0	2
NMTAP	55	0	3
NMTAP	55	96	4
NMTAP	55	96	5
NMTAP	55	192	6
NMTAP	55	192	7
NMTAP	55	288	0
NMTAP	55	288	1
NMTAP	56	0	2
NMTAP	56	48	3
NMTAP	56	96	4
NMTAP	56	192	5
NMTAP	56	240	4
NMTAP	56	288	3
NMTAP	57	0	0
NMTAP	57	0	2
NMTAP	57	96	1
NMTAP	57	96	7
NMTAP	57	192	0
NMTAP	57	192	6
NMTAP	57	288	2
NMTAP	57	288	4
NMTAP	57	336	2
NMTAP	57	336	4
EXTAP	58	48	0
EXTAP	58	48	7
EXTAP	58	96	0
EXTAP	58	96	7
NMHLD	58	192	2	96
NMTAP	58	288	3
NMTAP	59	0	3
NMHLD	59	0	5	288
NMTAP	59	96	4
NMTAP	59	192	6
NMTAP	59	288	7
NMTAP	60	0	0
NMTAP	60	0	1
NMTAP	60	48	0
NMTAP	60	48	1
NMTAP	60	96	0
NMTAP	60	96	1
NMTAP	60	192	6
NMTAP	60	192	7
NMTAP	60	240	6
NMTAP	60	240	7
NMTAP	60	288	6
NMTAP	60	288	7
EXHLD	61	0	6	80
EXHLD	61	80	4	64
EXHLD	61	144	3	80
EXHLD	61	224	1	64
NMTAP	61	288	0
NMTAP	61	336	0
EXHLD	62	0	2	80
EXHLD	62	80	4	64
EXHLD	62	144	5	80
EXHLD	62	224	7	64
NMTAP	62	288	0
NMTAP	62	336	0
EXHLD	63	0	6	80
EXHLD	63	80	4	64
EXHLD	63	144	3	80
EXHLD	63	224	1	64
NMTAP	63	288	0
NMTAP	63	336	0
EXTAP	64	0	1
EXTAP	64	0	7
EXTAP	64	96	1
EXTAP	64	96	2
EXTAP	64	192	3
EXTAP	64	192	4
EXTAP	64	288	5
EXTAP	64	288	6
EXTAP	65	0	0
EXTAP	65	0	7
EXTAP	65	80	0
EXTAP	65	80	7
BXTAP	65	144	1
BXTAP	65	144	6
NMTAP	65	288	2
NMTAP	65	288	3
NMSTR	66	0	0
NMSI_	66	0	0	96	48	5
NMSTR	66	0	1
NMSI_	66	0	1	96	48	4
NMSTR	66	192	6
NMSI_	66	192	6	96	48	3
NMSTR	66	192	7
NMSI_	66	192	7	96	48	2
NMHLD	67	0	1	80
NMHLD	67	80	3	64
NMTAP	67	144	4
NMTAP	67	192	4
NMTAP	67	288	6
NMTAP	67	288	7
NMTAP	67	336	6
NMTAP	67	336	7
NMTAP	68	0	6
NMTAP	68	0	7
BXTAP	68	80	1
BXTAP	68	80	5
NMTAP	68	144	0
NMTAP	68	144	1
NMTAP	68	192	0
NMTAP	68	192	1
BXTAP	68	272	2
BXTAP	68	272	6
NMTAP	68	336	6
NMTAP	68	336	7
NMTAP	69	0	6
NMTAP	69	0	7
NMSTR	69	96	0
NMSUR	69	96	0	96	48	4
NMSTR	69	96	1
NMSCR	69	96	1	96	48	3
NMTAP	69	288	5
NMSTR	70	0	6
NMSI_	70	0	6	96	48	3
NMSTR	70	0	7
NMSI_	70	0	7	96	48	2
NMSTR	70	192	0
NMSI_	70	192	0	96	48	5
NMSTR	70	192	1
NMSI_	70	192	1	96	48	4
NMHLD	71	0	6	80
NMHLD	71	80	4	64
NMTAP	71	144	3
NMTAP	71	192	3
NMTAP	71	288	0
NMTAP	71	288	1
NMTAP	71	336	0
NMTAP	71	336	1
NMTAP	72	0	0
NMTAP	72	0	1
BXTAP	72	80	2
BXTAP	72	80	6
NMTAP	72	144	6
NMTAP	72	144	7
NMTAP	72	192	6
NMTAP	72	192	7
BXTAP	72	272	1
BXTAP	72	272	5
NMTAP	72	336	0
NMTAP	72	336	1
NMTAP	73	0	0
NMTAP	73	0	1
NMTAP	73	96	4
NMTAP	73	96	5
NMTAP	73	144	4
NMTAP	73	144	5
BRTAP	73	192	0
BRTAP	73	192	7
NMTAP	73	288	1
NMTAP	73	288	5
NMSTR	74	0	2
NMSI_	74	0	2	96	48	7
NMSTR	74	0	3
NMSI_	74	0	3	96	48	6
NMSTR	74	192	4
NMSI_	74	192	4	96	48	1
NMSTR	74	192	5
NMSI_	74	192	5	96	48	0
NMHLD	75	0	2	80
NMHLD	75	80	0	64
NMTAP	75	144	7
NMTAP	75	192	7
NMTAP	75	288	4
NMTAP	75	288	5
NMTAP	75	336	4
NMTAP	75	336	5
NMTAP	76	0	4
NMTAP	76	0	5
BXTAP	76	80	1
BXTAP	76	80	7
NMTAP	76	144	2
NMTAP	76	144	3
NMTAP	76	192	2
NMTAP	76	192	3
BXTAP	76	272	0
BXSTR	76	272	6
BRSXL	76	272	6	96	208	3
NMTAP	77	288	2
NMTAP	77	336	2
EXTAP	78	48	0
EXTAP	78	48	7
NMTAP	78	96	0
NMTAP	78	96	7
NMSTR	78	192	2
NMSI_	78	192	2	96	48	7
NMSTR	78	192	3
NMSI_	78	192	3	96	48	6
NMHLD	79	0	5	80
NMHLD	79	80	7	64
NMTAP	79	144	0
NMTAP	79	192	0
NMTAP	79	288	2
NMTAP	79	288	3
NMTAP	79	336	2
NMTAP	79	336	3
NMTAP	80	0	2
NMTAP	80	0	3
BXTAP	80	80	0
BXTAP	80	80	6
NMTAP	80	144	4
NMTAP	80	144	5
NMTAP	80	192	4
NMTAP	80	192	5
BXTAP	80	272	1
BXTAP	80	272	7
NMTAP	80	336	3
NMTAP	80	336	4
NMTAP	81	0	3
NMTAP	81	0	4
NMTAP	81	96	5
NMTAP	81	96	7
NMTAP	81	192	3
NMTAP	81	192	4
NMTAP	81	288	0
NMTAP	81	288	2
BRTAP	82	0	1
BRTAP	82	0	6
NMTAP	82	96	0
NMTAP	82	96	5
NMTAP	82	144	0
NMSTR	82	144	5
NMSI_	82	144	5	96	48	1
NMTAP	83	0	1
NMTAP	83	0	6
NMTAP	83	96	2
NMTAP	83	96	7
NMSTR	83	144	2
NMSI_	83	144	2	96	48	6
NMTAP	83	144	7
NMTAP	84	0	0
NMTAP	84	0	7
NMTAP	84	96	2
NMTAP	84	96	5
NMSTR	84	144	2
NMSI_	84	144	2	96	48	7
NMSTR	84	144	5
NMSI_	84	144	5	96	48	0
BRTAP	85	0	1
BRTAP	85	0	6
BRTAP	85	80	3
BRTAP	85	80	4
BRSTR	85	144	0
BRSXL	85	144	0	96	144	3
BRSTR	85	144	7
BRSXR	85	144	7	96	144	4

T_REC_TAP	335
T_REC_BRK	12
T_REC_XTP	50
T_REC_BXX	30
T_REC_HLD	28
T_REC_XHO	16
T_REC_BHO	0
T_REC_BXH	2
T_REC_STR	43
T_REC_BST	2
T_REC_XST	1
T_REC_XBS	1
T_REC_TTP	15
T_REC_THO	0
T_REC_SLD	44
T_REC_BSL	3
T_REC_ALL	582
T_NUM_TAP	444
T_NUM_BRK	50
T_NUM_HLD	44
T_NUM_SLD	44
T_NUM_ALL	582
T_JUDGE_TAP	489
T_JUDGE_HLD	156
T_JUDGE_SLD	47
T_JUDGE_ALL	692
TTM_EACHPAIRS	202
TTM_SCR_TAP	222000
TTM_SCR_BRK	130000
TTM_SCR_HLD	44000
TTM_SCR_SLD	66000
TTM_SCR_ALL	462000
TTM_SCR_S	443300
TTM_SCR_SS	457000
TTM_RAT_ACV	10109

