VERSION	0.00.00	1.04.00
FES_MODE	0
BPM_DEF	201.000	201.000	201.000	201.000
MET_DEF	4	4
RESOLUTION	384
CLK_DEF	384
COMPATIBLE_CODE	MA2

BPM	0	0	201.000
MET	0	0	4	4

NMTAP	2	0	2
NMTAP	2	48	4
NMTAP	2	96	3
NMTAP	2	144	5
NMHLD	2	192	4	96
NMTAP	2	288	5
NMTAP	3	0	3
NMTAP	3	48	3
NMTAP	3	96	4
NMHLD	3	144	2	96
NMHLD	3	240	4	144
NMTAP	3	336	3
NMTAP	4	0	3
NMTAP	4	144	5
NMTAP	4	168	5
NMTAP	4	192	3
NMTAP	4	240	4
NMTAP	4	288	2
NMTAP	4	336	3
NMHLD	5	0	1	96
NMTAP	5	96	2
NMTAP	5	192	2
NMTAP	5	192	3
NMTAP	5	264	3
NMTAP	5	264	4
NMTAP	5	336	4
NMTAP	5	336	5
NMTAP	6	0	4
NMTAP	6	0	5
NMTAP	6	144	4
NMTAP	6	160	5
NMTAP	6	176	4
NMTAP	6	192	5
NMTAP	6	288	3
NMTAP	6	288	4
NMTAP	7	0	2
NMTAP	7	0	4
NMTAP	7	144	3
NMTAP	7	160	2
NMTAP	7	176	3
NMTAP	7	192	2
NMTAP	7	288	3
NMTAP	7	288	4
NMTAP	8	0	3
NMTAP	8	0	5
NMTAP	8	144	5
NMTAP	8	168	5
NMTAP	8	192	3
NMTAP	8	240	4
NMTAP	8	288	2
NMTAP	8	336	3
NMHLD	9	0	1	192
NMTAP	9	192	0
NMTAP	9	240	0
NMTAP	9	288	1
NMTAP	9	336	7
NMTAP	10	0	2
NMTAP	10	0	6
NMTAP	10	48	3
NMTAP	10	96	5
NMTAP	10	144	1
NMTAP	10	192	3
NMTAP	10	288	2
NMTAP	10	288	4
NMTAP	11	0	5
NMTAP	11	48	5
NMTAP	11	96	3
NMHLD	11	144	2	96
NMTAP	11	144	4
NMHLD	11	240	3	96
NMTAP	11	336	2
NMTAP	12	0	2
NMTAP	12	48	4
NMTAP	12	96	1
NMTAP	12	144	5
NMTAP	12	192	0
NMTAP	12	240	3
NMTAP	12	288	2
NMTAP	12	336	4
NMTAP	13	0	3
NMHLD	13	0	5	96
NMTAP	13	96	4
NMTAP	13	192	6
NMTAP	13	192	7
NMTAP	13	288	0
NMTAP	13	288	5
NMSTR	14	0	1
NMSUR	14	0	1	96	192	4
NMTAP	14	0	4
NMTAP	14	288	7
NMTAP	15	0	3
NMSTR	15	0	6
NMSUL	15	0	6	96	192	3
NMTAP	15	288	0
NMTAP	16	0	1
NMHLD	16	0	5	192
NMTAP	16	192	3
NMTAP	16	216	2
NMTAP	16	240	1
NMTAP	16	264	0
NMTAP	16	288	7
NMTAP	16	312	6
NMTAP	16	336	5
NMTAP	16	360	4
NMTAP	17	0	7
NMTAP	17	24	6
NMTAP	17	48	5
NMTAP	17	72	4
NMTAP	17	96	6
NMTAP	17	120	5
NMTAP	17	144	4
NMTAP	17	168	3
NMTAP	17	192	5
NMTAP	17	216	4
NMTAP	17	240	3
NMTAP	17	264	2
NMTAP	17	288	4
NMTAP	17	312	3
NMTAP	17	336	2
NMTAP	17	360	1
NMHLD	18	0	0	768
BRTAP	18	0	3
NMTAP	20	0	5
NMSTR	20	48	5
NMSI_	20	48	5	96	48	1
NMTAP	20	144	3
NMHLD	20	192	3	144
NMTAP	20	288	0
NMSTR	20	336	0
NMSI_	20	336	0	96	48	4
NMTAP	21	48	2
NMTAP	21	96	2
NMSTR	21	192	1
NMSI_	21	192	1	96	48	4
NMSTR	21	192	5
NMSI_	21	192	5	96	48	0
NMTAP	22	0	2
NMSTR	22	48	2
NMSI_	22	48	2	96	48	6
NMTAP	22	144	4
NMHLD	22	192	4	144
NMTAP	22	288	7
NMSTR	22	336	7
NMSI_	22	336	7	96	48	3
NMTAP	23	48	5
NMTAP	23	96	5
NMSTR	23	192	2
NMSI_	23	192	2	96	48	7
NMSTR	23	192	6
NMSI_	23	192	6	96	48	3
NMTAP	24	0	1
NMTAP	24	0	5
NMSTR	24	96	0
NMSCR	24	96	0	96	48	3
NMTAP	24	144	4
NMTAP	24	192	0
NMTAP	24	192	5
NMSTR	24	288	7
NMSI_	24	288	7	96	48	2
NMTAP	24	336	2
NMTAP	25	0	1
NMTAP	25	0	7
NMSTR	25	96	0
NMSI_	25	96	0	96	48	5
NMSTR	25	96	4
NMSI_	25	96	4	96	48	1
NMTAP	25	144	0
NMTAP	25	144	4
NMTAP	25	192	0
NMTAP	25	192	4
NMSTR	25	288	2
NMSI_	25	288	2	96	48	5
NMSTR	25	288	6
NMSI_	25	288	6	96	48	1
NMTAP	25	336	2
NMTAP	25	336	6
NMSTR	26	0	2
NMSUR	26	0	2	96	480	4
BRSTR	26	0	6
BRSUR	26	0	6	96	480	0
NMTAP	27	288	3
NMTAP	27	312	4
NMTAP	27	336	3
NMSTR	28	0	1
NMSV_	28	0	1	96	48	4
BRSTR	28	0	5
BRSI_	28	0	5	96	48	0
NMTAP	28	96	1
NMTAP	28	96	5
BRTAP	28	192	3
NMTAP	28	192	7
NMTAP	28	288	0
NMTAP	28	288	6
NMTAP	28	336	1
NMTAP	28	336	5
NMHLD	29	0	2	24
NMTAP	29	0	4
NMHLD	29	48	2	24
NMTAP	29	96	0
NMHLD	29	96	2	24
NMHLD	29	144	2	24
NMHLD	29	192	2	24
NMTAP	29	192	5
NMHLD	29	240	2	24
NMHLD	29	288	2	24
NMTAP	29	288	3
NMHLD	29	336	2	24
BRSTR	30	0	2
BRSI_	30	0	2	96	48	7
NMSTR	30	0	6
NMSV_	30	0	6	96	48	3
NMTAP	30	96	2
NMTAP	30	96	6
BRTAP	30	192	0
NMTAP	30	192	4
BRTAP	30	288	1
NMTAP	30	288	7
NMTAP	30	336	2
BRTAP	30	336	6
BRTAP	31	0	3
NMHLD	31	0	5	96
BRTAP	31	96	7
BRTAP	31	144	0
BRTAP	31	144	4
NMSTR	31	192	3
NMSI_	31	192	3	96	48	7
NMSTR	31	240	1
NMSI_	31	240	1	96	48	4
NMTAP	31	288	3
NMTAP	31	336	1
EXSTR	32	0	7
NMSCL	32	0	7	96	48	5
NMSV_	32	0	7	96	48	4
BRSTR	32	96	7
NMSCR	32	96	7	96	48	1
NMSV_	32	96	7	96	48	2
BRTAP	32	192	7
BRTAP	32	288	4
BRTAP	32	288	5
BRTAP	32	336	3
BRTAP	32	336	6
BRHLD	33	0	2	48
BRHLD	33	0	7	48
BRTAP	33	96	0
BRTAP	33	96	5
BRTAP	33	144	0
BRTAP	33	144	5
BRTAP	33	192	6
BRTAP	33	216	7
BRTAP	33	240	6
BRTAP	33	264	7
BRSTR	33	288	5
BRSI_	33	288	5	96	48	2
BRTAP	33	312	4
BRTAP	33	336	5
BRTAP	33	360	4
BRTAP	34	0	5
NMTAP	34	96	1
NMTAP	34	96	7
NMTAP	34	144	2
NMTAP	34	168	3
NMTAP	34	192	1
NMTAP	34	240	5
NMTAP	34	264	4
NMSTR	34	288	6
NMSI_	34	288	6	96	48	2
NMTAP	34	336	7
NMSTR	35	0	0
NMSCR	35	0	0	96	48	3
NMTAP	35	0	6
NMTAP	35	96	0
NMSTR	35	96	4
BRSF_	35	96	4	96	48	0
NMTTP	35	192	0	B	0	M1
NMTTP	35	192	0	C	1	M1
NMTTP	35	192	0	A	0	M1
NMTTP	35	192	4	B	0	M1
NMTTP	35	192	4	A	0	M1
NMHLD	36	0	1	48
NMTAP	36	0	7
NMTAP	36	48	7
NMTAP	36	96	2
NMTAP	36	96	6
NMTAP	36	144	3
NMTAP	36	144	5
NMTAP	36	192	2
NMHLD	36	192	4	48
NMTAP	36	240	2
NMTAP	36	288	1
NMTAP	36	288	3
NMTAP	36	336	0
NMTAP	36	336	4
NMTAP	37	0	5
NMHLD	37	0	7	48
NMTAP	37	48	5
NMTAP	37	96	0
NMTAP	37	96	4
NMTAP	37	144	1
NMTAP	37	144	5
NMTAP	37	192	2
NMHLD	37	192	6	48
NMTAP	37	240	2
NMTAP	37	288	3
NMTAP	37	288	5
NMTAP	37	336	2
NMTAP	37	336	4
NMHLD	38	0	1	48
NMTAP	38	0	3
NMTAP	38	48	3
NMTAP	38	96	2
NMTAP	38	96	4
NMTAP	38	144	3
NMTAP	38	144	5
NMTAP	38	192	2
NMTAP	38	192	6
NMTAP	38	240	1
NMTAP	38	264	0
NMTAP	38	288	2
NMTAP	38	336	5
NMTAP	38	360	4
NMTAP	39	0	6
NMTAP	39	48	0
NMTAP	39	48	7
NMSTR	39	96	1
NMSSR	39	96	1	96	144	5
NMSTR	39	96	6
NMSSL	39	96	6	96	144	2
NMTAP	39	144	2
NMTAP	39	144	5
NMTAP	40	0	3
NMSTR	40	0	4
NMSI_	40	0	4	96	48	7
BRTAP	40	96	0
NMTAP	40	192	0
NMHLD	40	192	6	48
NMTAP	40	240	0
NMTAP	40	288	1
NMTAP	40	288	5
NMTAP	40	336	2
NMTAP	40	336	4
NMHLD	41	0	3	48
NMTAP	41	0	5
NMTAP	41	48	5
NMTAP	41	96	2
NMTAP	41	96	6
NMTAP	41	144	1
NMTAP	41	144	5
NMTAP	41	192	0
NMHLD	41	192	4	48
NMTAP	41	240	0
NMTAP	41	288	5
NMTAP	41	288	7
NMTAP	41	336	0
NMTAP	41	336	6
NMTAP	42	0	1
NMTAP	42	0	7
NMTAP	42	48	2
NMTAP	42	48	6
NMTAP	42	96	1
NMTAP	42	96	5
NMTAP	42	144	2
NMTAP	42	144	4
NMHLD	42	192	3	48
NMHLD	42	192	5	48
NMSTR	42	288	4
NMSUL	42	288	4	96	144	1
NMTAP	42	288	6
NMTAP	42	312	4
NMTAP	42	312	6
NMTTP	43	0	0	C	1	M1
NMSTR	43	192	7
BRSF_	43	192	7	96	48	3
NMTAP	43	288	7
BRSTR	44	0	1
NMSI_	44	0	1	96	48	5
BRTAP	44	0	5
NMSTR	44	96	4
NMSI_	44	96	4	96	48	0
NMTAP	44	192	2
NMTAP	44	288	7
NMTAP	44	312	6
NMTAP	44	336	5
NMTAP	44	360	4
NMSTR	45	0	1
NMSI_	45	0	1	96	48	4
NMTAP	45	0	3
NMTAP	45	48	1
NMSTR	45	96	5
NMSI_	45	96	5	96	48	1
NMTAP	45	144	5
NMTAP	45	192	0
NMTAP	45	288	4
NMSTR	45	288	6
NMSUL	45	288	6	96	144	3
NMSTR	46	0	1
NMSI_	46	0	1	96	48	4
NMTAP	46	192	1
NMTAP	46	192	5
NMTAP	46	288	0
NMTAP	46	312	1
NMTAP	46	336	2
NMTAP	46	360	3
NMTAP	47	0	4
NMSTR	47	0	6
NMSI_	47	0	6	96	48	3
NMTAP	47	48	6
NMSTR	47	96	2
NMSI_	47	96	2	96	48	7
NMSV_	47	96	2	96	48	5
NMTAP	47	144	2
NMTAP	47	288	4
NMTAP	47	300	3
NMTAP	47	312	2
NMTAP	47	324	1
NMTAP	47	336	0
NMTAP	47	348	7
NMTAP	47	360	6
NMTAP	47	372	5
BRSTR	48	0	3
NMSI_	48	0	3	96	48	6
BRSTR	48	0	4
NMSI_	48	0	4	96	48	1
NMSTR	48	96	3
NMSI_	48	96	3	96	48	7
NMTAP	48	96	4
NMTAP	48	192	3
NMTAP	48	192	4
NMTAP	48	288	0
NMTAP	48	288	5
NMTAP	48	312	1
NMTAP	48	336	2
NMTAP	48	360	3
NMTAP	49	0	4
NMSTR	49	0	6
NMSI_	49	0	6	96	48	3
NMTAP	49	48	6
NMSTR	49	96	2
NMSI_	49	96	2	96	48	6
NMTAP	49	144	2
NMSTR	49	192	7
NMSI_	49	192	7	96	48	3
NMTAP	49	240	7
NMTAP	49	288	0
NMTAP	49	336	0
NMSTR	50	0	1
NMSI_	50	0	1	96	48	4
NMSTR	50	0	5
NMSI_	50	0	5	96	48	0
NMTAP	50	96	1
NMTAP	50	96	5
NMSTR	50	192	2
NMSI_	50	192	2	96	48	7
NMSTR	50	192	6
NMSI_	50	192	6	96	48	3
NMTAP	50	288	2
NMTAP	50	288	6
NMTAP	51	0	0
NMTAP	51	0	4
NMTAP	51	48	1
NMTAP	51	48	5
NMSTR	51	96	2
NMSLL	51	96	2	96	96	5
NMSTR	51	96	6
NMSLL	51	96	6	96	96	1
NMTAP	51	144	3
NMTAP	51	144	7
BRTAP	51	192	2
BRTAP	51	192	6
BRTAP	52	0	2
BRSTR	52	0	5
NMSI_	52	0	5	96	48	2
NMTAP	52	96	0
NMTAP	52	96	5
NMTAP	52	144	1
NMTAP	52	168	7
NMTAP	52	192	1
NMTAP	52	240	6
NMTAP	52	264	0
NMTAP	52	288	6
NMTAP	52	336	2
NMTAP	52	360	3
NMTAP	53	0	1
NMTAP	53	48	5
NMTAP	53	72	4
NMTAP	53	96	6
NMTAP	53	144	1
NMTAP	53	168	0
NMTAP	53	192	2
NMTAP	53	216	7
NMTAP	53	240	3
NMTAP	53	264	6
NMHLD	53	288	0	48
NMTAP	53	336	4
NMTAP	53	360	2
BRSTR	54	0	7
NMSI_	54	0	7	96	48	3
NMTAP	54	96	0
NMTAP	54	96	7
NMTAP	54	144	1
NMTAP	54	168	5
NMTAP	54	192	1
NMTAP	54	240	7
NMTAP	54	264	3
NMTAP	54	288	7
NMTAP	54	336	2
NMTAP	54	360	3
NMTAP	55	0	1
NMTAP	55	0	4
NMTAP	55	72	3
NMTAP	55	72	6
NMTAP	55	144	0
NMTAP	55	144	7
NMTAP	55	192	0
NMTAP	55	204	1
NMTAP	55	216	2
NMTAP	55	228	3
NMTAP	55	240	4
NMTAP	55	252	5
NMTAP	55	264	6
NMTAP	55	276	7
NMTAP	55	288	0
NMTAP	55	300	1
NMTAP	55	312	2
NMTAP	55	324	3
NMTAP	55	336	4
NMTAP	55	348	5
NMTAP	55	360	6
NMTAP	55	372	7
NMSTR	56	0	0
NMTTP	56	0	0	C	1	M1
NMSI_	56	0	0	96	48	4
NMTAP	56	192	0
NMTAP	56	192	7
NMTAP	56	240	1
NMTAP	56	264	5
NMTAP	56	288	1
NMTAP	56	336	7
NMTAP	56	360	3
NMTAP	57	0	7
NMTAP	57	48	1
NMTAP	57	72	0
NMTAP	57	96	1
NMTAP	57	144	2
NMTAP	57	144	7
NMTAP	57	192	5
NMTAP	57	216	4
NMTAP	57	264	2
NMTAP	57	288	3
NMTAP	57	336	1
NMTAP	57	336	4
NMTAP	58	0	0
NMHLD	58	0	6	384
NMTAP	58	48	0
NMTAP	58	96	0
NMTAP	58	144	0
NMTAP	58	192	0
NMTAP	58	204	1
NMTAP	58	216	2
NMTAP	58	228	3
NMTAP	58	240	4
NMTAP	58	252	5
NMTAP	58	276	7
NMTAP	58	288	0
NMTAP	58	296	1
NMTAP	58	304	2
NMTAP	58	312	3
NMTAP	58	320	4
NMTAP	58	328	5
NMTAP	58	344	7
NMTAP	58	352	0
NMTAP	58	360	1
NMTAP	58	368	2
NMTAP	58	376	3
BRSTR	59	0	4
NMSI_	59	0	4	96	288	0
BRHLD	60	0	4	384
NMSTR	61	0	0
NMSCR	61	0	0	96	96	3
NMSTR	61	96	3
BRSCR	61	96	3	96	96	6
CNSCR	61	192	3	0	96	6
NMSTR	61	192	6
BRSCR	61	192	6	96	96	1
NMTAP	61	288	1
BRSTR	62	0	3
NMSI_	62	0	3	96	48	7
NMTAP	62	48	3
NMTAP	62	96	2
NMTAP	62	144	1
CNSI_	62	144	7	0	48	5
NMSTR	62	192	0
NMSI_	62	192	0	96	48	4
NMTAP	62	240	0
NMTAP	62	288	4
CNSI_	62	336	4	0	48	2
NMTAP	62	336	5
NMSTR	63	0	6
BRSCR	63	0	6	96	96	1
NMSTR	63	96	1
NMSCR	63	96	1	96	96	4
CNSCR	63	192	1	0	96	4
NMSTR	63	192	4
NMSCR	63	192	4	96	96	7
NMTAP	63	288	7
NMSTR	64	0	1
NMSI_	64	0	1	96	48	3
NMSTR	64	48	0
NMSI_	64	48	0	96	48	4
NMTAP	64	96	1
NMTAP	64	144	0
NMSTR	64	192	7
NMSI_	64	192	7	96	48	3
NMSTR	64	240	6
NMSI_	64	240	6	96	48	4
NMTAP	64	288	7
NMTAP	64	336	6
NMSTR	65	0	0
NMSI_	65	0	0	96	48	2
NMSTR	65	48	0
NMSI_	65	48	0	96	48	6
NMSTR	65	96	0
NMSI_	65	96	0	96	48	4
NMSTR	65	288	0
BRSLR	65	288	0	96	96	4
NMTAP	65	288	6
NMTTP	66	0	2	B	0	M1
NMTTP	66	0	3	B	1	M1
NMTTP	66	0	4	B	0	M1
CNSI_	66	96	4	0	48	6
NMTAP	66	192	7
NMTAP	66	240	7
NMSTR	66	288	6
NMSCR	66	288	6	96	144	4
NMTAP	66	336	6
NMTTP	67	0	1	B	0	M1
NMTTP	67	0	2	B	1	M1
NMTTP	67	0	3	B	0	M1
NMTAP	67	192	7
NMTAP	67	216	6
NMTAP	67	240	7
NMTAP	67	288	5
NMTAP	67	312	4
NMTAP	67	336	6
NMTAP	68	0	3
NMSTR	68	0	7
NMSCR	68	0	7	96	192	5
NMSTR	68	96	2
NMSCR	68	96	2	96	96	5
NMSTR	68	192	5
BRSUR	68	192	5	96	96	2
NMSTR	68	288	2
NMSCR	68	288	2	96	192	0
NMTTP	69	0	3	B	0	M1
NMTTP	69	0	4	B	0	M1
NMTTP	69	0	4	E	1	M1
NMTAP	69	192	2
NMTAP	69	288	1
NMSTR	70	0	0
NMSCL	70	0	0	96	192	2
NMTAP	70	0	7
NMSTR	70	96	5
NMSCL	70	96	5	96	96	2
NMSTR	70	192	2
BRSUL	70	192	2	96	96	5
NMSTR	70	288	5
NMSCL	70	288	5	96	192	7
NMTTP	71	0	3	B	0	M1
NMTTP	71	0	4	B	0	M1
NMTTP	71	0	4	E	1	M1
NMTAP	71	192	5
NMTAP	71	288	6
NMSTR	72	0	6
NMSI_	72	0	6	96	48	3
NMSTR	72	48	1
NMSI_	72	48	1	96	48	5
NMTAP	72	96	6
NMTAP	72	144	1
NMSTR	72	192	0
NMSI_	72	192	0	96	48	5
NMSTR	72	240	4
NMSI_	72	240	4	96	48	0
NMTAP	72	288	0
NMTAP	72	336	4
NMSTR	73	0	6
NMSI_	73	0	6	96	48	3
NMSTR	73	48	2
NMSI_	73	48	2	96	48	6
NMTAP	73	96	6
NMTAP	73	144	2
BRTAP	73	192	7
NMTAP	73	288	1
NMSTR	73	288	7
BRSI_	73	288	7	96	48	3
NMTAP	73	312	2
NMTAP	73	312	6
NMTAP	73	336	3
NMTAP	73	336	5
BRTAP	74	0	0
BRSTR	74	48	0
BRSI_	74	48	0	96	48	4
CNSI_	74	48	3	0	48	7
BRTAP	74	144	6
CNSI_	74	192	4	0	48	0
BRSTR	74	192	6
BRSI_	74	192	6	96	48	2
BRTAP	74	288	1
BRHLD	74	336	1	96
CNSI_	74	336	2	0	48	6
NMTAP	75	48	7
NMTAP	75	96	7
NMTAP	75	144	7
NMTAP	75	192	1
NMTAP	75	216	2
NMTAP	75	240	3
NMTAP	75	240	7
NMTAP	75	264	6
NMSTR	75	288	0
NMSI_	75	288	0	96	48	4
NMTAP	75	288	5
NMTAP	75	312	1
NMTAP	75	336	2
NMTAP	75	336	6
NMTAP	75	360	5
BRSTR	76	0	0
NMSCR	76	0	0	96	1248	7
NMTAP	76	0	4
NMTTP	76	3	0	C	1	M1
NMSTR	80	0	0
NMSCR	80	0	0	96	1248	7
NMTAP	80	0	7
NMTTP	80	192	0	C	0	M1
NMTTP	81	192	0	C	0	M1
NMTTP	82	192	0	C	0	M1
NMTTP	83	192	0	C	0	M1
EXTAP	84	0	2
EXTAP	84	0	6
NMTAP	84	48	3
NMTAP	84	96	3
NMTAP	84	96	5
NMTAP	84	144	4
EXTAP	84	192	1
EXTAP	84	192	3
NMTAP	84	240	2
NMTAP	84	288	2
NMTAP	84	288	6
NMTAP	84	336	5
EXTAP	85	0	3
EXTAP	85	0	5
NMTAP	85	48	3
NMTAP	85	96	2
NMTAP	85	96	6
NMTAP	85	144	5
NMTAP	85	192	1
NMTAP	85	192	4
NMTAP	85	240	2
NMTAP	85	288	2
NMTAP	85	288	6
NMTAP	85	336	5
EXTAP	86	0	2
EXTAP	86	0	4
NMTAP	86	48	2
NMTAP	86	96	3
NMTAP	86	96	6
NMTAP	86	144	5
NMTAP	86	192	1
NMTAP	86	192	4
NMTAP	86	240	2
NMTAP	86	288	2
NMTAP	86	288	6
NMTAP	86	336	5
EXTAP	87	0	1
EXTAP	87	0	4
NMTAP	87	48	1
NMTAP	87	96	2
NMTAP	87	96	3
NMTAP	87	144	4
NMTAP	87	192	3
NMTAP	87	192	5
NMTAP	87	240	3
NMTAP	87	240	5
NMTAP	87	288	2
NMTAP	87	288	4
NMTAP	87	336	2
NMTAP	87	336	4
BRTAP	88	0	0
NMTAP	88	192	1
NMTAP	88	216	4
NMTAP	88	240	1
NMTAP	88	264	4
NMTAP	88	288	2
NMTAP	88	312	5
NMTAP	88	336	2
NMTAP	88	360	5
NMTAP	89	0	3
NMTAP	89	24	6
NMTAP	89	48	3
NMTAP	89	72	6
NMTAP	89	96	4
NMTAP	89	120	5
NMTAP	89	144	4
NMTAP	89	168	5
NMTAP	89	192	3
NMTAP	89	216	4
NMTAP	89	240	3
NMTAP	89	264	4
NMTAP	89	288	2
NMTAP	89	312	3
NMTAP	89	336	2
NMTAP	89	360	3
NMTAP	90	0	1
NMTAP	90	24	0
NMTAP	90	48	2
NMTAP	90	72	7
NMTAP	90	96	3
NMTAP	90	120	6
NMTAP	90	144	4
NMTAP	90	168	5
NMTAP	90	192	3
NMTAP	90	216	4
NMTAP	90	240	3
NMTAP	90	264	4
NMTAP	90	288	2
NMTAP	90	312	5
NMTAP	90	336	1
NMTAP	90	360	6
NMTAP	91	0	0
NMTAP	91	16	7
NMTAP	91	32	0
NMTAP	91	48	7
NMTAP	91	64	0
NMTAP	91	80	7
NMTAP	91	96	0
NMTAP	91	112	7
NMTAP	91	128	0
NMTAP	91	144	7
NMTAP	91	160	0
NMTAP	91	176	7
NMTAP	91	192	0
NMTAP	91	208	7
NMTAP	91	224	0
NMTAP	91	240	7
NMTAP	91	256	0
NMTAP	91	272	7
NMTAP	91	288	0
NMTAP	91	304	7
NMTAP	91	320	0
NMTAP	91	336	7
NMTAP	91	352	0
NMTAP	91	368	7
BRTAP	92	0	0
NMTAP	93	0	3
NMHLD	93	0	4	336
BRHLD	93	192	0	144
BRSTR	94	0	0
BRSI_	94	0	0	96	48	5
NMSTR	94	0	4
NMSI_	94	0	4	96	48	1
NMTAP	94	96	0
NMTAP	94	96	4
NMTAP	94	192	2
NMTAP	94	192	6
NMTAP	94	216	3
NMTAP	94	216	7
NMTAP	94	240	0
NMTAP	94	240	4
NMTAP	94	264	1
NMTAP	94	264	5
NMTAP	94	288	2
NMTAP	94	288	6
NMTAP	94	312	3
NMTAP	94	312	7
NMTAP	94	336	0
NMTAP	94	336	4
NMTAP	94	360	1
NMTAP	94	360	5
NMSTR	95	0	2
NMSCL	95	0	2	96	48	7
NMSTR	95	0	6
NMSCL	95	0	6	96	48	3
NMTAP	95	96	2
NMSTR	95	96	6
NMSI_	95	96	6	96	48	2
NMSTR	95	192	0
NMSI_	95	192	0	96	48	4
NMTAP	95	192	6
NMTAP	95	288	0
NMTAP	95	288	4
NMTAP	96	0	1
NMTAP	96	24	3
NMTAP	96	48	2
NMTAP	96	72	6
NMTAP	96	96	4
NMTAP	96	120	5
NMTAP	96	144	0
NMTAP	96	168	3
NMTAP	96	192	2
NMTAP	96	216	7
NMTAP	96	240	4
NMTAP	96	264	5
NMTAP	96	288	1
NMTAP	96	312	6
NMTAP	96	336	3
NMTAP	96	360	4
BRTAP	97	0	0
NMTAP	97	72	3
NMTAP	97	72	6
NMTAP	97	144	2
NMTAP	97	144	4
NMTAP	97	192	2
NMSTR	97	192	4
NMSF_	97	192	4	96	48	0
NMTAP	97	288	4
NMSTR	98	0	2
NMSI_	98	0	2	96	48	7
NMTAP	98	0	6
NMTAP	98	96	2
NMSTR	98	96	5
NMSI_	98	96	5	96	48	0
NMSTR	98	192	3
NMSI_	98	192	3	96	48	0
NMTAP	98	192	5
NMTAP	98	240	2
NMTAP	98	288	3
NMSTR	98	288	4
NMSI_	98	288	4	96	48	7
NMTAP	98	336	5
NMSTR	99	0	1
NMSI_	99	0	1	96	48	5
NMTAP	99	0	4
NMTAP	99	96	0
NMTAP	99	96	1
NMTAP	99	192	2
NMTAP	99	192	6
NMTAP	99	240	3
NMTAP	99	264	7
NMTAP	99	288	2
NMTAP	99	312	6
NMTAP	99	336	1
NMTAP	99	360	5
NMSTR	100	0	0
NMSCR	100	0	0	96	48	3
NMTAP	100	96	4
NMTAP	100	120	5
NMTAP	100	144	6
NMTAP	100	168	7
NMSTR	100	192	0
NMSCL	100	192	0	96	48	5
NMTAP	100	288	3
NMTAP	100	312	2
NMTAP	100	336	1
NMTAP	100	360	0
NMTAP	101	0	7
NMTAP	101	24	3
NMTAP	101	48	7
NMTAP	101	72	3
NMTAP	101	96	0
NMTAP	101	120	4
NMTAP	101	144	0
NMTAP	101	168	4
NMTAP	101	192	1
NMTAP	101	204	2
NMTAP	101	216	3
NMTAP	101	228	4
NMTAP	101	240	5
NMTAP	101	252	6
NMTAP	101	264	7
NMTAP	101	276	0
BRTAP	101	288	1
NMTAP	101	288	5
NMSTR	102	0	3
NMSI_	102	0	3	96	48	6
BRSTR	102	0	7
BRSI_	102	0	7	96	48	2
NMTAP	102	96	3
NMTAP	102	96	7
NMTAP	102	192	1
NMTAP	102	192	5
NMTAP	102	216	0
NMTAP	102	216	4
NMTAP	102	240	3
NMTAP	102	240	7
NMTAP	102	264	2
NMTAP	102	264	6
NMTAP	102	288	1
NMTAP	102	288	5
NMTAP	102	312	0
NMTAP	102	312	4
NMTAP	102	336	3
NMTAP	102	336	7
NMTAP	102	360	2
NMTAP	102	360	6
NMSTR	103	0	1
NMSCR	103	0	1	96	48	4
NMSTR	103	0	5
NMSCR	103	0	5	96	48	0
NMSTR	103	96	1
NMSI_	103	96	1	96	48	5
NMTAP	103	96	5
NMTAP	103	192	1
NMSTR	103	192	7
NMSI_	103	192	7	96	48	3
NMTAP	103	288	3
NMTAP	103	288	7
NMTAP	104	0	6
NMTAP	104	24	4
NMTAP	104	48	5
NMTAP	104	72	1
NMTAP	104	96	3
NMTAP	104	120	2
NMTAP	104	144	7
NMTAP	104	168	4
NMTAP	104	192	5
NMTAP	104	216	0
NMTAP	104	240	4
NMTAP	104	264	2
BRTAP	104	288	3
BRTAP	104	336	1
NMTAP	104	336	5
NMSTR	105	0	3
NMSI_	105	0	3	96	48	6
BRSTR	105	0	7
NMSI_	105	0	7	96	48	2
NMTAP	105	96	3
NMTAP	105	96	7
BRSTR	105	192	0
NMSCL	105	192	0	96	48	5
NMSTR	105	192	4
NMSCL	105	192	4	96	48	1
NMTAP	105	288	0
NMTAP	105	288	4
NMSTR	106	0	0
NMSI_	106	0	0	96	48	4
NMTAP	106	0	4
NMTAP	106	48	0
NMTAP	106	96	0
NMSTR	106	96	6
NMSI_	106	96	6	96	48	2
NMTAP	106	144	6
NMSTR	106	192	1
NMSI_	106	192	1	96	48	5
NMTAP	106	192	6
NMTAP	106	240	1
NMTAP	106	288	1
NMSTR	106	288	7
NMSI_	106	288	7	96	48	3
NMTAP	106	336	7
NMSTR	107	0	4
NMSI_	107	0	4	96	48	0
NMTAP	107	0	7
NMTAP	107	48	4
NMTAP	107	96	4
NMSTR	107	96	5
NMSI_	107	96	5	96	48	1
NMTAP	107	144	5
NMTAP	107	192	5
NMSTR	107	192	6
NMSCL	107	192	6	96	48	3
NMTAP	107	240	6
NMTAP	107	288	6
NMTAP	107	288	7
BRTAP	108	0	1
NMTAP	108	24	0
NMTAP	108	48	1
NMTAP	108	72	0
NMTAP	108	96	1
NMTAP	108	120	2
NMTAP	108	144	1
NMTAP	108	168	2
NMTAP	108	192	3
NMTAP	108	216	2
NMTAP	108	240	3
NMTAP	108	264	2
NMTAP	108	288	3
NMTAP	108	312	4
NMTAP	108	336	3
NMTAP	108	360	4
BRTAP	109	0	3
NMTAP	109	48	6
NMTAP	109	64	5
NMTAP	109	80	4
NMTAP	109	96	3
NMTAP	109	144	0
NMTAP	109	144	1
NMTAP	109	160	2
NMTAP	109	176	3
NMTAP	109	192	4
BRTAP	109	240	6
BRTAP	109	240	7
BRTAP	109	288	0
BRTAP	109	288	5
NMTAP	110	0	1
NMTTP	110	0	6	E	0	M1
NMTTP	110	0	6	D	0	M1
NMTAP	110	48	1
NMTTP	110	48	4	B	0	M1
NMTTP	110	48	5	E	0	M1
NMTTP	110	144	2	E	0	M1
NMTTP	110	144	2	D	0	M1
NMTAP	110	144	7
NMTTP	110	192	3	B	0	M1
NMTTP	110	192	3	E	0	M1
NMTAP	110	192	7
NMTAP	110	288	1
NMTTP	110	288	5	B	0	M1
NMTTP	110	288	6	E	0	M1
NMTAP	110	336	1
NMTTP	110	336	4	A	0	M1
NMTTP	110	336	5	D	0	M1
NMTTP	111	48	2	B	0	M1
NMTTP	111	48	2	E	0	M1
NMTAP	111	48	7
NMTTP	111	96	3	A	0	M1
NMTTP	111	96	3	D	0	M1
NMTAP	111	96	7
NMSTR	111	192	0
NMSCR	111	192	0	96	48	3
NMSTR	111	192	6
NMSCL	111	192	6	96	48	3
NMTTP	112	0	3	B	0	M1
NMTTP	112	0	3	E	0	M1
NMTAP	112	0	7
NMTTP	112	48	2	E	0	M1
NMTTP	112	48	2	D	0	M1
NMTAP	112	48	7
BRTAP	112	144	0
NMTTP	112	144	6	B	0	M1
NMTTP	112	144	6	E	0	M1
BRTAP	112	168	1
BRTAP	112	192	2
NMTTP	112	192	4	B	0	M1
NMTTP	112	192	5	E	0	M1
NMTTP	112	288	3	B	0	M1
NMTTP	112	288	3	E	0	M1
NMTAP	112	288	7
NMTTP	112	336	2	E	0	M1
NMTTP	112	336	2	D	0	M1
NMTAP	112	336	7
BRTAP	113	48	0
NMTTP	113	48	5	B	0	M1
NMTTP	113	48	5	A	0	M1
BRTAP	113	72	1
BRTAP	113	96	2
NMTTP	113	96	4	E	0	M1
NMTTP	113	96	4	A	0	M1
NMSTR	113	192	0
NMSCR	113	192	0	96	48	3
NMSTR	113	192	6
NMSCL	113	192	6	96	48	3
NMTAP	114	0	1
NMTAP	114	0	5
NMTAP	114	96	0
NMTAP	114	120	7
NMTAP	114	144	0
NMTAP	114	168	7
NMTAP	114	192	0
NMTAP	114	216	7
NMTAP	114	240	0
NMTAP	114	264	7
NMTAP	114	288	0
NMTAP	114	312	7
NMTAP	114	336	0
NMTAP	114	360	7
NMTAP	115	0	1
NMTAP	115	24	5
NMTAP	115	48	2
NMTAP	115	72	4
NMTAP	115	96	3
NMTAP	115	120	6
NMTAP	115	144	2
NMTAP	115	168	7
NMTAP	115	192	1
NMTAP	115	216	6
NMTAP	115	240	2
NMTAP	115	264	5
NMTAP	115	288	3
NMTAP	115	288	4
BRSTR	115	336	3
BRSXR	115	336	3	96	1296	4
BRTAP	115	336	4
BRTAP	115	352	2
BRTAP	115	352	5
BRTAP	115	368	1
BRTAP	115	368	6
BRTAP	116	0	0
BRSTR	116	0	7
NMSXR	116	0	7	96	1248	0
BRTAP	120	0	3
BRHLD	120	0	7	96
NMTAP	120	96	5
NMHLD	120	144	5	96
NMTAP	120	240	3
NMHLD	120	288	3	96
NMTAP	121	0	1
NMHLD	121	48	1	96
NMTAP	121	144	0
NMTAP	121	192	0
NMTAP	121	288	2
NMTAP	121	288	7
NMTAP	122	0	3
NMTAP	122	0	6
NMTAP	122	48	3
NMTAP	122	48	6
NMTAP	122	96	5
NMTAP	122	120	4
NMTAP	122	144	5
NMTAP	122	168	4
NMTAP	122	192	5
NMTAP	122	240	2
NMTAP	122	264	3
NMTAP	122	288	2
NMTAP	122	336	1
NMTAP	122	336	4
NMTAP	123	0	2
NMTAP	123	24	3
NMTAP	123	72	5
NMTAP	123	96	4
NMTAP	123	144	0
NMTAP	123	144	7
NMSTR	123	192	0
NMSCR	123	192	0	96	48	3
NMSTR	123	192	7
NMSCL	123	192	7	96	48	4
BRTAP	123	288	0
BRTAP	123	288	7
NMTAP	124	0	6
NMTAP	124	24	7
NMTAP	124	48	5
NMTAP	124	72	0
NMSTR	124	96	6
NMSI_	124	96	6	96	48	2
NMTAP	124	120	7
NMTAP	124	144	5
NMTAP	124	168	0
NMTAP	124	192	6
NMTAP	124	288	1
NMTAP	124	288	3
NMTAP	124	336	2
NMTAP	124	336	4
NMTAP	125	0	3
NMTAP	125	0	5
NMTAP	125	48	6
NMTAP	125	64	4
NMTAP	125	80	6
NMTAP	125	96	4
NMTAP	125	144	1
NMTAP	125	160	3
NMTAP	125	176	1
NMTAP	125	192	3
NMTAP	125	240	0
NMTAP	125	240	2
NMTAP	125	264	0
NMTAP	125	264	2
NMSTR	125	288	0
NMSI_	125	288	0	96	48	6
NMSTR	125	288	2
NMSI_	125	288	2	96	48	6
BRSTR	126	0	0
BRSI_	126	0	0	96	48	4
BRSTR	126	0	2
BRSI_	126	0	2	96	48	4
BRTAP	126	96	0
BRTAP	126	96	2
NMTAP	126	192	7
NMHLD	126	240	4	32
NMHLD	126	240	6	32
NMHLD	126	304	1	32
NMHLD	126	304	3	32
NMTAP	127	0	2
BRTAP	127	0	4
NMTAP	127	32	2
BRTAP	127	32	4
NMTAP	127	64	2
BRTAP	127	64	4
NMHLD	127	96	3	12
NMHLD	127	120	3	12
NMHLD	127	144	3	12
NMHLD	127	168	3	12
BRSTR	127	192	3
NMSF_	127	192	3	96	48	7
BRTAP	127	288	3
NMTAP	128	0	1
NMTAP	128	24	5
NMTAP	128	48	1
NMTAP	128	72	5
NMTAP	128	96	0
NMTAP	128	120	4
NMTAP	128	144	1
NMTAP	128	168	5
BRTAP	128	192	2
BRTAP	128	192	6
NMTAP	128	256	1
BRTAP	128	256	7
NMTAP	128	288	1
BRTAP	128	288	7
NMTAP	128	320	1
BRTAP	128	320	7
NMTAP	128	352	1
BRTAP	128	352	7
BRTAP	129	0	0
NMTAP	129	12	1
NMTAP	129	24	2
NMTAP	129	36	3
NMTAP	129	48	6
BRTAP	129	96	0
NMTAP	129	108	1
NMTAP	129	120	2
NMTAP	129	132	3
NMTAP	129	144	5
BRTAP	129	192	7
NMTAP	129	204	6
NMTAP	129	216	5
NMTAP	129	228	4
BRTAP	129	240	7
NMTAP	129	252	6
NMTAP	129	264	5
NMTAP	129	276	4
BRTAP	129	288	7
NMTAP	129	300	6
NMTAP	129	312	5
NMTAP	129	324	4
BRTAP	129	336	7
NMTAP	129	348	6
NMTAP	129	360	5
NMTAP	129	372	4
BRSTR	130	0	0
BRSSL	130	0	0	96	288	4
BRSV_	130	0	0	96	288	2
NMTAP	131	96	0
NMTAP	131	96	7
NMTAP	131	192	1
NMTAP	131	192	6
NMTAP	131	288	2
NMTAP	131	288	5
BRTAP	132	0	1
BRTAP	132	24	3
BRTAP	132	48	2
BRTAP	132	72	7
BRTAP	132	96	5
BRTAP	132	120	6
BRTAP	132	144	0
BRTAP	132	168	2
BRTAP	132	192	1
BRTAP	132	216	6
BRTAP	132	240	4
BRTAP	132	264	5
BRTAP	132	288	2
BRTAP	132	312	4
BRTAP	132	336	1
BRTAP	132	360	5
BRTAP	133	0	0
NMTAP	133	16	6
NMTAP	133	32	0
NMTAP	133	48	6
BRTAP	133	96	7
NMTAP	133	112	1
NMTAP	133	128	7
NMTAP	133	144	1
BRTAP	133	192	0
NMTAP	133	208	0
NMTAP	133	224	0
NMTAP	133	240	0
NMTAP	133	256	0
NMTAP	133	272	0
NMSTR	133	288	0
BRSI_	133	288	0	96	24	4
NMTAP	133	304	0
NMTAP	133	320	0
NMTAP	133	336	0
NMTAP	133	352	0
NMTAP	133	368	0
BRTAP	134	0	0
NMTTP	134	0	1	B	1	M1
NMTTP	134	0	2	B	1	M1
NMTTP	134	0	3	B	1	M1
NMTTP	134	0	4	B	1	M1
NMTTP	134	0	5	B	1	M1
NMTTP	134	0	6	B	1	M1
NMTTP	134	0	7	B	1	M1
NMTTP	134	3	0	C	1	M1

T_REC_TAP	856
T_REC_BRK	100
T_REC_XTP	10
T_REC_BXX	0
T_REC_HLD	45
T_REC_XHO	0
T_REC_BHO	6
T_REC_BXH	0
T_REC_STR	117
T_REC_BST	25
T_REC_XST	1
T_REC_XBS	0
T_REC_TTP	64
T_REC_THO	0
T_REC_SLD	124
T_REC_BSL	23
T_REC_ALL	1371
T_NUM_TAP	1048
T_NUM_BRK	154
T_NUM_HLD	45
T_NUM_SLD	124
T_NUM_ALL	1371
T_JUDGE_TAP	1173
T_JUDGE_HLD	112
T_JUDGE_SLD	147
T_JUDGE_ALL	1432
TTM_EACHPAIRS	240
TTM_SCR_TAP	524000
TTM_SCR_BRK	400400
TTM_SCR_HLD	45000
TTM_SCR_SLD	186000
TTM_SCR_ALL	1155400
TTM_SCR_S	1105800
TTM_SCR_SS	1140000
TTM_RAT_ACV	10135

