VERSION	0.00.00	1.04.00
FES_MODE	0
BPM_DEF	201.000	201.000	201.000	201.000
MET_DEF	4	4
RESOLUTION	384
CLK_DEF	384
COMPATIBLE_CODE	MA2

BPM	0	0	201.000
MET	0	0	4	4

NMTTP	2	0	3	E	0	M1
NMTTP	2	192	4	E	0	M1
NMHLD	3	0	5	768
NMTAP	3	192	4
NMTTP	4	0	4	B	0	M1
NMTTP	4	192	3	B	0	M1
NMHLD	5	0	2	768
NMTAP	5	192	3
NMTTP	6	0	4	E	0	M1
NMTTP	6	192	5	E	0	M1
NMHLD	7	0	5	384
NMTTP	7	192	4	B	0	M1
NMHLD	8	0	2	384
NMTAP	8	192	3
NMTAP	9	0	5
EXTAP	10	0	2
EXTAP	10	48	2
EXTAP	10	96	4
EXTAP	10	144	4
NMTAP	10	192	3
NMTAP	10	288	3
NMTAP	10	288	5
NMTAP	11	0	4
NMSTR	11	0	6
NMSCL	11	0	6	96	192	3
NMTTP	11	192	2	A	0	M1
NMTAP	12	0	2
NMTAP	12	48	2
NMTAP	12	96	4
NMTAP	12	144	4
NMTAP	12	192	3
NMTAP	12	240	3
NMTAP	12	288	4
NMTAP	12	336	4
NMSTR	13	0	2
NMSCR	13	0	2	96	192	5
NMTAP	13	192	6
NMTAP	13	288	6
NMTAP	14	0	4
NMTAP	14	0	6
NMTAP	14	96	4
NMTAP	14	96	6
NMTAP	14	192	2
NMTAP	14	192	3
NMTAP	14	288	2
NMTAP	14	288	3
NMTAP	15	0	4
NMTAP	15	0	5
NMTAP	15	96	4
NMTAP	15	96	5
NMTAP	15	192	1
NMTAP	15	192	3
NMTAP	15	288	1
NMTAP	15	288	3
NMSTR	16	0	3
NMSCL	16	0	3	96	672	4
NMTAP	16	0	7
NMTTP	18	0	0	C	0	M1
NMTAP	20	0	2
NMTAP	20	0	4
NMHLD	20	48	2	96
NMTAP	20	48	4
NMTAP	20	144	3
NMHLD	20	192	3	96
NMTAP	20	288	1
NMHLD	20	336	1	96
NMTAP	21	48	2
NMHLD	21	96	2	96
NMTAP	21	192	0
NMTAP	21	288	1
NMTAP	21	288	3
NMTAP	22	0	3
NMTAP	22	0	5
NMTAP	22	48	3
NMHLD	22	48	5	96
NMTAP	22	144	4
NMHLD	22	192	4	96
NMTAP	22	288	6
NMHLD	22	336	6	96
NMTAP	23	48	5
NMHLD	23	96	5	96
NMTAP	23	192	7
NMTAP	23	288	2
NMTAP	23	288	4
NMHLD	24	0	1	96
NMTAP	24	96	3
NMHLD	24	192	3	96
NMTAP	24	288	4
NMHLD	25	0	4	96
NMTAP	25	96	6
NMHLD	25	192	6	864
NMTAP	25	288	0
NMHLD	26	0	1	672
BRTAP	28	0	3
BRTAP	28	0	4
NMTAP	28	96	2
NMTAP	28	96	4
NMTAP	28	192	2
NMTAP	28	192	3
NMTAP	28	288	1
NMTAP	28	288	2
NMTAP	29	0	0
NMTAP	29	0	2
NMTAP	29	96	1
NMTAP	29	96	7
NMTAP	29	192	0
NMTAP	29	192	6
EXTAP	29	288	6
EXTAP	29	288	7
EXTAP	29	336	6
EXTAP	29	336	7
EXTAP	30	0	6
EXTAP	30	0	7
NMTAP	30	96	5
NMTAP	30	96	6
NMTAP	30	192	4
NMTAP	30	192	5
EXTAP	30	288	2
EXTAP	30	336	2
EXTAP	31	0	1
EXTAP	31	0	3
EXTAP	31	96	5
EXHLD	31	144	4	144
EXHLD	31	144	6	144
NMTAP	32	0	3
NMTAP	32	0	4
NMTAP	32	96	2
NMTAP	32	96	3
NMTAP	32	192	4
NMTAP	32	192	5
NMTAP	32	288	1
NMTAP	32	288	3
NMTAP	33	0	4
NMTAP	33	0	6
NMTAP	33	96	0
NMTAP	33	96	7
BXTAP	33	192	1
BXTAP	33	192	4
BXTAP	33	240	1
BXTAP	33	240	4
BXTAP	33	288	1
BXTAP	33	288	4
BXTAP	33	336	1
BXTAP	33	336	4
EXTAP	34	0	1
EXTAP	34	0	4
EXTAP	34	96	3
EXTAP	34	96	6
EXTAP	34	192	1
EXTAP	34	192	4
NMTAP	34	288	3
NMTAP	34	288	7
NMTAP	35	0	0
NMTAP	35	0	4
NMTAP	35	96	2
NMTAP	35	96	6
NMTAP	35	192	1
NMTAP	35	192	7
EXTAP	35	240	0
EXTAP	35	288	0
EXTAP	35	336	0
BXHLD	36	0	1	48
BXHLD	36	0	7	48
NMHLD	36	96	1	48
NMHLD	36	96	7	48
NMHLD	36	192	3	48
NMHLD	36	192	5	48
NMHLD	36	288	3	48
NMHLD	36	288	5	48
NMHLD	37	0	6	48
NMHLD	37	0	7	48
NMHLD	37	96	4	48
NMHLD	37	96	5	48
NMHLD	37	192	2	48
NMHLD	37	192	3	48
NMHLD	37	288	0	48
NMHLD	37	288	1	48
NMHLD	38	0	2	48
NMHLD	38	0	4	48
NMHLD	38	96	2	48
NMHLD	38	96	4	48
NMHLD	38	192	0	48
NMHLD	38	192	6	48
NMHLD	38	288	0	48
NMHLD	38	288	6	48
NMHLD	39	0	4	48
NMHLD	39	0	5	48
NMHLD	39	96	2	48
NMHLD	39	96	3	48
NMSTR	39	192	0
NMSI_	39	192	0	96	48	4
NMSTR	39	192	1
NMSI_	39	192	1	96	48	4
NMHLD	40	0	5	48
NMHLD	40	96	4	48
NMHLD	40	96	6	48
NMHLD	40	192	2	48
NMHLD	40	288	1	48
NMHLD	40	288	3	48
NMHLD	41	0	3	48
NMHLD	41	0	4	48
NMHLD	41	96	4	48
NMHLD	41	96	6	48
NMHLD	41	192	0	48
NMHLD	41	192	7	48
NMHLD	41	288	1	48
NMHLD	41	288	3	48
NMHLD	42	0	4	48
NMHLD	42	0	5	48
NMHLD	42	96	0	48
NMHLD	42	96	2	48
NMHLD	42	192	5	48
NMHLD	42	192	6	48
NMHLD	42	288	2	48
NMHLD	42	288	3	48
NMHLD	43	0	6	48
NMHLD	43	0	7	48
NMHLD	43	96	3	48
NMHLD	43	96	4	48
NMHLD	43	192	0	48
NMHLD	43	192	1	48
NMHLD	43	288	3	48
NMHLD	43	288	4	48
BRTAP	44	0	1
BRTAP	44	0	6
NMTTP	44	192	3	E	0	M1
NMTTP	44	288	0	B	0	M1
NMTTP	44	288	1	E	0	M1
NMTTP	45	0	5	E	0	M1
NMTTP	45	96	7	B	0	M1
NMTTP	45	96	7	E	0	M1
NMTAP	45	192	3
NMTAP	45	192	4
NMTAP	45	288	2
NMHLD	46	0	1	96
NMTTP	46	96	1	B	0	M1
NMTTP	46	96	2	E	0	M1
NMHLD	46	192	5	96
NMTTP	46	288	5	B	0	M1
NMTTP	46	288	5	E	0	M1
NMSTR	47	0	1
NMSI_	47	0	1	96	48	4
NMTAP	47	96	6
EXSTR	47	192	5
NMSI_	47	192	5	96	48	0
NMTAP	47	288	3
BRTAP	48	0	1
BRTAP	48	0	7
NMTTP	48	192	1	E	0	M1
NMTTP	48	288	2	A	0	M1
NMTTP	48	288	3	E	0	M1
NMTTP	48	288	3	A	0	M1
NMTTP	49	0	7	E	0	M1
NMTTP	49	96	4	A	0	M1
NMTTP	49	96	5	E	0	M1
NMTTP	49	96	5	A	0	M1
NMSTR	49	192	1
NMSI_	49	192	1	96	48	4
NMSTR	49	192	7
NMSI_	49	192	7	96	48	4
NMTAP	50	0	3
NMTAP	50	0	5
NMTAP	50	96	7
NMTAP	50	192	2
NMTAP	50	192	4
NMTAP	50	288	0
NMTAP	51	0	1
NMTAP	51	0	3
NMTAP	51	48	1
NMTAP	51	48	3
NMTAP	51	144	4
NMTAP	51	144	6
NMHLD	51	192	4	96
NMHLD	51	192	6	96
NMTAP	52	0	3
NMTAP	52	0	5
NMTTP	52	96	1	B	0	M1
NMTAP	52	192	2
NMTAP	52	192	4
NMTTP	52	288	6	B	0	M1
NMSTR	53	0	1
NMSI_	53	0	1	96	48	4
NMTAP	53	48	1
NMTAP	53	96	7
NMSTR	53	192	6
BRSI_	53	192	6	96	48	3
NMTAP	53	240	6
NMTAP	53	288	0
NMTAP	54	0	2
NMTAP	54	0	4
NMTTP	54	96	1	B	0	M1
NMTTP	54	96	7	B	0	M1
NMTAP	54	192	3
NMTAP	54	192	5
NMTTP	54	288	4	B	0	M1
NMTTP	54	288	6	B	0	M1
NMTAP	55	0	2
NMTAP	55	48	2
NMTAP	55	96	0
NMTAP	55	144	0
BRSTR	55	192	7
BRSLL	55	192	7	96	96	1
BRTAP	56	0	0
NMTAP	56	192	0
NMTAP	56	240	1
NMTAP	56	288	2
NMTAP	56	288	3
NMTAP	57	0	7
NMTAP	57	48	6
NMTAP	57	96	4
NMTAP	57	96	5
NMTAP	57	192	3
NMTAP	57	240	2
NMTAP	57	288	1
NMTAP	57	288	7
NMTAP	58	0	1
NMTAP	58	48	1
NMTAP	58	96	7
NMTAP	58	144	7
EXTAP	58	192	0
EXTAP	58	216	1
EXTAP	58	240	2
EXTAP	58	264	3
EXTAP	58	288	4
EXTAP	58	312	5
EXTAP	58	336	6
EXTAP	58	360	7
EXSTR	59	0	0
NMSCR	59	0	0	96	192	7
NMTTP	60	0	0	C	1	M1
NMTAP	61	288	0
NMTAP	61	288	7
NMTAP	62	0	0
NMTAP	62	48	0
NMTAP	62	96	2
NMTAP	62	144	2
NMTAP	62	192	4
NMTAP	62	240	4
NMTAP	62	288	6
NMTAP	62	336	6
EXTAP	63	0	0
EXTAP	63	0	7
NMTAP	63	96	1
NMTAP	63	96	3
NMTAP	63	192	4
NMTAP	63	192	6
NMTAP	63	288	0
NMTAP	63	288	7
NMTAP	64	0	2
NMTAP	64	48	3
NMTAP	64	96	2
NMTAP	64	144	5
NMTAP	64	192	4
NMTAP	64	240	5
NMTAP	64	288	2
NMTAP	64	336	3
NMTAP	65	0	1
NMTAP	65	48	5
NMTAP	65	96	4
NMTAP	65	144	6
NMTAP	65	192	1
NMTAP	65	240	7
NMTAP	65	288	0
NMTAP	65	336	6
EXHLD	66	0	0	288
NMTTP	66	96	1	A	0	M1
NMTTP	66	120	1	B	0	M1
NMTTP	66	144	0	C	0	M1
NMTTP	66	168	5	B	0	M1
NMTTP	66	192	5	A	0	M1
EXTAP	66	288	6
EXHLD	67	0	6	288
NMTTP	67	96	7	A	0	M1
NMTTP	67	120	7	B	0	M1
NMTTP	67	144	0	C	0	M1
NMTTP	67	168	3	B	0	M1
NMTTP	67	192	3	A	0	M1
EXTAP	67	288	5
EXTAP	68	0	4
EXTAP	68	0	6
EXTAP	68	96	5
EXTAP	68	96	7
EXTAP	68	192	0
EXTAP	68	192	2
EXTAP	68	288	1
EXTAP	68	288	3
NMTAP	69	0	1
NMTAP	69	48	2
NMTAP	69	96	3
NMTAP	69	144	4
NMTAP	69	192	5
NMTAP	69	240	4
NMTAP	69	288	3
NMTAP	69	336	2
EXTAP	70	0	1
EXTAP	70	0	3
EXTAP	70	96	0
EXTAP	70	96	2
EXTAP	70	192	5
EXTAP	70	192	7
EXTAP	70	288	4
EXTAP	70	288	6
NMTAP	71	0	5
NMTAP	71	48	4
NMTAP	71	96	3
NMTAP	71	144	2
NMTAP	71	192	3
NMTAP	71	240	4
NMTAP	71	288	5
NMTAP	71	336	6
NMTAP	72	0	7
NMTAP	72	48	7
NMSTR	72	96	2
NMSLR	72	96	2	96	96	0
NMTAP	72	144	2
EXTAP	72	240	6
EXTAP	72	288	6
NMTAP	73	0	5
NMTAP	73	48	5
NMSTR	73	96	2
NMSLL	73	96	2	96	96	4
NMTAP	73	144	2
EXTAP	73	240	6
EXTAP	73	288	6
EXTAP	74	0	3
EXTAP	74	0	5
EXTAP	74	48	3
EXTAP	74	48	5
NMTAP	74	144	1
NMTAP	74	144	7
NMTAP	74	192	1
NMTAP	74	192	7
NMTAP	74	288	2
NMTAP	74	288	4
NMTAP	74	336	2
NMTAP	74	336	4
NMTAP	75	48	3
NMTAP	75	96	3
NMTAP	75	144	2
NMTAP	75	144	4
NMTAP	75	192	2
NMTAP	75	192	4
NMTAP	75	240	1
NMTAP	75	240	5
NMTAP	75	288	1
NMTAP	75	288	5
EXHLD	75	336	0	432
EXTAP	75	336	6
NMHLD	77	0	2	384
NMHLD	78	0	1	384
NMHLD	79	0	3	384
NMTTP	79	192	0	C	0	M1
NMHLD	80	0	4	384
NMHLD	81	0	6	384
NMHLD	82	0	5	384
NMHLD	83	0	7	384
NMSTR	84	0	0
NMSI_	84	0	0	96	96	2
NMSTR	84	192	4
NMSI_	84	192	4	96	96	6
NMSTR	85	0	0
NMSCR	85	0	0	96	288	6
NMTAP	85	192	7
NMTAP	85	288	7
NMSTR	86	0	7
BRSLL	86	0	7	96	192	3
NMTAP	86	192	0
NMTAP	86	288	0
CNSI_	86	288	3	0	96	1
NMSTR	87	0	0
NMSCR	87	0	0	96	144	3
NMTAP	87	192	7
CNSCR	87	240	3	0	144	6
NMTAP	87	288	7
NMTAP	88	0	7
NMTAP	88	192	5
NMTAP	88	240	5
NMTAP	88	288	4
NMTAP	88	288	6
NMTAP	89	0	2
NMTAP	89	48	2
NMTAP	89	96	1
NMTAP	89	96	3
NMTAP	89	192	4
NMTAP	89	240	4
NMTAP	89	288	3
NMTAP	89	288	5
NMTAP	90	0	2
NMTAP	90	48	2
NMTAP	90	96	5
NMTAP	90	144	5
NMTAP	90	192	1
NMTAP	90	240	1
NMTAP	90	288	6
NMTAP	90	336	6
NMTAP	91	0	0
NMTAP	91	24	7
NMTAP	91	48	0
NMTAP	91	72	7
NMTAP	91	96	0
NMTAP	91	120	7
NMTAP	91	144	0
NMTAP	91	168	7
NMTAP	91	192	0
NMTAP	91	216	7
NMTAP	91	240	0
NMTAP	91	264	7
NMTAP	91	288	0
NMTAP	91	312	7
NMTAP	91	336	0
NMTAP	91	360	7
NMTAP	92	0	0
NMHLD	93	0	2	288
NMHLD	93	192	6	96
BRSTR	94	0	1
BRSI_	94	0	1	96	48	4
NMSTR	94	96	7
NMSI_	94	96	7	96	48	3
NMTAP	94	192	2
NMTAP	94	288	2
NMTAP	94	288	4
BRSTR	95	0	6
BRSI_	95	0	6	96	48	3
NMSTR	95	96	0
NMSI_	95	96	0	96	48	4
NMTAP	95	192	5
NMTAP	95	288	3
NMTAP	95	288	5
BRSTR	96	0	1
BRSI_	96	0	1	96	48	4
NMTAP	96	48	1
NMSTR	96	96	7
NMSI_	96	96	7	96	48	3
NMTAP	96	144	7
NMSTR	96	192	0
BRSI_	96	192	0	96	48	4
NMTAP	96	240	0
NMSTR	96	288	6
NMSI_	96	288	6	96	48	3
NMTAP	96	336	6
NMSTR	97	0	2
BRSI_	97	0	2	96	48	5
NMTAP	97	48	2
NMTAP	97	96	6
NMHLD	97	192	7	72
NMHLD	97	264	4	72
NMTAP	97	336	5
NMSTR	98	0	5
BRSCR	98	0	5	96	48	0
NMTAP	98	96	0
NMSTR	98	192	1
NMSI_	98	192	1	96	48	4
NMTAP	98	288	6
NMTAP	98	336	6
NMSTR	99	0	6
BRSCL	99	0	6	96	48	3
NMTAP	99	96	1
NMSTR	99	192	2
NMSI_	99	192	2	96	48	7
NMTAP	99	288	6
NMTAP	99	336	6
EXTAP	100	0	5
EXTAP	100	0	6
NMTAP	100	96	0
NMTAP	100	144	0
NMTAP	100	192	1
NMTAP	100	192	7
NMTAP	100	288	5
NMTAP	100	336	5
NMTAP	101	0	4
NMTAP	101	0	6
NMTAP	101	96	1
NMTAP	101	96	3
NMTAP	101	192	3
NMTAP	101	216	4
NMTAP	101	240	3
NMTAP	101	264	4
EXTAP	101	288	2
EXTAP	101	288	5
BRSTR	102	0	6
BRSI_	102	0	6	96	48	3
NMSTR	102	96	0
NMSI_	102	96	0	96	48	4
NMTAP	102	192	5
NMTAP	102	288	3
NMTAP	102	288	5
BRSTR	103	0	1
BRSI_	103	0	1	96	48	4
NMSTR	103	96	7
NMSI_	103	96	7	96	48	3
NMTAP	103	192	2
NMTAP	103	288	2
NMTAP	103	288	4
BRSTR	104	0	6
BRSI_	104	0	6	96	48	3
NMTAP	104	48	6
NMSTR	104	96	0
NMSI_	104	96	0	96	48	4
NMTAP	104	144	0
NMSTR	104	192	5
BRSI_	104	192	5	96	48	1
NMTAP	104	240	5
NMSTR	104	288	2
NMSI_	104	288	2	96	48	7
NMTAP	104	336	2
NMSTR	105	0	6
BRSI_	105	0	6	96	48	3
NMTAP	105	48	6
NMSTR	105	96	1
NMSI_	105	96	1	96	48	5
NMTAP	105	144	1
NMSTR	105	192	7
BRSI_	105	192	7	96	48	3
NMTAP	105	240	7
NMTAP	105	288	1
NMTAP	106	0	2
NMTAP	106	48	2
NMTAP	106	96	1
NMTAP	106	96	3
NMTAP	106	192	4
NMTAP	106	240	4
NMTAP	106	288	3
NMTAP	106	288	5
NMTAP	107	0	6
NMTAP	107	48	6
NMTAP	107	96	5
NMTAP	107	96	7
NMTAP	107	192	0
NMTAP	107	240	0
NMTAP	107	288	1
NMTAP	107	288	7
NMTAP	108	0	2
NMTAP	108	24	4
NMTAP	108	48	2
NMTAP	108	72	4
NMTAP	108	96	2
NMTAP	108	120	4
NMTAP	108	144	2
NMTAP	108	168	4
NMTAP	108	192	1
NMTAP	108	216	5
NMTAP	108	240	1
NMTAP	108	264	5
NMTAP	108	288	1
NMTAP	108	312	5
NMTAP	108	336	1
NMTAP	108	360	5
NMSTR	109	0	0
NMSI_	109	0	0	96	72	5
CNSI_	109	168	5	0	72	2
CNSI_	109	240	2	0	48	7
NMTAP	110	0	0
NMTAP	110	0	6
NMTAP	110	48	0
NMTAP	110	48	6
NMTAP	110	144	2
NMTAP	110	144	3
NMTAP	110	192	2
NMTAP	110	192	3
NMTAP	110	288	1
NMTAP	110	288	7
NMTAP	110	336	1
NMTAP	110	336	7
NMTAP	111	48	4
NMTAP	111	48	5
NMTAP	111	96	4
NMTAP	111	96	5
BXSTR	111	192	0
NMSI_	111	192	0	96	48	4
BRTAP	111	192	6
EXTAP	111	288	7
NMTAP	112	0	3
NMTAP	112	0	5
NMTAP	112	48	3
NMTAP	112	48	5
EXTAP	112	144	2
EXTAP	112	168	3
EXTAP	112	192	2
NMTAP	112	288	1
NMTAP	112	288	7
NMTAP	112	336	1
NMTAP	112	336	7
EXTAP	113	48	6
EXTAP	113	72	7
EXTAP	113	96	6
BRTAP	113	192	1
BXSTR	113	192	7
BRSI_	113	192	7	96	48	3
EXTAP	113	288	0
NMTAP	114	0	1
NMTAP	114	48	1
NMTAP	114	96	3
NMTAP	114	144	3
NMTAP	114	192	5
NMTAP	114	240	5
NMTAP	114	288	7
NMTAP	114	336	7
NMTAP	115	0	0
NMTAP	115	0	7
NMTAP	115	96	1
NMTAP	115	96	3
NMTAP	115	192	4
NMTAP	115	192	6
EXSTR	115	288	0
BRSF_	115	288	0	96	48	4
BXTAP	116	0	0
NMHLD	120	0	1	672
NMHLD	121	0	4	960
NMTHO	122	0	0	576	C	0	M1
NMTAP	124	0	0
NMTAP	124	0	6
NMTAP	124	96	7
NMSTR	124	144	7
NMSI_	124	144	7	96	48	3
NMSTR	124	240	1
BRSI_	124	240	1	96	48	5
NMSTR	124	336	6
NMSCL	124	336	6	96	48	3
NMSTR	125	48	2
NMSI_	125	48	2	96	48	7
NMTAP	125	144	5
NMHLD	125	192	5	96
NMTAP	125	288	6
NMTAP	126	0	1
NMTAP	126	0	7
NMTAP	126	96	0
NMSTR	126	144	0
NMSI_	126	144	0	96	48	4
NMSTR	126	240	6
BRSI_	126	240	6	96	48	2
NMSTR	126	336	1
NMSCR	126	336	1	96	48	4
NMSTR	127	48	5
NMSI_	127	48	5	96	48	0
NMTAP	127	144	2
NMHLD	127	192	2	96
NMTAP	127	288	1
NMTAP	128	0	3
NMTAP	128	0	5
NMTAP	128	96	4
NMSTR	128	144	4
NMSI_	128	144	4	96	48	0
NMSTR	128	240	2
BRSI_	128	240	2	96	48	6
NMSTR	128	336	5
NMSCR	128	336	5	96	48	0
NMSTR	129	48	2
NMSI_	129	48	2	96	48	7
NMTAP	129	144	6
NMHLD	129	192	6	96
NMSTR	129	288	5
BRSCR	129	288	5	96	288	3
CNSUR	130	288	3	0	288	4
BRTAP	132	0	0
NMTAP	132	24	7
BRTAP	132	48	0
NMTAP	132	72	7
BRTAP	132	96	0
NMTAP	132	120	7
BRTAP	132	144	0
NMTAP	132	168	7
BRTAP	132	192	0
NMTAP	132	216	7
BRTAP	132	240	0
NMTAP	132	264	7
BRTAP	132	288	0
NMTAP	132	312	7
BRTAP	132	336	0
NMTAP	132	360	7
BXTAP	133	0	0
BXTAP	133	24	1
BXTAP	133	48	2
BXTAP	133	72	3
NMTAP	133	96	4
NMTAP	133	120	5
NMTAP	133	144	6
NMTAP	133	168	7
BXTAP	133	192	0
BXTAP	133	216	1
BXTAP	133	240	2
BXTAP	133	264	3
NMTAP	133	288	4
NMTAP	133	312	5
NMTAP	133	336	6
NMTAP	133	360	7
BRTAP	134	0	0
NMTTP	134	0	0	C	1	M1

T_REC_TAP	405
T_REC_BRK	18
T_REC_XTP	73
T_REC_BXX	17
T_REC_HLD	93
T_REC_XHO	5
T_REC_BHO	0
T_REC_BXH	2
T_REC_STR	49
T_REC_BST	7
T_REC_XST	3
T_REC_XBS	2
T_REC_TTP	46
T_REC_THO	1
T_REC_SLD	39
T_REC_BSL	22
T_REC_ALL	782
T_NUM_TAP	576
T_NUM_BRK	68
T_NUM_HLD	99
T_NUM_SLD	39
T_NUM_ALL	782
T_JUDGE_TAP	620
T_JUDGE_HLD	315
T_JUDGE_SLD	61
T_JUDGE_ALL	996
TTM_EACHPAIRS	154
TTM_SCR_TAP	288000
TTM_SCR_BRK	176800
TTM_SCR_HLD	99000
TTM_SCR_SLD	58500
TTM_SCR_ALL	622300
TTM_SCR_S	597050
TTM_SCR_SS	615500
TTM_RAT_ACV	10110

