VERSION	0.00.00	1.04.00
FES_MODE	0
BPM_DEF	201.000	201.000	201.000	201.000
MET_DEF	4	4
RESOLUTION	384
CLK_DEF	384
COMPATIBLE_CODE	MA2

BPM	0	0	201.000
MET	0	0	4	4

NMTAP	2	0	0
NMTAP	3	0	1
NMTAP	4	0	2
NMTAP	5	0	3
NMTAP	6	0	4
NMTAP	7	0	5
NMTAP	8	0	6
EXTAP	9	0	7
NMTAP	10	0	6
NMTAP	10	192	6
NMTAP	11	0	5
NMTAP	11	192	5
NMTAP	12	0	4
NMTAP	12	192	4
NMTAP	13	0	2
NMTAP	13	0	3
NMTAP	14	0	1
NMTAP	14	192	1
NMTAP	15	0	2
NMTAP	15	192	2
NMTAP	16	0	3
NMTAP	16	192	3
NMTAP	17	0	4
NMTAP	17	0	5
NMHLD	18	0	3	384
NMHLD	18	0	4	384
NMTTP	20	0	2	B	0	L1
NMTTP	20	192	1	B	0	L1
NMTTP	21	0	0	B	0	L1
NMTTP	21	192	7	B	0	L1
NMTTP	22	0	6	B	0	L1
NMTTP	22	192	5	B	0	L1
NMTTP	23	0	3	B	0	L1
NMTTP	23	0	4	B	0	L1
NMTTP	24	0	4	B	0	L1
NMTTP	24	0	5	B	0	L1
NMTTP	24	192	6	B	0	L1
NMTTP	24	192	7	B	0	L1
NMTTP	25	0	0	B	0	L1
NMTTP	25	0	1	B	0	L1
NMTTP	25	192	2	B	0	L1
NMTTP	25	192	3	B	0	L1
NMTTP	26	0	0	C	1	L1
NMTAP	28	0	5
NMTAP	28	96	5
NMTAP	28	192	6
NMTAP	28	288	6
NMTAP	29	0	7
NMTAP	29	96	7
NMTAP	29	192	0
NMTAP	29	192	1
NMTAP	30	0	2
NMTAP	30	96	2
NMTAP	30	192	1
NMTAP	30	288	1
NMTAP	31	0	0
NMTAP	31	96	0
NMTAP	31	192	6
NMTAP	31	192	7
NMTAP	32	0	6
NMTAP	32	96	6
NMTAP	32	192	5
NMTAP	32	288	5
NMTAP	33	0	4
NMTAP	33	96	4
NMTAP	33	192	2
NMTAP	33	192	3
NMTAP	34	0	0
NMTAP	34	0	1
NMTAP	34	96	0
NMTAP	34	96	1
NMTAP	34	192	0
NMTAP	34	192	1
EXTAP	35	0	6
EXTAP	35	0	7
EXTAP	35	96	6
EXTAP	35	96	7
EXTAP	35	192	6
EXTAP	35	192	7
NMTAP	36	0	5
NMTAP	36	96	5
NMTAP	36	192	4
NMTAP	36	192	5
NMTAP	36	288	4
NMTAP	36	288	5
NMTAP	37	0	6
NMTAP	37	96	6
NMTAP	37	192	6
NMTAP	37	192	7
NMTAP	37	288	6
NMTAP	37	288	7
NMTAP	38	0	0
NMTAP	38	96	0
NMTAP	38	192	0
NMTAP	38	192	1
NMTAP	38	288	0
NMTAP	38	288	1
NMTAP	39	0	2
NMTAP	39	0	3
NMTAP	39	96	2
NMTAP	39	96	3
NMTAP	39	192	2
NMTAP	39	192	3
NMTAP	40	0	2
NMTAP	40	96	2
NMTAP	40	192	2
NMTAP	40	192	3
NMTAP	40	288	2
NMTAP	40	288	3
NMTAP	41	0	1
NMTAP	41	96	1
NMTAP	41	192	0
NMTAP	41	192	1
NMTAP	41	288	0
NMTAP	41	288	1
NMTAP	42	0	7
NMTAP	42	96	7
NMTAP	42	192	6
NMTAP	42	192	7
NMTAP	42	288	6
NMTAP	42	288	7
EXTAP	43	0	4
EXTAP	43	0	5
EXTAP	43	192	2
EXTAP	43	192	3
NMHLD	44	0	2	192
NMHLD	44	192	3	192
NMHLD	45	0	4	192
NMTAP	45	192	5
NMHLD	46	0	5	192
NMHLD	46	192	4	192
NMHLD	47	0	3	192
NMTAP	47	192	2
NMHLD	48	0	2	192
NMHLD	48	192	3	192
NMHLD	49	0	4	192
NMTAP	49	192	5
NMTAP	50	0	6
NMTAP	50	0	7
NMTAP	50	96	6
NMTAP	50	96	7
NMTAP	50	192	6
NMTAP	50	192	7
EXTAP	51	0	0
EXTAP	51	0	1
EXTAP	51	96	0
EXTAP	51	96	1
EXTAP	51	192	0
EXTAP	51	192	1
NMHLD	52	0	1	192
NMTAP	52	192	0
NMTAP	53	0	1
NMTAP	53	96	1
NMTAP	53	192	0
NMTAP	53	192	1
NMHLD	54	0	2	192
NMTAP	54	192	3
NMTAP	55	0	2
NMTAP	55	96	2
NMTAP	55	192	2
NMTAP	55	192	3
NMHLD	56	0	5	192
NMTAP	56	192	4
NMTAP	57	0	5
NMTAP	57	96	5
NMTAP	57	192	4
NMTAP	57	192	5
NMHLD	58	0	6	192
NMTAP	58	192	7
NMTAP	59	0	6
NMTAP	59	96	6
NMTAP	59	192	6
NMTAP	59	192	7
NMSTR	60	0	0
NMSI_	60	0	0	96	288	3
NMSTR	60	0	7
NMSI_	60	0	7	96	288	4
NMTAP	62	0	5
NMTAP	62	96	5
NMTAP	62	192	6
NMTAP	62	192	7
NMTAP	62	288	6
NMTAP	62	288	7
NMTAP	63	0	0
NMTAP	63	96	1
NMTAP	63	192	2
NMTAP	63	192	3
NMTAP	64	0	2
NMTAP	64	96	2
NMTAP	64	192	0
NMTAP	64	192	1
NMTAP	64	288	0
NMTAP	64	288	1
NMTAP	65	0	7
NMTAP	65	96	6
NMTAP	65	192	4
NMTAP	65	192	5
NMTAP	66	0	6
NMTAP	66	0	7
NMTAP	66	96	6
NMTAP	66	96	7
NMTAP	66	192	0
NMTAP	66	192	1
NMTAP	66	288	0
NMTAP	66	288	1
NMHLD	67	0	0	192
NMHLD	67	0	7	192
NMHLD	68	0	1	192
NMHLD	68	192	0	192
NMHLD	69	0	7	192
NMTAP	69	192	6
NMHLD	70	0	6	192
NMHLD	70	192	7	192
NMHLD	71	0	0	192
NMTAP	71	192	1
NMTAP	72	0	2
NMTAP	72	96	2
NMTAP	72	192	2
NMTAP	72	192	3
NMTAP	73	0	5
NMTAP	73	96	5
NMTAP	73	192	4
NMTAP	73	192	5
EXTAP	74	0	3
EXTAP	74	0	4
EXTAP	74	144	3
EXTAP	74	144	4
EXTAP	74	288	2
EXTAP	74	288	5
EXTAP	75	48	2
EXTAP	75	48	5
BRTAP	75	192	2
BRTAP	75	192	5
NMSTR	76	0	6
NMSI_	76	0	6	96	288	3
NMSTR	78	0	1
NMSI_	78	0	1	96	288	4
NMSTR	80	0	6
NMSI_	80	0	6	96	288	2
NMSTR	82	0	1
NMSI_	82	0	1	96	288	5
EXTAP	84	0	6
EXTAP	84	0	7
EXTAP	84	192	6
EXTAP	84	192	7
EXTAP	85	0	4
EXTAP	85	0	5
NMTAP	85	192	4
NMTAP	85	192	5
EXTAP	86	0	2
EXTAP	86	0	3
NMTAP	86	192	2
NMTAP	86	192	3
EXTAP	87	0	0
EXTAP	87	0	1
NMTAP	87	192	0
NMTAP	87	192	1
EXTAP	88	0	0
NMTAP	88	96	1
NMTAP	88	192	2
NMTAP	88	288	3
NMTAP	89	0	4
NMTAP	89	96	5
NMTAP	89	192	6
NMTAP	89	288	7
EXTAP	90	0	0
NMTAP	90	96	1
NMTAP	90	192	2
NMTAP	90	288	3
NMHLD	91	0	3	384
NMHLD	91	0	4	384
BRTAP	93	0	3
BRTAP	93	0	4
NMTAP	94	0	4
NMTAP	94	0	5
NMTAP	94	96	4
NMTAP	94	96	5
NMTAP	94	192	6
NMTAP	94	240	6
NMTAP	94	288	6
NMTAP	95	0	0
NMTAP	95	0	7
NMTAP	95	96	0
NMTAP	95	96	7
NMTAP	95	192	1
NMTAP	95	240	1
NMTAP	95	288	1
NMTAP	96	0	2
NMTAP	96	0	3
NMTAP	96	96	2
NMTAP	96	96	3
NMTAP	96	192	4
NMTAP	96	240	4
NMTAP	96	288	4
NMTAP	97	0	2
NMTAP	97	0	3
NMTAP	97	96	2
NMTAP	97	96	3
NMTAP	97	192	1
NMTAP	97	192	4
NMTAP	98	0	2
NMTAP	98	0	3
NMTAP	98	96	2
NMTAP	98	96	3
NMTAP	98	192	1
NMTAP	98	240	1
NMTAP	98	288	1
NMTAP	99	0	0
NMTAP	99	0	7
NMTAP	99	96	0
NMTAP	99	96	7
NMTAP	99	192	6
NMTAP	99	240	6
NMTAP	99	288	6
NMTAP	100	0	4
NMTAP	100	0	5
NMTAP	100	96	4
NMTAP	100	96	5
NMTAP	100	192	3
NMTAP	100	240	3
NMTAP	100	288	3
NMTAP	101	0	4
NMTAP	101	0	5
NMTAP	101	96	4
NMTAP	101	96	5
NMTAP	101	192	3
NMTAP	101	192	6
NMTAP	102	0	5
NMTAP	102	48	5
NMTAP	102	96	5
NMTAP	102	192	6
NMTAP	102	240	6
NMTAP	102	288	6
NMTAP	103	0	7
NMTAP	103	48	7
NMTAP	103	96	7
NMTAP	103	192	0
NMTAP	103	192	1
NMTAP	103	288	0
NMTAP	103	288	1
NMTAP	104	0	2
NMTAP	104	48	2
NMTAP	104	96	2
NMTAP	104	192	3
NMTAP	104	240	3
NMTAP	104	288	3
NMTAP	105	0	4
NMTAP	105	0	5
NMTAP	105	96	4
NMTAP	105	96	5
NMTAP	105	192	3
NMTAP	105	192	6
NMTAP	106	0	2
NMTAP	106	48	2
NMTAP	106	96	2
NMTAP	106	192	1
NMTAP	106	240	1
NMTAP	106	288	1
NMTAP	107	0	0
NMTAP	107	48	0
NMTAP	107	96	0
NMTAP	107	192	6
NMTAP	107	192	7
NMTAP	107	288	6
NMTAP	107	288	7
NMTAP	108	0	5
NMTAP	108	48	5
NMTAP	108	96	5
NMTAP	108	192	4
NMTAP	108	240	4
NMTAP	108	288	4
NMHLD	109	0	2	192
NMHLD	109	0	3	192
EXTAP	110	0	4
EXTAP	110	0	5
EXTAP	110	144	4
EXTAP	110	144	5
EXTAP	110	288	3
EXTAP	110	288	6
EXTAP	111	48	3
EXTAP	111	48	6
EXTAP	111	192	3
EXTAP	111	192	6
EXTAP	112	0	2
EXTAP	112	0	3
EXTAP	112	144	2
EXTAP	112	144	3
EXTAP	112	288	1
EXTAP	112	288	4
EXTAP	113	48	1
EXTAP	113	48	4
EXTAP	113	192	1
EXTAP	113	192	4
NMTAP	114	0	0
NMTAP	114	96	1
NMTAP	114	192	2
NMTAP	114	288	3
NMTAP	115	0	4
NMTAP	115	96	5
NMTAP	115	192	6
NMTAP	115	288	7
NMSTR	116	0	0
NMSI_	116	0	0	96	288	3
NMSTR	118	0	4
NMSI_	118	0	4	96	288	7
NMSTR	120	0	0
NMSI_	120	0	0	96	288	5
NMSTR	120	0	1
NMSI_	120	0	1	96	288	4
NMSTR	122	0	6
NMSI_	122	0	6	96	288	3
NMSTR	122	0	7
NMSI_	122	0	7	96	288	2
NMTAP	124	0	1
NMTAP	124	96	2
NMTAP	124	192	3
NMTAP	124	288	4
NMTAP	125	0	5
NMTAP	125	96	6
NMTAP	125	192	7
NMTAP	125	288	0
NMTAP	126	0	1
NMTAP	126	96	2
NMTAP	126	192	3
NMTAP	126	288	4
NMTAP	127	0	5
NMTAP	127	96	6
NMTAP	127	192	0
NMTAP	127	192	7
NMTAP	128	0	7
NMTAP	128	96	6
NMTAP	128	192	5
NMTAP	128	288	4
NMTAP	129	0	3
NMTAP	129	96	2
NMTAP	129	192	1
NMTAP	129	288	0
NMHLD	130	0	0	384
NMHLD	130	0	7	384
NMTHO	132	0	0	768	C	1	L1

T_REC_TAP	308
T_REC_BRK	4
T_REC_XTP	57
T_REC_BXX	0
T_REC_HLD	29
T_REC_XHO	0
T_REC_BHO	0
T_REC_BXH	0
T_REC_STR	12
T_REC_BST	0
T_REC_XST	0
T_REC_XBS	0
T_REC_TTP	17
T_REC_THO	1
T_REC_SLD	12
T_REC_BSL	0
T_REC_ALL	440
T_NUM_TAP	394
T_NUM_BRK	4
T_NUM_HLD	30
T_NUM_SLD	12
T_NUM_ALL	440
T_JUDGE_TAP	398
T_JUDGE_HLD	156
T_JUDGE_SLD	12
T_JUDGE_ALL	566
TTM_EACHPAIRS	108
TTM_SCR_TAP	197000
TTM_SCR_BRK	10400
TTM_SCR_HLD	30000
TTM_SCR_SLD	18000
TTM_SCR_ALL	255400
TTM_SCR_S	247350
TTM_SCR_SS	255000
TTM_RAT_ACV	10015

