VERSION	0.00.00	1.04.00
FES_MODE	0
BPM_DEF	152.000	152.000	152.000	 76.000
MET_DEF	4	4
RESOLUTION	384
CLK_DEF	384
COMPATIBLE_CODE	MA2

BPM	0	0	152.000
BPM	38	0	 76.000
BPM	47	0	152.000
MET	0	0	4	4
MET	38	0	4	3
MET	47	0	4	4

BRTAP	1	0	6
NMTTP	1	4	6	B	1	M1
BRTAP	1	48	1
NMTTP	1	52	1	B	1	M1
BRTAP	1	96	7
NMTTP	1	100	7	B	1	M1
BRTAP	1	144	0
NMTTP	1	150	0	B	0	M1
NMTTP	1	156	0	C	1	M1
NMTTP	1	162	4	B	0	M1
NMTAP	2	0	3
NMHLD	2	0	5	48
NMTTP	2	96	4	B	0	M1
NMHLD	2	96	5	48
NMTTP	2	108	4	E	0	M1
NMTAP	2	192	3
NMHLD	2	192	5	48
NMTTP	2	288	4	B	0	M1
NMHLD	2	288	5	48
NMTTP	2	300	4	E	0	M1
NMTAP	3	0	3
NMHLD	3	0	5	48
NMTTP	3	96	4	B	0	M1
NMHLD	3	96	5	48
NMTTP	3	108	4	E	0	M1
NMSTR	3	192	3
NMSI_	3	192	3	96	48	7
NMSTR	3	192	5
NMSI_	3	192	5	96	48	7
NMHLD	4	0	2	48
NMTAP	4	0	4
NMHLD	4	96	2	48
NMTTP	4	96	3	B	0	M1
NMTTP	4	108	4	E	0	M1
NMHLD	4	192	2	48
NMTAP	4	192	4
NMHLD	4	288	2	48
NMTTP	4	288	3	B	0	M1
NMTTP	4	300	4	E	0	M1
NMHLD	5	0	0	48
NMHLD	5	0	1	48
NMHLD	5	96	6	48
NMHLD	5	96	7	48
NMSTR	5	192	0
BRSI_	5	192	0	96	48	4
NMSTR	5	192	7
BRSI_	5	192	7	96	48	3
NMTAP	5	240	1
NMTAP	5	240	6
BRTAP	5	288	0
BRTAP	5	288	7
NMTTP	6	0	1	B	0	M1
NMTTP	6	0	1	A	0	M1
NMTTP	6	0	2	E	0	M1
NMTTP	6	0	6	B	0	M1
NMTTP	6	0	6	E	0	M1
NMTTP	6	0	6	A	0	M1
NMTAP	6	96	2
NMTAP	6	128	2
NMTAP	6	144	4
NMTAP	6	176	4
NMTAP	6	192	1
NMTAP	6	224	1
NMTAP	6	240	3
NMTAP	6	272	3
NMSTR	6	288	0
NMSI_	6	288	0	96	48	3
NMSI_	6	288	0	96	48	5
NMTAP	6	336	1
NMTAP	6	336	7
NMTAP	7	0	0
NMTAP	7	96	5
NMTAP	7	128	5
NMTAP	7	144	3
NMTAP	7	176	3
NMTAP	7	192	6
NMTAP	7	224	6
NMTAP	7	240	4
NMTAP	7	272	4
NMSTR	7	288	7
NMSI_	7	288	7	96	48	2
NMSI_	7	288	7	96	48	4
NMTAP	7	336	0
NMTAP	7	336	6
NMTAP	8	0	7
NMTAP	8	96	2
NMTAP	8	128	2
NMTAP	8	144	3
NMTAP	8	176	3
NMTAP	8	192	1
NMTAP	8	224	1
NMTAP	8	240	7
NMTAP	8	272	7
NMTAP	8	288	0
NMTAP	8	336	1
NMTAP	8	336	6
NMTAP	9	0	2
NMTAP	9	32	2
NMTAP	9	48	0
NMTAP	9	80	0
NMTAP	9	96	7
NMTAP	9	128	7
NMTAP	9	144	5
NMTAP	9	176	5
EXSTR	9	192	4
BRSI_	9	192	4	96	48	1
EXSTR	9	240	4
BRSI_	9	240	4	96	48	7
EXSTR	9	288	4
BRSI_	9	288	4	96	48	0
NMTAP	10	96	5
NMTAP	10	128	5
NMTAP	10	144	7
NMTAP	10	176	7
NMTAP	10	192	0
NMTAP	10	224	0
NMTAP	10	240	2
NMTAP	10	272	2
NMTAP	10	288	3
NMTAP	10	336	1
NMTAP	10	336	4
NMTAP	11	0	1
NMTAP	11	0	4
NMTAP	11	48	2
NMTAP	11	48	5
NMTAP	11	96	6
NMTAP	11	128	6
NMTAP	11	144	4
NMTAP	11	176	4
NMTAP	11	192	3
NMTAP	11	224	3
NMTAP	11	240	1
NMTAP	11	272	1
NMTAP	11	288	7
NMTAP	11	336	2
NMTAP	11	336	6
NMTAP	12	0	3
NMTAP	12	0	5
NMTAP	12	48	6
NMTAP	12	96	2
NMTAP	12	96	4
NMTAP	12	144	1
NMTAP	12	192	3
NMTAP	12	192	4
NMTAP	12	240	5
NMSTR	12	288	3
NMSI_	12	288	3	96	48	6
NMSTR	12	288	4
NMSI_	12	288	4	96	48	6
NMTAP	12	336	2
NMSTR	13	0	3
NMSI_	13	0	3	96	48	1
NMSTR	13	0	4
NMSI_	13	0	4	96	48	1
NMSTR	13	96	3
NMSUR	13	96	3	96	96	4
NMSTR	13	96	4
NMSCR	13	96	4	96	96	3
NMTTP	14	0	0	A	0	M1
NMTTP	14	0	0	D	1	M1
NMTTP	14	0	1	D	0	M1
NMTTP	14	0	7	A	0	M1
NMTTP	14	0	7	D	0	M1
EXTAP	14	96	1
NMTAP	14	128	3
NMTAP	14	144	2
NMTAP	14	176	4
NMTAP	14	192	1
NMTAP	14	224	3
NMTAP	14	240	2
NMTAP	14	272	4
NMTAP	14	288	1
NMTAP	14	320	3
NMTAP	14	336	2
NMHLD	14	368	7	48
NMHLD	15	0	0	48
EXTAP	15	96	6
NMTAP	15	128	4
NMTAP	15	144	5
NMTAP	15	176	3
NMTAP	15	192	6
NMTAP	15	224	4
NMTAP	15	240	5
NMTAP	15	272	3
NMTAP	15	288	6
NMTAP	15	320	4
NMTAP	15	336	5
NMHLD	15	368	0	48
NMHLD	16	0	7	48
EXTAP	16	96	2
NMTAP	16	128	4
NMTAP	16	144	3
NMTAP	16	176	5
NMTAP	16	192	2
NMTAP	16	224	4
NMTAP	16	240	3
NMTAP	16	272	5
NMTAP	16	288	2
NMTAP	16	320	4
NMTAP	16	336	3
NMTAP	16	368	5
NMTAP	17	0	2
NMTAP	17	48	3
NMTAP	17	48	4
EXTAP	17	96	4
EXTAP	17	96	5
EXTAP	17	128	4
EXTAP	17	128	5
BXSTR	17	176	6
NMSI_	17	176	6	96	48	2
BXSTR	17	176	7
NMSI_	17	176	7	96	48	3
BXTAP	17	224	0
BXTAP	17	224	5
BXTAP	17	272	6
BXTAP	17	272	7
NMHLD	18	0	2	48
NMHLD	18	0	3	48
NMTAP	18	96	2
NMTAP	18	128	2
NMTAP	18	144	3
NMTAP	18	176	1
NMTAP	18	192	0
NMTAP	18	224	2
NMTAP	18	240	3
NMTAP	18	272	1
NMTAP	18	288	0
NMTAP	18	336	2
NMTAP	18	336	3
NMHLD	19	0	4	48
NMHLD	19	0	5	48
NMTAP	19	96	5
NMTAP	19	128	5
NMTAP	19	144	4
NMTAP	19	176	6
NMTAP	19	192	7
NMTAP	19	224	5
NMTAP	19	240	4
NMTAP	19	272	6
NMTAP	19	288	7
NMTAP	19	336	4
NMTAP	19	336	5
NMTAP	20	0	2
NMTAP	20	0	3
NMTAP	20	48	1
NMTAP	20	96	4
NMTAP	20	96	5
NMTAP	20	144	6
NMTAP	20	192	1
NMTAP	20	192	3
NMTAP	20	240	0
NMTAP	20	288	4
NMTAP	20	288	6
NMTAP	20	336	7
NMTAP	21	0	0
NMTTP	21	0	6	E	0	M1
NMTTP	21	48	2	E	0	M1
NMTAP	21	48	7
NMTAP	21	96	0
NMTTP	21	96	4	E	0	M1
BRTAP	21	144	2
BRTAP	21	144	5
BRTAP	21	176	2
BRTAP	21	176	5
NMTAP	21	240	3
NMTAP	21	240	4
BRTAP	21	288	1
BRTAP	21	288	6
NMSTR	22	0	2
NMSI_	22	0	2	96	48	4
NMTAP	22	0	4
NMTAP	22	48	4
NMTAP	22	96	5
NMTAP	22	144	6
NMTTP	22	192	5	E	0	M1
NMHLD	22	192	7	144
NMTTP	22	240	4	E	0	M1
NMTTP	22	288	3	E	0	M1
NMTAP	23	0	4
NMSTR	23	0	6
NMSI_	23	0	6	96	48	4
NMTAP	23	48	4
NMTAP	23	96	3
NMTAP	23	144	2
NMHLD	23	192	1	144
NMTTP	23	192	4	E	0	M1
NMTTP	23	240	5	E	0	M1
NMTTP	23	288	6	E	0	M1
NMSTR	24	0	3
NMSI_	24	0	3	96	48	5
NMTAP	24	0	5
NMTAP	24	48	5
NMTAP	24	96	6
NMTAP	24	144	7
NMHLD	24	192	0	144
NMTTP	24	192	6	E	0	M1
NMTTP	24	240	5	E	0	M1
NMTTP	24	288	4	E	0	M1
NMTAP	25	0	1
NMTAP	25	0	3
NMTAP	25	48	1
NMTAP	25	48	3
EXTAP	25	96	0
EXTAP	25	96	7
EXTAP	25	128	0
EXTAP	25	128	7
NMTAP	25	176	4
NMTAP	25	176	6
NMTAP	25	224	4
NMTAP	25	224	6
EXTAP	25	272	7
EXTAP	25	288	0
NMTAP	25	336	1
NMTAP	25	336	6
NMTAP	26	0	2
NMTAP	26	0	4
NMTAP	26	48	2
NMTAP	26	48	4
NMSTR	26	96	1
NMSCR	26	96	1	96	96	4
NMTAP	26	96	3
NMTTP	26	192	3	E	0	M1
NMTTP	26	240	2	E	0	M1
NMTTP	26	288	1	E	0	M1
NMTAP	27	0	3
NMTAP	27	0	5
NMTAP	27	48	3
NMTAP	27	48	5
NMTAP	27	96	4
NMSTR	27	96	6
NMSCL	27	96	6	96	96	3
NMTTP	27	192	4	E	0	M1
NMTTP	27	240	5	E	0	M1
NMTTP	27	288	6	E	0	M1
NMTAP	28	0	1
NMTAP	28	0	3
NMTAP	28	48	1
NMTAP	28	48	3
NMSTR	28	96	0
NMSCR	28	96	0	96	96	3
NMTAP	28	96	2
NMTTP	28	192	1	B	0	M1
NMTTP	28	240	0	E	0	M1
NMTTP	28	288	6	B	0	M1
EXSTR	29	0	7
NMSI_	29	0	7	96	48	3
NMSTR	29	96	0
NMSI_	29	96	0	96	48	4
NMTAP	29	96	7
NMTAP	29	192	0
NMSTR	29	192	7
NMSCL	29	192	7	96	48	4
NMSCR	29	192	7	96	48	2
BRTAP	29	288	7
EXSTR	30	0	0
NMSI_	30	0	0	96	48	5
NMTAP	30	48	7
NMTAP	30	96	0
NMTAP	30	96	2
NMTAP	30	144	1
NMTAP	30	176	1
NMSTR	30	192	0
NMSCL	30	192	0	96	48	5
NMTAP	30	240	7
NMTAP	30	288	0
NMTAP	30	288	2
EXSTR	31	0	1
NMSI_	31	0	1	96	48	4
NMTAP	31	48	2
NMTAP	31	96	1
NMTAP	31	96	7
NMTAP	31	144	0
NMTAP	31	176	0
NMSTR	31	192	1
NMSCR	31	192	1	96	48	4
NMTAP	31	240	2
NMTAP	31	288	1
NMTAP	31	288	6
NMSTR	32	0	7
NMSI_	32	0	7	96	48	2
NMTAP	32	48	0
NMTAP	32	96	5
NMTAP	32	96	7
NMTAP	32	144	6
NMTAP	32	176	6
NMSTR	32	192	7
NMSCR	32	192	7	96	48	2
NMTAP	32	240	0
NMTAP	32	288	5
NMTAP	32	288	7
NMSTR	33	0	6
NMSI_	33	0	6	96	48	3
NMTAP	33	48	5
NMTAP	33	96	0
NMTAP	33	96	6
NMTAP	33	144	7
NMTAP	33	176	7
NMSTR	33	192	6
NMSI_	33	192	6	96	48	1
NMSV_	33	192	6	96	48	3
EXSTR	34	0	0
NMSI_	34	0	0	96	48	5
NMTAP	34	48	7
NMTAP	34	96	0
NMTAP	34	96	2
NMTAP	34	144	1
NMTAP	34	176	1
NMSTR	34	192	0
NMSCL	34	192	0	96	48	5
NMTAP	34	240	7
NMTAP	34	288	0
NMTAP	34	288	2
NMSTR	35	0	7
NMSI_	35	0	7	96	48	2
NMTAP	35	48	0
NMTAP	35	96	5
NMTAP	35	96	7
NMTAP	35	144	6
NMTAP	35	176	6
NMSTR	35	192	7
NMSCR	35	192	7	96	48	2
NMTAP	35	240	0
NMTAP	35	288	5
NMTAP	35	288	7
NMTAP	36	0	6
NMTAP	36	32	6
NMTAP	36	48	4
NMTAP	36	80	4
NMTAP	36	96	5
NMTAP	36	128	5
NMTAP	36	144	0
NMTAP	36	176	0
EXTAP	36	192	3
NMTAP	36	204	2
NMTAP	36	216	1
NMTAP	36	228	0
NMTAP	36	240	7
NMTAP	36	252	6
NMTAP	36	264	5
NMTAP	36	276	4
NMSTR	36	288	3
NMSF_	36	288	3	96	48	7
NMTAP	36	300	2
NMTAP	36	312	1
NMTAP	36	324	0
NMTAP	36	336	7
NMTAP	36	348	6
NMTAP	36	360	5
NMTAP	36	372	4
BRTAP	37	0	3
NMTTP	37	12	0	C	1	M1
NMSTR	38	0	7
NMSCL	38	0	7	96	96	4
NMTAP	38	96	1
NMSTR	38	192	7
NMSCR	38	192	7	96	96	2
NMTAP	38	288	5
NMSTR	39	0	7
NMSI_	39	0	7	96	96	3
NMTAP	39	96	1
NMSTR	39	192	0
NMSCR	39	192	0	96	96	3
NMTAP	39	288	6
NMSTR	40	0	0
NMSCL	40	0	0	96	96	5
NMTAP	40	96	2
NMSTR	40	192	0
NMSI_	40	192	0	96	96	4
NMTAP	40	288	6
NMSTR	41	0	7
NMSCL	41	0	7	96	96	4
NMTAP	41	64	1
NMTAP	41	96	1
NMSTR	41	192	7
NMSI_	41	192	7	96	96	3
NMTAP	41	256	5
NMTAP	41	288	5
NMTAP	41	352	6
NMTAP	42	0	6
NMTAP	42	64	7
NMTAP	42	96	7
BRSTR	42	192	0
NMSI_	42	192	0	96	32	5
BRTAP	42	192	1
NMHLD	42	224	7	32
NMHLD	42	256	2	32
NMTAP	42	288	0
BRSTR	43	0	0
NMSI_	43	0	0	96	32	4
BRTAP	43	0	7
NMHLD	43	32	1	32
NMHLD	43	64	6	32
NMTAP	43	96	0
BRSTR	43	192	0
NMSI_	43	192	0	96	32	5
BRTAP	43	192	1
NMHLD	43	224	7	32
NMHLD	43	256	2	32
BRSTR	44	0	0
NMSI_	44	0	0	96	32	4
BRTAP	44	0	7
NMHLD	44	32	1	32
NMHLD	44	64	6	32
NMTAP	44	96	0
BRTAP	44	192	6
BRSTR	44	192	7
NMSI_	44	192	7	96	32	2
NMHLD	44	224	0	32
NMHLD	44	256	5	32
NMTAP	44	288	7
BRTAP	45	0	0
BRSTR	45	0	7
NMSI_	45	0	7	96	32	3
NMHLD	45	32	6	32
NMHLD	45	64	1	32
NMTAP	45	96	7
BRTAP	45	192	6
BRSTR	45	192	7
NMSI_	45	192	7	96	32	2
NMHLD	45	224	0	32
NMHLD	45	256	5	32
NMSTR	45	288	7
NMSI_	45	288	7	96	32	4
NMHLD	45	320	6	32
NMHLD	45	352	1	32
BRSTR	46	0	7
NMSI_	46	0	7	96	32	3
NMHLD	46	32	0	32
NMHLD	46	64	5	32
NMSTR	46	96	7
NMSCL	46	96	7	96	32	4
NMHLD	46	128	6	32
NMHLD	46	160	1	32
NMTAP	46	192	7
NMTHO	46	288	0	96	C	1	M1
NMTTP	47	0	2	B	0	M1
NMTTP	47	0	3	B	0	M1
NMTTP	47	0	3	E	0	M1
NMTTP	47	0	4	B	0	M1
NMTTP	47	0	4	E	0	M1
NMTTP	47	0	5	B	0	M1
NMTTP	47	0	5	E	0	M1
NMHLD	47	96	1	48
NMHLD	47	192	1	48
NMHLD	47	288	2	48
NMTAP	47	288	4
NMHLD	48	0	5	48
NMHLD	48	96	6	48
NMHLD	48	192	6	48
NMTAP	48	288	3
NMHLD	48	288	5	48
NMHLD	49	0	2	48
NMHLD	49	96	1	48
NMTAP	49	96	3
NMHLD	49	192	2	48
NMHLD	49	288	1	48
NMTAP	49	288	3
NMHLD	50	0	5	48
NMSTR	50	96	4
NMSXR	50	96	4	96	96	3
NMHLD	50	96	6	48
NMTAP	50	192	5
NMTAP	50	240	5
BRTAP	50	288	6
BRTAP	50	336	6
NMTAP	51	0	4
NMTAP	51	0	5
NMTAP	51	48	4
NMTAP	51	48	5
NMTAP	51	96	3
NMTAP	51	96	6
NMSTR	51	144	3
NMSV_	51	144	3	96	48	0
NMSTR	51	144	6
NMSXR	51	144	6	96	48	4
NMTAP	51	192	4
NMTAP	51	192	5
NMTAP	52	0	2
NMTAP	52	0	3
NMTAP	52	48	2
NMTAP	52	48	3
NMTAP	52	96	1
NMTAP	52	96	4
NMSTR	52	144	1
NMSV_	52	144	1	96	48	0
NMSTR	52	144	4
NMSXL	52	144	4	96	48	6
NMTAP	52	192	2
NMTAP	52	192	3
NMTAP	53	0	2
NMTAP	53	0	5
NMTAP	53	48	2
NMTAP	53	48	5
NMTAP	53	96	3
NMTAP	53	128	4
NMTAP	53	176	3
NMTAP	53	176	5
NMTAP	53	224	3
NMTAP	53	224	5
NMSTR	53	272	6
NMSCL	53	272	6	96	112	2
NMTAP	53	288	4
NMTAP	53	336	4
CNSUR	54	96	2	0	96	7
NMHLD	54	192	0	96
NMSTR	54	288	3
BRSF_	54	288	3	96	192	7
NMTAP	55	272	0
NMTAP	55	288	7
BRTAP	55	336	1
BRTAP	55	336	6
EXTAP	56	0	1
EXTAP	56	0	6
NMTAP	56	48	4
NMTAP	56	48	5
NMTAP	56	96	2
NMTAP	56	96	3
NMTAP	56	144	0
NMTAP	56	176	0
NMSTR	56	192	7
NMSI_	56	192	7	96	48	3
NMTAP	56	224	4
NMTAP	56	240	5
NMTAP	56	272	0
NMTAP	56	288	7
NMTAP	56	336	2
NMTAP	57	0	2
NMTAP	57	0	3
NMTAP	57	48	3
NMTAP	57	48	4
NMTAP	57	96	4
NMTAP	57	96	5
NMTAP	57	144	7
NMTAP	57	176	7
NMSTR	57	192	0
NMSI_	57	192	0	96	48	4
NMTAP	57	224	3
NMTAP	57	240	2
NMTAP	57	272	7
NMTAP	57	288	0
NMTAP	57	336	5
NMTAP	58	0	6
NMTAP	58	32	6
NMTAP	58	48	4
NMTAP	58	80	4
NMTAP	58	96	3
NMTAP	58	128	3
NMTAP	58	144	1
NMTAP	58	176	1
NMTAP	58	192	7
NMTAP	58	224	7
NMTAP	58	240	0
NMSTR	58	288	1
NMSI_	58	288	1	96	48	4
NMSTR	58	288	6
NMSI_	58	288	6	96	48	3
NMTAP	58	336	0
NMTAP	58	336	7
BRTAP	59	0	1
BRTAP	59	0	6
NMTAP	59	96	0
NMTAP	59	128	0
NMTAP	59	144	7
NMTAP	59	176	2
NMSTR	59	192	3
NMSI_	59	192	3	96	48	7
NMTAP	59	224	0
NMTAP	59	240	7
NMTAP	59	272	2
NMTAP	59	288	3
NMTAP	59	336	0
EXTAP	60	0	1
EXTAP	60	0	7
NMTAP	60	48	4
NMTAP	60	48	5
NMTAP	60	96	7
NMTAP	60	128	7
NMTAP	60	144	0
NMTAP	60	176	5
NMSTR	60	192	4
NMSI_	60	192	4	96	48	0
NMTAP	60	224	7
NMTAP	60	240	0
NMTAP	60	272	5
NMTAP	60	288	4
NMTAP	60	336	7
BXSTR	61	0	0
BRSI_	61	0	0	96	48	4
BXTAP	61	0	6
NMTAP	61	96	0
NMTAP	61	96	5
NMTAP	61	144	5
NMTAP	61	192	4
BRSTR	61	192	6
BRSI_	61	192	6	96	48	2
NMTAP	61	288	1
NMTAP	61	288	6
NMTAP	61	336	1
NMTAP	62	0	1
NMTAP	62	0	3
NMTAP	62	48	0
NMTAP	62	60	1
NMTAP	62	72	2
NMTAP	62	84	3
NMTAP	62	96	4
NMTAP	62	144	7
NMTAP	62	156	6
NMTAP	62	168	5
NMTAP	62	180	4
NMHLD	62	192	1	48
NMSTR	62	192	3
BRSI_	62	192	3	96	48	7
BRTAP	62	288	2
NMTAP	63	0	1
NMTAP	63	32	1
NMTAP	63	48	0
NMTAP	63	80	2
NMTAP	63	96	3
NMTAP	63	128	5
NMTAP	63	144	4
NMTAP	63	176	6
NMSTR	63	192	7
NMSI_	63	192	7	96	48	5
NMTAP	63	224	2
NMSTR	63	240	3
NMSI_	63	240	3	96	48	7
NMTAP	63	288	7
NMTAP	63	336	3
NMTAP	64	0	6
NMTAP	64	32	6
NMTAP	64	48	7
NMTAP	64	80	5
NMTAP	64	96	4
NMTAP	64	128	2
NMTAP	64	144	3
NMTAP	64	176	1
NMSTR	64	192	0
NMSI_	64	192	0	96	48	2
NMTAP	64	224	5
NMSTR	64	240	4
NMSI_	64	240	4	96	48	0
NMTAP	64	288	0
NMTAP	64	336	4
NMTAP	65	0	2
NMTAP	65	32	2
NMTAP	65	48	3
NMTAP	65	80	1
NMTAP	65	96	0
NMTAP	65	128	6
NMTAP	65	144	7
NMTAP	65	176	5
NMSTR	65	192	4
NMSI_	65	192	4	96	48	7
NMTAP	65	224	1
NMSTR	65	240	0
NMSI_	65	240	0	96	48	3
NMTAP	65	288	4
NMTAP	65	336	0
EXTAP	66	0	7
NMTAP	66	32	7
NMTAP	66	48	2
NMTAP	66	80	2
NMTAP	66	96	3
NMTAP	66	128	5
NMTAP	66	144	4
BRSTR	66	192	6
NMSI_	66	192	6	96	48	2
BRSTR	66	192	7
NMSI_	66	192	7	96	48	3
BRTAP	66	224	0
BRTAP	66	224	5
BRTAP	66	272	6
BRTAP	66	272	7
NMTAP	67	0	0
NMTAP	67	0	1
NMTAP	67	32	2
NMTAP	67	48	3
NMTAP	67	80	5
NMTAP	67	96	4
NMTAP	67	128	6
NMTAP	67	144	7
NMTAP	67	176	1
NMSTR	67	192	0
NMSI_	67	192	0	96	48	5
NMTAP	67	224	2
NMSTR	67	240	3
NMSI_	67	240	3	96	48	7
NMTAP	67	272	1
NMTAP	67	288	0
NMTAP	67	336	3
NMTAP	68	0	5
NMTAP	68	32	5
NMTAP	68	48	4
NMTAP	68	80	2
NMTAP	68	96	3
NMTAP	68	128	1
NMTAP	68	144	0
NMTAP	68	176	6
NMSTR	68	192	7
NMSI_	68	192	7	96	48	2
NMTAP	68	224	5
NMSTR	68	240	4
NMSI_	68	240	4	96	48	0
NMTAP	68	272	6
NMTAP	68	288	7
NMTAP	68	336	4
NMTAP	69	0	1
NMTAP	69	32	1
NMTAP	69	48	0
NMTTP	69	56	2	E	0	M1
NMTTP	69	64	2	B	0	M1
NMTTP	69	72	3	B	0	M1
NMTAP	69	96	6
BRTAP	69	144	0
BRTAP	69	144	5
NMTAP	69	192	6
NMTAP	69	224	6
NMTAP	69	240	7
NMTTP	69	248	6	E	0	M1
NMTTP	69	256	5	B	0	M1
NMTTP	69	264	4	B	0	M1
NMTAP	69	288	1
BRTAP	69	336	2
BRTAP	69	336	7
NMTAP	70	0	1
NMTAP	70	32	1
NMTAP	70	48	3
NMTAP	70	80	3
NMTAP	70	96	4
NMTAP	70	128	4
NMTAP	70	144	6
NMTAP	70	176	6
NMTAP	70	192	1
NMTTP	70	204	2	E	0	M1
NMTTP	70	216	2	B	0	M1
NMTTP	70	228	3	B	0	M1
NMTAP	70	240	6
NMTTP	70	252	6	E	0	M1
NMTTP	70	264	5	B	0	M1
NMTTP	70	276	4	B	0	M1
NMTAP	70	288	0
NMTTP	70	300	1	E	0	M1
NMTTP	70	312	1	B	0	M1
NMTTP	70	324	2	B	0	M1
NMTAP	70	336	7
NMTTP	70	348	7	E	0	M1
NMTTP	70	360	6	B	0	M1
NMTTP	70	372	5	B	0	M1
BRHLD	71	0	0	96
NMHLD	71	192	1	96
NMHLD	71	192	4	96
NMHLD	72	0	2	96
NMHLD	72	0	5	96
NMHLD	72	192	3	96
NMHLD	72	192	6	96
NMTAP	73	0	1
NMTAP	73	0	5
NMTAP	73	32	1
NMTAP	73	32	5
NMTAP	73	80	0
NMTAP	73	80	4
NMTAP	73	128	3
NMTAP	73	128	7
NMHLD	73	176	2	48
NMHLD	73	176	6	48
BRTAP	73	240	2
BRTAP	73	240	6
BRTAP	73	288	2
BRTAP	73	288	6
NMTAP	73	300	3
NMTAP	73	300	7
NMTAP	73	312	0
NMTAP	73	312	4
NMTAP	73	324	1
NMTAP	73	324	5
NMTAP	73	336	2
NMTAP	73	336	6
NMTAP	73	348	3
NMTAP	73	348	7
NMTAP	73	360	0
NMTAP	73	360	4
NMTAP	73	372	1
NMTAP	73	372	5
BRTAP	74	0	2
BRSTR	74	0	6
BRSXL	74	0	6	96	408	7
CNSI_	75	120	7	0	264	4

T_REC_TAP	500
T_REC_BRK	41
T_REC_XTP	19
T_REC_BXX	5
T_REC_HLD	68
T_REC_XHO	0
T_REC_BHO	1
T_REC_BXH	0
T_REC_STR	64
T_REC_BST	12
T_REC_XST	7
T_REC_XBS	3
T_REC_TTP	74
T_REC_THO	1
T_REC_SLD	80
T_REC_BSL	10
T_REC_ALL	885
T_NUM_TAP	664
T_NUM_BRK	72
T_NUM_HLD	69
T_NUM_SLD	80
T_NUM_ALL	885
T_JUDGE_TAP	725
T_JUDGE_HLD	107
T_JUDGE_SLD	90
T_JUDGE_ALL	922
TTM_EACHPAIRS	142
TTM_SCR_TAP	332000
TTM_SCR_BRK	187200
TTM_SCR_HLD	69000
TTM_SCR_SLD	120000
TTM_SCR_ALL	708200
TTM_SCR_S	680000
TTM_SCR_SS	701000
TTM_RAT_ACV	10102

