VERSION	0.00.00	1.04.00
FES_MODE	0
BPM_DEF	152.000	152.000	152.000	 76.000
MET_DEF	4	4
RESOLUTION	384
CLK_DEF	384
COMPATIBLE_CODE	MA2

BPM	0	0	152.000
BPM	38	0	 76.000
BPM	47	0	152.000
MET	0	0	4	4
MET	38	0	4	3
MET	47	0	4	4

NMTTP	1	0	0	C	1	M1
NMTTP	1	0	1	B	0	M1
NMTTP	1	0	2	B	0	M1
NMTTP	1	0	5	B	0	M1
NMTTP	1	0	6	B	0	M1
NMSTR	2	0	0
NMSCR	2	0	0	96	96	3
NMSTR	2	192	7
NMSCL	2	192	7	96	96	4
NMSTR	3	0	3
NMSCL	3	0	3	96	96	0
NMSTR	3	192	4
NMSCR	3	192	4	96	96	7
EXTAP	4	0	2
NMTAP	4	96	0
NMTAP	4	96	1
EXTAP	4	192	5
NMTAP	4	288	6
NMTAP	4	288	7
NMTAP	5	0	1
NMTAP	5	0	4
NMTAP	5	96	3
NMTAP	5	96	6
EXTAP	5	192	0
EXTAP	5	192	7
EXTAP	5	240	0
EXTAP	5	240	7
BXTAP	5	288	1
BXTAP	5	288	6
NMHLD	6	0	2	48
NMHLD	6	0	4	48
NMHLD	6	96	0	48
NMHLD	6	96	6	48
NMHLD	6	192	3	48
NMHLD	6	192	5	48
NMTAP	6	288	0
NMTAP	6	288	1
NMTAP	6	336	2
NMTAP	6	336	7
NMHLD	7	0	3	48
NMHLD	7	0	6	48
NMHLD	7	96	1	48
NMHLD	7	96	4	48
NMHLD	7	192	3	48
NMHLD	7	192	7	48
NMTAP	7	288	2
NMTAP	7	288	4
NMTAP	7	336	1
NMTAP	7	336	5
NMHLD	8	0	0	48
NMHLD	8	0	6	48
NMHLD	8	96	3	48
NMHLD	8	96	5	48
NMHLD	8	192	1	48
NMHLD	8	192	7	48
NMTAP	8	288	3
NMTAP	8	288	5
NMTAP	8	336	2
NMTAP	8	336	4
NMSTR	9	0	1
NMSI_	9	0	1	96	48	4
NMTAP	9	0	3
NMSTR	9	96	5
NMSCR	9	96	5	96	96	2
BXTAP	9	192	3
EXHLD	10	0	0	48
EXHLD	10	0	1	48
NMHLD	10	96	4	48
NMHLD	10	96	6	48
NMHLD	10	192	1	48
NMHLD	10	192	7	48
NMTAP	10	288	2
NMTAP	10	288	3
NMTAP	10	336	1
NMTAP	10	336	4
NMHLD	11	0	0	48
NMHLD	11	0	5	48
NMHLD	11	96	2	48
NMHLD	11	96	7	48
NMHLD	11	192	1	48
NMHLD	11	192	4	48
NMTAP	11	288	0
NMTAP	11	288	6
NMTAP	11	336	0
NMTAP	11	336	6
NMTAP	12	0	1
NMTAP	12	48	1
NMTAP	12	96	3
NMTAP	12	144	3
NMTAP	12	192	4
NMTAP	12	240	4
NMTAP	12	288	6
NMTAP	12	336	6
NMSTR	13	0	6
NMSI_	13	0	6	96	48	3
NMSTR	13	0	7
NMSI_	13	0	7	96	48	2
NMSTR	13	192	0
NMSI_	13	192	0	96	48	5
NMSTR	13	192	1
NMSI_	13	192	1	96	48	4
BRTAP	14	0	3
BRTAP	14	0	7
BRTAP	14	96	2
BRTAP	14	96	6
NMTAP	14	144	2
NMTAP	14	144	6
NMTAP	14	192	1
NMTAP	14	240	0
NMTAP	14	288	7
NMTAP	14	336	6
NMTAP	15	0	3
NMTAP	15	0	5
NMTAP	15	48	2
NMTAP	15	96	6
NMTAP	15	144	5
NMTAP	15	192	3
NMTAP	15	192	4
NMTAP	15	240	2
NMTAP	15	288	1
NMTAP	15	336	0
NMTAP	16	0	1
NMTAP	16	0	7
NMTAP	16	48	1
NMTAP	16	48	7
NMTAP	16	96	2
NMTAP	16	144	3
NMTAP	16	192	4
NMTAP	16	192	5
NMTAP	16	240	4
NMTAP	16	240	5
NMTAP	16	288	6
NMTAP	16	336	7
NMTAP	17	0	1
NMTAP	17	48	1
NMSTR	17	96	0
NMSXR	17	96	0	96	144	4
NMTAP	17	144	0
EXTAP	18	0	3
EXTAP	18	0	5
NMTAP	18	96	7
NMTAP	18	144	7
NMTAP	18	192	0
NMTAP	18	192	1
NMTAP	18	240	2
NMTAP	18	288	0
NMTAP	18	288	1
NMTAP	18	336	7
NMTAP	19	0	4
NMTAP	19	0	6
NMTAP	19	48	5
NMTAP	19	96	3
NMTAP	19	144	2
NMTAP	19	192	0
NMTAP	19	192	1
NMTAP	19	240	7
NMTAP	19	288	0
NMTAP	19	288	1
NMTAP	19	336	2
NMTAP	19	336	7
NMHLD	20	0	3	48
NMHLD	20	0	6	48
NMHLD	20	96	4	48
NMHLD	20	96	5	48
NMHLD	20	192	2	48
NMHLD	20	192	3	48
NMHLD	20	288	1	48
NMHLD	20	288	4	48
EXTAP	21	0	5
EXTAP	21	48	4
EXTAP	21	48	6
EXHLD	21	96	3	72
EXHLD	21	96	7	48
BXTAP	21	240	1
BXTAP	21	240	5
BXTAP	21	288	1
BXTAP	21	288	5
NMSTR	22	0	2
NMSI_	22	0	2	96	48	4
NMHLD	22	0	6	96
NMTAP	22	192	5
NMTAP	22	240	4
NMTAP	22	288	3
NMTAP	22	288	6
NMHLD	23	0	2	96
NMSTR	23	0	5
NMSI_	23	0	5	96	48	3
NMTAP	23	192	1
NMTAP	23	240	0
NMTAP	23	288	2
NMTAP	23	288	7
NMSTR	24	0	1
NMSI_	24	0	1	96	48	4
NMHLD	24	0	6	96
NMTAP	24	192	5
NMTAP	24	240	4
NMTAP	24	288	3
NMTAP	24	288	6
NMHLD	25	0	5	96
NMHLD	25	96	4	96
NMHLD	25	192	3	96
NMTAP	25	288	2
NMSTR	26	0	1
NMSI_	26	0	1	96	48	3
NMHLD	26	0	4	96
NMTAP	26	192	4
NMTAP	26	240	4
NMTAP	26	288	3
NMTAP	26	288	5
NMHLD	27	0	2	96
NMSTR	27	0	6
NMSI_	27	0	6	96	48	4
NMTAP	27	192	2
NMTAP	27	240	2
NMTAP	27	288	1
NMTAP	27	288	3
NMSTR	28	0	0
NMSI_	28	0	0	96	48	4
NMHLD	28	0	5	96
NMHLD	28	192	3	96
NMSTR	28	192	6
NMSI_	28	192	6	96	48	2
BRTAP	29	0	0
BRTAP	29	0	1
BRTAP	29	96	6
BRTAP	29	96	7
BRTAP	29	192	3
BRHLD	29	192	5	96
BRTAP	29	288	0
NMSTR	30	0	2
NMSI_	30	0	2	96	48	0
NMHLD	30	0	4	96
NMSTR	30	192	2
NMSI_	30	192	2	96	48	7
NMHLD	30	192	3	96
NMSTR	31	0	2
NMSI_	31	0	2	96	48	6
NMHLD	31	0	5	96
NMSTR	31	192	2
NMSI_	31	192	2	96	48	7
NMHLD	31	192	3	96
EXTAP	32	0	0
NMHLD	32	0	6	96
NMTAP	32	96	3
NMTAP	32	144	2
NMHLD	32	192	1	96
NMTAP	32	192	4
NMTAP	32	288	0
NMTAP	32	336	7
NMSTR	33	0	6
NMSCR	33	0	6	96	48	1
NMSTR	33	96	3
NMSXR	33	96	3	96	144	3
EXTAP	33	192	4
NMHLD	34	0	5	48
NMTAP	34	48	4
NMHLD	34	96	3	48
NMTAP	34	144	4
NMHLD	34	192	6	48
NMTAP	34	240	4
NMTAP	34	288	3
NMTAP	34	288	7
NMHLD	35	0	1	48
NMTAP	35	48	0
NMHLD	35	96	7	48
NMTAP	35	144	0
NMHLD	35	192	2	48
NMTAP	35	240	0
NMTAP	35	288	3
NMTAP	35	288	7
EXTAP	36	0	5
EXTAP	36	32	5
EXTAP	36	48	4
EXTAP	36	96	3
EXTAP	36	96	6
EXTAP	36	192	2
EXTAP	36	224	2
EXTAP	36	240	3
EXSTR	36	288	1
BRSCL	36	288	1	96	192	3
EXTAP	36	288	4
NMTTP	37	0	0	C	1	M1
NMHLD	38	0	2	192
NMHLD	38	192	3	192
NMHLD	39	0	4	192
NMHLD	39	192	5	192
NMTAP	40	0	4
NMTAP	40	96	4
NMTAP	40	96	5
NMTAP	40	192	4
NMHLD	40	192	5	192
NMTTP	40	288	5	B	0	M1
NMHLD	41	0	4	192
NMTTP	41	96	4	B	0	M1
NMHLD	41	192	3	192
NMTTP	41	288	3	B	0	M1
NMTHO	42	0	0	96	C	0	M1
NMTTP	42	0	2	B	0	M1
BRTAP	42	192	0
BRTAP	42	192	7
NMTTP	42	256	6	E	0	M1
NMTTP	42	288	4	B	0	M1
NMTTP	42	288	5	E	0	M1
NMTTP	42	352	2	E	0	M1
NMTTP	43	0	3	B	0	M1
NMTTP	43	0	3	E	0	M1
NMTTP	43	64	0	C	0	M1
NMTTP	43	96	0	B	0	M1
NMTTP	43	96	1	E	0	M1
NMTTP	43	96	6	B	0	M1
NMTTP	43	96	6	E	0	M1
NMTTP	43	192	7	A	0	M1
NMTTP	43	224	6	A	0	M1
NMTTP	43	256	5	A	0	M1
NMTTP	43	288	4	B	0	M1
NMTTP	43	288	4	A	0	M1
NMTTP	44	0	1	A	0	M1
NMTTP	44	32	2	A	0	M1
NMTTP	44	64	3	A	0	M1
NMTTP	44	96	4	B	0	M1
NMTTP	44	96	4	A	0	M1
BRTAP	44	192	6
BRTAP	44	192	7
NMTTP	44	256	6	E	0	M1
NMTTP	44	288	4	B	0	M1
NMTTP	44	288	5	E	0	M1
NMTTP	44	352	0	E	0	M1
NMTTP	45	0	1	B	0	M1
NMTTP	45	0	1	E	0	M1
NMTTP	45	64	0	C	0	M1
NMTTP	45	96	2	B	0	M1
NMTTP	45	96	3	B	0	M1
NMTTP	45	192	4	A	0	M1
NMTTP	45	224	5	A	0	M1
NMTTP	45	256	6	A	0	M1
NMTTP	45	288	7	B	0	M1
NMTTP	45	288	7	A	0	M1
NMTTP	46	0	1	A	0	M1
NMTTP	46	32	2	A	0	M1
NMTTP	46	64	3	A	0	M1
NMTTP	46	96	4	B	0	M1
NMTTP	46	96	4	A	0	M1
NMHLD	46	192	7	96
NMHLD	46	288	0	96
NMTTP	47	0	0	C	1	M1
NMTAP	48	0	0
NMTAP	48	0	7
NMTAP	48	96	0
NMTAP	48	96	7
NMTAP	48	192	1
NMTAP	48	192	6
NMTAP	48	288	2
NMTAP	48	288	5
NMHLD	49	0	3	48
NMHLD	49	0	4	48
NMHLD	49	96	3	48
NMHLD	49	96	4	48
NMHLD	49	192	4	48
NMHLD	49	192	5	48
NMHLD	49	288	4	48
NMHLD	49	288	5	48
NMHLD	50	0	2	48
NMHLD	50	0	3	48
NMHLD	50	96	2	48
NMHLD	50	96	3	48
EXTAP	50	192	1
EXTAP	50	240	1
BXTAP	50	288	0
BXTAP	50	288	1
NMTAP	51	0	7
NMTAP	51	48	7
NMTAP	51	96	0
NMTAP	51	96	6
NMTAP	51	144	0
NMTAP	51	144	6
NMSTR	51	192	5
NMSI_	51	192	5	96	48	3
NMTAP	51	240	5
EXTAP	51	288	3
NMTAP	52	0	0
NMTAP	52	48	0
NMTAP	52	96	1
NMTAP	52	96	7
NMTAP	52	144	1
NMTAP	52	144	7
NMSTR	52	192	2
NMSI_	52	192	2	96	48	4
NMTAP	52	240	2
EXTAP	52	288	4
EXTAP	53	0	5
EXHLD	53	48	4	48
EXHLD	53	48	5	80
EXHLD	53	176	2	96
EXHLD	53	224	3	64
EXTAP	53	336	4
EXSTR	54	0	3
NMSCL	54	0	3	96	96	0
EXSTR	54	0	4
NMSCR	54	0	4	96	96	7
BXSTR	54	288	1
NMSXR	54	288	1	96	192	4
BXSTR	54	288	6
NMSXL	54	288	6	96	192	3
NMTAP	55	288	2
NMTAP	55	288	5
NMSTR	56	0	1
NMSI_	56	0	1	96	48	5
NMTAP	56	48	1
NMSTR	56	96	0
NMSI_	56	96	0	96	48	4
NMTAP	56	144	0
NMSTR	56	192	2
NMSI_	56	192	2	96	48	7
NMTAP	56	240	2
NMTAP	56	288	3
NMTAP	56	336	4
NMSTR	57	0	5
NMSI_	57	0	5	96	48	1
NMTAP	57	48	5
NMSTR	57	96	4
NMSI_	57	96	4	96	48	0
NMTAP	57	144	4
NMSTR	57	192	7
NMSI_	57	192	7	96	48	3
NMTAP	57	240	7
NMTAP	57	288	1
NMTAP	57	336	2
NMHLD	58	0	2	48
NMTAP	58	48	3
NMHLD	58	96	5	48
NMTAP	58	144	4
EXTAP	58	192	3
EXTAP	58	224	3
EXTAP	58	240	4
EXTAP	58	288	2
EXTAP	58	288	5
NMSTR	59	0	1
NMSI_	59	0	1	96	48	4
NMTAP	59	48	1
NMSTR	59	96	5
NMSI_	59	96	5	96	48	0
NMTAP	59	144	5
NMTAP	59	192	3
NMTAP	59	240	2
NMTAP	59	288	1
NMTAP	59	288	7
NMSTR	60	0	6
NMSI_	60	0	6	96	48	3
NMTAP	60	48	6
NMSTR	60	96	2
NMSI_	60	96	2	96	48	7
NMTAP	60	144	2
NMTAP	60	192	4
NMTAP	60	240	5
NMSTR	60	288	0
BRSI_	60	288	0	96	48	4
NMTAP	60	288	6
BRTAP	61	0	4
NMTAP	61	48	5
NMSTR	61	96	6
NMSI_	61	96	6	96	48	2
BRTAP	61	192	2
NMTAP	61	240	1
NMHLD	61	288	0	96
NMTAP	62	0	3
NMTAP	62	48	1
NMTAP	62	48	4
NMSTR	62	96	2
NMSLL	62	96	2	96	96	4
NMSTR	62	96	5
NMSLR	62	96	5	96	96	3
NMTAP	63	0	4
NMTAP	63	0	6
NMTAP	63	48	0
NMTAP	63	96	1
NMTAP	63	96	3
NMTAP	63	192	1
NMTAP	63	192	3
NMTAP	63	240	7
NMTAP	63	288	4
NMTAP	63	288	6
NMTAP	64	0	4
NMTAP	64	0	5
NMTAP	64	48	0
NMTAP	64	96	1
NMTAP	64	96	3
NMTAP	64	192	2
NMTAP	64	192	3
NMTAP	64	240	7
NMTAP	64	288	4
NMTAP	64	288	6
NMTAP	65	0	4
NMTAP	65	0	6
NMTAP	65	48	7
NMTAP	65	96	2
NMTAP	65	96	3
NMTAP	65	192	1
NMTAP	65	192	3
NMTAP	65	240	0
NMTAP	65	288	4
NMTAP	65	288	5
NMTAP	66	0	2
NMTAP	66	0	3
NMTAP	66	48	2
NMTAP	66	48	3
NMTAP	66	96	1
NMTAP	66	96	4
NMTAP	66	144	1
NMTAP	66	144	4
BXTAP	66	192	0
BXTAP	66	224	0
BXTAP	66	272	1
BXTAP	66	272	7
NMTAP	67	0	3
NMTAP	67	0	5
NMTAP	67	48	0
NMTAP	67	96	2
NMTAP	67	96	4
NMTAP	67	144	7
NMTAP	67	192	3
NMTAP	67	192	5
NMTAP	67	240	0
NMTAP	67	288	1
NMTAP	67	288	3
NMTAP	67	336	2
NMTAP	67	336	4
NMTAP	68	0	3
NMTAP	68	0	5
NMTAP	68	48	7
NMTAP	68	96	2
NMTAP	68	96	4
NMTAP	68	144	0
NMTAP	68	192	3
NMTAP	68	192	5
NMTAP	68	240	7
NMTAP	68	288	4
NMTAP	68	288	6
NMTAP	68	336	3
NMTAP	68	336	4
BRSTR	69	0	1
NMSI_	69	0	1	96	48	3
BRSTR	69	0	3
NMSI_	69	0	3	96	48	7
NMTAP	69	48	1
NMTAP	69	48	3
BRSTR	69	192	4
NMSI_	69	192	4	96	48	0
BRSTR	69	192	6
NMSI_	69	192	6	96	48	4
NMTAP	69	240	4
NMTAP	69	240	6
NMTAP	70	0	1
NMTAP	70	0	3
NMTAP	70	48	7
NMTAP	70	96	4
NMTAP	70	96	5
NMTAP	70	144	0
NMTAP	70	192	2
NMTAP	70	192	3
NMTAP	70	240	7
NMTAP	70	288	4
NMTAP	70	288	5
NMTAP	70	336	0
BRSTR	71	0	2
NMSXR	71	0	2	96	384	7
BRSTR	71	0	6
BRSXR	71	0	6	96	384	3
EXTAP	72	192	7
NMTAP	72	288	0
NMTAP	72	336	0
NMTAP	73	0	1
NMTAP	73	0	7
NMTAP	73	24	1
NMTAP	73	24	7
NMTAP	73	72	2
NMTAP	73	72	6
BXTAP	73	128	3
BXTAP	73	128	5
BXTAP	73	176	3
BXTAP	73	176	5
BRTAP	73	240	0
BRTAP	73	240	1
BRSTR	73	288	2
NMSI_	73	288	2	96	48	5
BRSTR	73	288	7
NMSI_	73	288	7	96	48	3
NMTTP	74	0	0	C	1	M1

T_REC_TAP	268
T_REC_BRK	18
T_REC_XTP	34
T_REC_BXX	17
T_REC_HLD	82
T_REC_XHO	8
T_REC_BHO	1
T_REC_BXH	0
T_REC_STR	40
T_REC_BST	8
T_REC_XST	3
T_REC_XBS	2
T_REC_TTP	52
T_REC_THO	1
T_REC_SLD	50
T_REC_BSL	3
T_REC_ALL	587
T_NUM_TAP	397
T_NUM_BRK	49
T_NUM_HLD	91
T_NUM_SLD	50
T_NUM_ALL	587
T_JUDGE_TAP	442
T_JUDGE_HLD	172
T_JUDGE_SLD	53
T_JUDGE_ALL	667
TTM_EACHPAIRS	155
TTM_SCR_TAP	198500
TTM_SCR_BRK	127400
TTM_SCR_HLD	91000
TTM_SCR_SLD	75000
TTM_SCR_ALL	491900
TTM_SCR_S	472400
TTM_SCR_SS	487000
TTM_RAT_ACV	10100

