VERSION	0.00.00	1.04.00
FES_MODE	0
BPM_DEF	236.000	236.000	236.000	236.000
MET_DEF	4	4
RESOLUTION	384
CLK_DEF	384
COMPATIBLE_CODE	MA2

BPM	0	0	236.000
MET	0	0	4	4

NMHLD	3	0	2	1152
NMSTR	3	0	5
NMSCL	3	0	5	96	768	7
CNSUR	5	96	7	0	288	5
NMHLD	7	0	6	576
NMSTR	7	0	7
NMSCR	7	0	7	96	768	5
NMTHO	9	0	0	768	C	1	M1
CNSUL	9	96	5	0	288	7
NMTAP	11	0	0
NMTAP	11	144	1
NMTAP	11	144	7
NMTAP	11	288	0
NMHLD	11	288	6	384
NMTAP	12	0	4
NMTAP	12	96	4
NMTAP	12	192	3
NMTAP	12	288	3
NMTAP	13	0	3
NMTAP	13	0	6
NMTAP	13	144	2
NMTAP	13	144	5
NMHLD	13	288	1	384
NMTAP	13	288	4
NMTAP	14	0	3
NMTAP	14	96	3
NMTAP	14	192	4
NMTAP	14	288	4
NMHLD	15	0	5	144
NMHLD	15	144	4	144
NMTAP	15	288	3
NMHLD	16	0	1	144
NMHLD	16	144	3	144
NMHLD	16	288	4	144
NMHLD	17	48	6	144
NMHLD	17	192	0	144
NMSTR	17	336	2
NMSCR	17	336	2	96	240	7
NMTAP	18	96	0
NMTAP	18	192	1
NMTAP	18	288	2
NMSTR	19	0	3
NMSI_	19	0	3	96	96	1
NMTAP	19	144	4
CNSLL	19	192	1	0	192	5
NMTAP	19	192	4
NMSTR	20	0	3
NMSUR	20	0	3	96	240	4
NMTAP	20	192	0
NMTTP	21	0	1	E	0	M1
NMTTP	21	32	2	E	0	M1
NMTTP	21	64	3	E	0	M1
NMTTP	21	96	7	E	0	M1
NMTTP	21	128	6	E	0	M1
NMTTP	21	160	5	E	0	M1
NMTTP	21	192	1	D	0	M1
NMTTP	21	224	2	D	0	M1
NMTTP	21	256	3	D	0	M1
NMTTP	21	288	7	D	0	M1
NMTTP	21	320	6	D	0	M1
NMTTP	21	352	5	D	0	M1
NMTAP	22	0	0
NMTAP	22	24	1
NMTAP	22	48	2
NMTAP	22	72	3
NMTAP	22	96	7
NMTAP	22	120	6
NMTAP	22	144	5
NMTAP	22	168	4
NMTAP	22	192	0
NMTAP	22	216	7
NMTAP	22	240	6
NMTAP	22	264	5
NMTAP	22	288	4
NMTAP	22	312	3
NMTAP	22	336	2
NMTAP	22	360	1
BXTAP	23	0	0
NMTAP	23	96	5
NMSTR	23	192	3
NMSI_	23	192	3	96	48	1
NMTAP	23	192	5
NMTAP	23	288	5
NMTAP	24	0	0
NMTAP	24	0	5
NMTAP	24	96	1
NMTAP	24	96	5
NMTAP	24	144	1
NMTAP	24	192	5
NMTAP	24	240	2
NMTAP	24	288	5
NMSTR	24	336	3
NMSCL	24	336	3	96	192	6
NMTAP	25	0	5
NMTAP	25	96	5
NMTAP	25	192	4
CNSCR	25	240	6	0	240	2
NMTAP	25	288	4
NMTAP	26	0	3
NMTAP	26	96	3
NMTAP	26	192	4
NMTAP	26	240	3
NMTAP	26	288	2
NMTAP	26	288	4
NMTAP	27	0	1
NMSTR	27	0	5
NMSI_	27	0	5	96	48	3
NMTAP	27	96	1
NMTAP	27	192	1
NMSTR	27	192	2
NMSI_	27	192	2	96	48	6
NMTAP	27	288	1
NMTAP	28	0	1
NMTAP	28	0	7
NMTAP	28	96	0
NMTAP	28	96	1
NMTAP	28	144	0
NMTAP	28	192	1
NMTAP	28	240	7
NMTAP	28	288	1
NMSTR	28	336	6
NMSCL	28	336	6	96	192	1
NMTAP	29	0	0
NMTAP	29	96	0
NMTAP	29	192	7
CNSCR	29	240	1	0	240	6
NMTAP	29	288	7
NMTAP	30	0	0
NMTAP	30	96	0
NMTAP	30	192	1
NMTAP	30	240	1
NMTAP	30	288	0
NMTAP	30	288	7
NMHLD	31	0	3	96
NMHLD	31	0	5	96
NMTAP	31	144	3
NMTAP	31	144	5
NMTAP	31	336	2
NMTAP	31	360	3
NMTAP	32	0	2
NMTAP	32	72	1
NMTAP	32	72	4
NMTAP	32	144	1
NMTAP	32	144	4
NMTAP	32	240	4
NMTAP	32	288	5
NMTAP	32	336	6
NMSTR	32	336	7
NMSCR	32	336	7	96	192	5
NMSTR	33	144	5
NMSUL	33	144	5	96	144	4
NMTTP	33	288	0	C	1	M1
CNSCL	34	0	4	0	192	6
NMTAP	34	288	4
NMTAP	34	336	3
NMHLD	34	336	5	336
NMTTP	35	144	6	B	0	M1
NMTTP	35	144	6	E	0	M1
NMHLD	35	288	3	144
NMTTP	36	48	2	B	0	M1
NMTTP	36	48	3	E	0	M1
NMTAP	36	192	1
NMTAP	36	192	4
NMTAP	36	240	1
NMTAP	36	240	4
NMHLD	36	336	2	96
NMHLD	36	336	3	96
NMTAP	37	96	2
NMSTR	37	96	3
NMSCR	37	96	3	96	96	6
NMTAP	37	192	1
NMTAP	37	288	0
NMSTR	38	0	7
NMSCR	38	0	7	96	96	2
NMTAP	38	96	5
NMTAP	38	192	4
NMTAP	38	288	2
NMTAP	38	288	3
NMTAP	38	336	2
NMSTR	38	336	3
NMSI_	38	336	3	96	48	5
NMTAP	39	48	1
NMSTR	39	96	1
NMSI_	39	96	1	96	48	3
NMTAP	39	192	6
NMTAP	39	288	6
NMHLD	40	0	4	96
NMHLD	40	0	5	96
NMHLD	40	144	4	96
NMHLD	40	144	5	96
NMTAP	40	288	3
NMTAP	40	288	6
NMTAP	41	0	3
NMTAP	41	0	6
NMTAP	41	96	5
NMTAP	41	144	5
NMTAP	41	192	4
NMTAP	41	240	4
NMTAP	41	288	3
NMTAP	41	336	3
NMHLD	42	0	4	96
NMHLD	42	96	5	96
NMTAP	42	192	6
NMHLD	42	240	6	96
NMTAP	42	336	7
NMSTR	43	0	7
NMSI_	43	0	7	96	48	5
NMTAP	43	96	0
NMSTR	43	144	0
NMSI_	43	144	0	96	48	4
NMSI_	43	144	0	96	48	4
NMTAP	43	240	1
NMSTR	43	288	1
BRSI_	43	288	1	96	48	3
BRTAP	44	0	0
NMTAP	44	192	7
NMTAP	44	240	7
NMTAP	44	288	0
NMTAP	45	0	1
NMTAP	45	0	6
NMTAP	45	96	2
NMTAP	45	144	2
NMTAP	45	192	3
NMTAP	45	288	5
NMTAP	45	336	5
NMTAP	46	0	4
NMTAP	46	96	1
NMTAP	46	144	1
NMTAP	46	192	2
NMTAP	46	240	2
NMHLD	46	288	0	384
NMTTP	47	0	1	E	0	M1
NMTTP	47	96	3	E	0	M1
NMTTP	47	192	0	C	0	M1
NMTTP	47	288	5	E	0	M1
NMTAP	48	0	6
NMTAP	48	0	7
NMTAP	48	96	0
NMTAP	48	96	1
NMTAP	48	144	0
NMTAP	48	144	1
NMTAP	48	240	2
NMTAP	48	240	4
NMTAP	48	288	2
NMTAP	48	288	4
NMHLD	49	0	3	48
NMHLD	49	0	4	48
NMHLD	49	96	1	48
NMHLD	49	96	2	48
NMHLD	49	192	0	48
NMHLD	49	192	7	48
NMHLD	49	288	5	48
NMHLD	49	288	6	48
NMHLD	50	0	3	48
NMHLD	50	0	4	48
NMTAP	50	96	2
NMTAP	50	96	5
NMTAP	50	144	2
NMTAP	50	144	5
NMHLD	50	336	0	48
NMHLD	50	336	6	48
NMTAP	51	48	2
NMTAP	51	48	4
NMTAP	51	96	2
NMTAP	51	96	4
NMHLD	51	336	1	48
NMHLD	51	336	7	48
NMTAP	52	48	3
NMTAP	52	48	5
NMTAP	52	96	3
NMTAP	52	96	5
NMHLD	52	192	6	192
NMTAP	53	0	4
NMTAP	53	96	5
NMTAP	53	192	1
NMTAP	53	192	3
NMTAP	53	288	2
NMTAP	54	0	4
NMTAP	54	0	7
NMTAP	54	96	5
NMTAP	54	192	0
NMTAP	54	192	3
NMTAP	54	288	2
NMTTP	55	0	0	E	0	M1
NMTAP	55	0	4
NMTTP	55	0	7	E	0	M1
NMTTP	55	0	7	A	1	M1
NMTAP	55	96	5
NMTTP	55	192	0	E	0	M1
NMTTP	55	192	0	A	1	M1
NMTTP	55	192	1	E	0	M1
NMTAP	55	192	3
NMTAP	55	288	2
NMTTP	56	0	0	E	0	M1
NMTAP	56	0	4
NMTTP	56	0	7	E	0	M1
NMTTP	56	0	7	A	1	M1
NMTAP	56	192	2
NMTAP	56	192	6
NMTAP	56	288	3
NMTAP	56	288	5
NMSTR	57	0	7
NMSI_	57	0	7	96	48	4
NMTAP	57	48	1
NMTAP	57	96	7
NMTAP	57	144	2
NMSTR	57	192	7
NMSI_	57	192	7	96	48	2
NMTAP	57	240	3
NMTAP	57	288	7
NMTAP	57	336	4
NMSTR	58	0	0
NMSI_	58	0	0	96	48	5
NMSTR	58	0	4
NMSI_	58	0	4	96	48	1
NMTAP	58	96	0
NMTAP	58	96	4
NMSTR	58	192	6
NMSI_	58	192	6	96	48	3
NMSTR	58	192	7
NMSI_	58	192	7	96	48	2
NMTAP	58	288	6
NMTAP	58	288	7
NMHLD	59	0	1	72
NMHLD	59	72	2	72
NMTAP	59	144	3
NMSTR	59	192	3
NMSCL	59	192	3	96	96	7
NMSTR	59	288	7
NMSCL	59	288	7	96	96	3
NMSTR	60	0	3
NMSCL	60	0	3	96	96	7
NMTAP	60	96	7
NMTAP	60	120	6
NMTAP	60	144	5
NMTAP	60	168	4
NMTAP	60	192	3
NMTAP	60	288	5
NMTAP	60	288	7
NMSTR	61	0	6
NMSLL	61	0	6	96	96	0
NMTAP	61	96	1
NMTAP	61	144	2
NMSTR	61	192	3
NMSLL	61	192	3	96	96	5
NMTAP	61	288	0
NMTAP	61	336	7
NMSTR	62	0	6
NMSI_	62	0	6	96	48	3
NMSTR	62	96	7
NMSI_	62	96	7	96	48	3
NMSTR	62	192	0
NMSI_	62	192	0	96	48	3
EXSTR	62	288	1
NMSCR	62	288	1	96	144	0
NMTAP	63	0	4
NMTTP	63	144	0	C	1	M1
NMTAP	63	336	0
NMTAP	64	0	0
NMTAP	64	48	3
NMTAP	64	96	2
NMTAP	64	144	4
NMTAP	64	192	4
NMTAP	64	240	3
NMTAP	64	240	5
NMTAP	64	288	3
NMTAP	64	288	5
NMSTR	65	0	6
NMSI_	65	0	6	96	48	3
NMTAP	65	48	1
NMTAP	65	96	6
NMTAP	65	144	2
NMSTR	65	192	7
NMSI_	65	192	7	96	48	2
NMTAP	65	240	3
NMTAP	65	288	7
NMTAP	65	336	4
NMSTR	66	0	0
NMSF_	66	0	0	96	48	4
NMTAP	66	192	2
NMTAP	66	192	6
NMTAP	66	288	2
NMTAP	66	288	6
NMHLD	67	0	7	72
NMHLD	67	72	5	72
NMTAP	67	144	4
NMTAP	67	192	4
NMHLD	67	288	1	96
NMTAP	67	288	3
NMTAP	68	0	0
NMTAP	68	24	7
NMTAP	68	48	6
NMTAP	68	72	5
NMSTR	68	96	0
NMSI_	68	96	0	96	48	4
NMTAP	68	120	1
NMTAP	68	144	2
NMTAP	68	168	3
NMTAP	68	288	3
NMTAP	68	288	5
NMHLD	69	0	6	96
NMTAP	69	48	0
NMTAP	69	72	1
NMTAP	69	96	2
NMTAP	69	144	7
NMHLD	69	192	7	96
NMTAP	69	240	4
NMTAP	69	264	3
NMTAP	69	288	2
NMTAP	69	336	5
NMHLD	70	0	5	96
NMTAP	70	48	0
NMTAP	70	72	7
NMTAP	70	96	6
NMTAP	70	144	3
NMHLD	70	192	3	96
EXTAP	70	240	6
EXTAP	70	256	7
EXTAP	70	272	0
EXTAP	70	288	1
NMTAP	70	336	4
BRSTR	71	0	4
NMSI_	71	0	4	96	48	7
NMTAP	71	48	3
NMTAP	71	96	4
BRSTR	71	144	1
NMSI_	71	144	1	96	48	4
NMTAP	71	192	0
NMTAP	71	240	1
BRSTR	71	288	6
NMSI_	71	288	6	96	48	3
NMTAP	71	336	7
NMTAP	72	0	6
BRSTR	72	48	1
NMSI_	72	48	1	96	48	5
NMTAP	72	96	2
NMTAP	72	144	1
NMHLD	72	192	6	96
BRSTR	72	288	0
NMSF_	72	288	0	96	48	4
BRTAP	73	0	0
NMTTP	74	96	1	E	0	M1
NMTTP	74	192	2	E	0	M1
NMTTP	74	288	3	E	0	M1
NMHLD	75	0	2	576
NMHLD	75	0	3	288
NMTTP	76	96	3	E	0	M1
NMTTP	76	192	4	B	0	M1
NMTTP	76	288	6	E	0	M1
NMHLD	77	0	4	288
NMHLD	77	0	6	576
NMTTP	78	96	5	E	0	M1
NMTTP	78	192	3	B	0	M1
NMTTP	78	288	2	E	0	M1
NMHLD	79	0	1	144
NMHLD	79	0	3	144
NMTAP	79	288	3
NMTAP	79	288	4
NMSTR	80	0	4
NMSSL	80	0	4	96	192	0
NMTAP	80	0	6
NMSTR	81	0	5
NMSXL	81	0	5	96	192	3
NMTAP	81	144	1
NMTAP	81	192	1
NMHLD	81	336	2	96
NMTAP	82	48	3
NMSTR	82	96	3
NMSI_	82	96	3	96	96	0
NMTAP	82	192	1
NMTAP	82	288	2
NMSTR	83	0	3
NMSXR	83	0	3	96	192	4
NMTAP	83	144	7
NMTAP	83	192	7
NMHLD	83	336	5	96
NMTAP	84	48	4
NMSTR	84	96	4
NMSI_	84	96	4	96	96	7
NMTAP	84	192	6
NMTAP	84	288	5
NMTTP	85	0	6	E	1	M1
NMTAP	85	0	7
NMTAP	85	96	0
NMTAP	85	192	1
NMTAP	85	288	2
NMTAP	86	0	0
NMTTP	86	0	2	E	1	M1
NMTAP	86	96	7
NMTAP	86	192	6
NMTAP	86	288	3
NMTAP	86	288	5
NMTAP	87	0	1
NMTAP	87	48	3
NMTAP	87	96	2
NMTAP	87	144	6
NMTAP	87	192	4
NMTAP	87	240	5
NMTAP	87	288	0
NMTAP	87	336	2
NMTAP	88	0	1
NMTAP	88	48	7
NMTAP	88	96	5
NMTAP	88	144	6
NMTAP	88	192	0
NMTAP	88	216	1
NMTAP	88	240	2
NMTAP	88	264	3
NMTAP	88	288	4
NMTAP	88	312	5
NMTAP	88	336	6
NMTAP	88	360	7
NMSTR	89	0	0
NMSCR	89	0	0	96	672	7
NMTTP	89	0	3	B	0	M1
NMTTP	89	0	4	B	0	M1
NMTTP	89	0	4	E	1	M1
NMTTP	92	240	5	E	0	M1
NMTTP	92	288	4	B	0	M1
NMTTP	92	336	3	B	0	M1
NMTTP	93	0	3	E	0	M1
NMTTP	93	144	6	E	0	M1
NMTTP	93	192	5	B	0	M1
NMTTP	93	336	2	E	0	M1
NMTTP	94	0	2	B	0	M1
NMTTP	94	96	7	E	0	M1
NMTTP	94	192	0	E	0	M1
NMTTP	94	288	1	E	0	M1
NMTTP	95	0	2	E	0	M1
NMTTP	95	0	6	E	0	M1
NMTTP	95	144	4	B	0	M1
NMTTP	95	192	3	B	0	M1
NMHLD	96	0	2	144
NMHLD	96	0	5	144
NMSTR	97	0	0
NMSCR	97	0	0	96	192	3
NMTAP	97	144	4
NMTAP	97	192	4
NMTAP	97	336	7
NMSTR	98	0	7
NMSCL	98	0	7	96	192	4
NMTAP	98	96	4
NMTAP	98	192	3
NMTAP	98	288	2
NMSTR	99	0	2
NMSUL	99	0	2	96	192	5
NMTAP	99	144	3
NMTAP	99	192	3
NMTAP	99	288	4
NMTTP	100	0	0	C	1	M1
NMTAP	100	192	0
NMTAP	100	288	0
NMTTP	101	0	2	E	0	M1
NMTAP	101	0	7
NMTTP	101	96	3	E	0	M1
NMTAP	101	96	7
NMTTP	101	192	4	E	0	M1
NMTAP	101	192	7
NMTTP	101	288	5	E	0	M1
NMTAP	101	288	7
NMTAP	102	0	0
NMTTP	102	0	6	E	0	M1
NMTTP	102	0	6	D	0	M1
NMTAP	102	96	0
NMTTP	102	96	5	E	0	M1
NMTTP	102	96	5	D	0	M1
NMTAP	102	192	0
NMTTP	102	192	4	E	0	M1
NMTTP	102	192	4	D	0	M1
NMSTR	102	288	0
NMSXL	102	288	0	96	192	3
NMSXR	102	288	0	96	192	5
NMTTP	102	288	3	E	0	M1
NMTTP	102	288	3	D	0	M1
NMSTR	103	288	4
NMSF_	103	288	4	96	96	0
NMTAP	104	192	2
NMTAP	104	192	6
NMTAP	104	288	3
NMTAP	104	288	5
NMSTR	105	0	0
NMSI_	105	0	0	96	48	3
NMTAP	105	48	6
NMTAP	105	96	0
NMTAP	105	144	5
NMSTR	105	192	0
NMSI_	105	192	0	96	48	5
NMTAP	105	240	4
NMTAP	105	288	0
NMTAP	105	336	3
NMSTR	106	0	3
NMSI_	106	0	3	96	48	6
NMSTR	106	0	7
NMSI_	106	0	7	96	48	2
NMTAP	106	96	3
NMTAP	106	96	7
NMSTR	106	192	0
NMSI_	106	192	0	96	48	5
NMSTR	106	192	1
NMSI_	106	192	1	96	48	4
NMTAP	106	288	0
NMTAP	106	288	1
NMHLD	107	0	6	72
NMHLD	107	72	5	72
NMTAP	107	144	4
NMSTR	107	192	4
NMSCR	107	192	4	96	96	0
NMSTR	107	288	0
NMSCR	107	288	0	96	96	4
NMSTR	108	0	4
BRSCR	108	0	4	96	96	0
NMTAP	108	96	0
NMTAP	108	120	1
NMTAP	108	144	2
NMTAP	108	168	3
NMTAP	108	192	4
NMTAP	108	288	2
NMTAP	108	288	6
NMSTR	109	0	1
NMSLR	109	0	1	96	96	7
NMTAP	109	96	6
NMTAP	109	144	5
NMSTR	109	192	4
NMSLR	109	192	4	96	96	2
NMTAP	109	288	7
NMTAP	109	336	0
NMSTR	110	0	1
NMSI_	110	0	1	96	48	4
NMSTR	110	96	0
NMSI_	110	96	0	96	48	4
NMSTR	110	192	7
NMSI_	110	192	7	96	48	4
EXSTR	110	288	6
NMSCL	110	288	6	96	120	7
NMHLD	111	0	2	192
EXTAP	111	144	6
EXTAP	111	160	5
EXTAP	111	176	4
EXTAP	111	192	3
NMHLD	111	288	1	96
NMTAP	111	288	3
NMTAP	112	0	2
NMTAP	112	48	2
NMTAP	112	96	0
NMTAP	112	144	0
NMTAP	112	192	6
NMTAP	112	216	7
NMTAP	112	240	6
NMTAP	112	264	7
BRTAP	112	288	6
NMSTR	113	0	0
NMSI_	113	0	0	96	48	3
NMTAP	113	48	6
NMTAP	113	96	0
NMTAP	113	144	5
NMSTR	113	192	0
NMSI_	113	192	0	96	48	5
NMTAP	113	240	4
NMTAP	113	288	0
NMTAP	113	336	3
NMSTR	114	0	7
NMSCR	114	0	7	96	48	2
NMTAP	114	96	5
NMSTR	114	96	7
NMSCL	114	96	7	96	48	4
NMTAP	114	192	1
NMSTR	114	192	7
NMSI_	114	192	7	96	48	3
NMTAP	114	288	3
NMTAP	114	288	7
NMHLD	115	0	4	48
NMTAP	115	48	2
NMHLD	115	72	5	48
NMTAP	115	120	1
NMHLD	115	144	6	48
NMTAP	115	192	0
NMTAP	115	240	1
NMTAP	115	288	0
NMTAP	115	288	2
NMHLD	116	0	7	48
NMTAP	116	48	1
NMHLD	116	72	6	48
NMTAP	116	120	0
NMHLD	116	144	5	48
NMSTR	116	192	7
NMSI_	116	192	7	96	48	3
NMTAP	117	0	6
NMTAP	117	24	5
NMTAP	117	48	4
NMTAP	117	72	3
NMTAP	117	96	0
NMTAP	117	120	7
NMTAP	117	144	6
NMTAP	117	168	5
NMTAP	117	192	2
NMTAP	117	216	1
NMTAP	117	240	0
NMTAP	117	264	7
NMTAP	117	288	6
NMTAP	117	312	5
NMTAP	117	336	4
NMTAP	117	360	3
NMTAP	118	0	0
NMTAP	118	24	1
NMTAP	118	48	2
NMTAP	118	72	3
NMTAP	118	96	6
NMTAP	118	120	7
NMTAP	118	144	0
NMTAP	118	168	1
NMTAP	118	192	4
NMTAP	118	216	5
NMTAP	118	240	6
NMTAP	118	264	7
NMTAP	118	288	0
NMTAP	118	312	1
NMTAP	118	336	2
NMTAP	118	360	3
BXSTR	119	0	0
NMSLL	119	0	0	96	48	4
BXSTR	119	0	4
NMSLL	119	0	4	96	48	0
BRTAP	119	96	0
BRTAP	119	96	4
EXSTR	119	192	7
NMSI_	119	192	7	96	48	2
EXSTR	119	240	3
NMSI_	119	240	3	96	48	6
BRTAP	119	288	7
BRTAP	119	336	3
BXSTR	120	48	0
BRSI_	120	48	0	96	48	5
BXSTR	120	48	1
BRSI_	120	48	1	96	48	4
BRTAP	120	144	0
BRTAP	120	144	1
BXTAP	120	240	3
BXTAP	120	240	6
BXTAP	120	288	3
BXTAP	120	288	6
EXTAP	121	0	4
NMTAP	121	96	5
NMTAP	121	192	4
NMTAP	121	192	6
NMTAP	121	288	5
NMTAP	121	288	7
NMTAP	122	0	1
NMTAP	122	0	3
NMTAP	122	96	6
NMTAP	122	96	7
NMTAP	122	192	0
NMTAP	122	192	2
NMTAP	122	288	4
NMTAP	122	288	5
NMHLD	123	0	3	48
NMHLD	123	0	6	48
NMHLD	123	72	2	48
NMHLD	123	72	5	48
NMTAP	123	144	0
NMTAP	123	144	3
NMTAP	123	192	0
NMTAP	123	192	3
NMHLD	123	288	1	48
NMHLD	123	288	4	48
NMHLD	123	360	2	48
NMHLD	123	360	5	48
NMTAP	124	48	4
NMTAP	124	48	7
NMTAP	124	96	4
NMTAP	124	96	7
NMTTP	124	192	0	C	1	M1
BRTAP	124	192	2
NMTTP	124	264	0	C	1	M1
BRTAP	124	264	6
BRSTR	124	336	0
NMTTP	124	336	0	C	1	M1
NMSI_	124	336	0	96	480	5
NMSUR	124	336	0	96	480	3
CNSI_	126	144	3	0	1008	6
CNSUL	126	144	5	0	432	1
CNSI_	127	192	1	0	576	6

T_REC_TAP	425
T_REC_BRK	11
T_REC_XTP	9
T_REC_BXX	5
T_REC_HLD	78
T_REC_XHO	0
T_REC_BHO	0
T_REC_BXH	0
T_REC_STR	68
T_REC_BST	6
T_REC_XST	4
T_REC_XBS	4
T_REC_TTP	76
T_REC_THO	1
T_REC_SLD	81
T_REC_BSL	4
T_REC_ALL	772
T_NUM_TAP	582
T_NUM_BRK	30
T_NUM_HLD	79
T_NUM_SLD	81
T_NUM_ALL	772
T_JUDGE_TAP	608
T_JUDGE_HLD	243
T_JUDGE_SLD	85
T_JUDGE_ALL	936
TTM_EACHPAIRS	106
TTM_SCR_TAP	291000
TTM_SCR_BRK	78000
TTM_SCR_HLD	79000
TTM_SCR_SLD	121500
TTM_SCR_ALL	569500
TTM_SCR_S	549550
TTM_SCR_SS	566500
TTM_RAT_ACV	10052

