VERSION	0.00.00	1.04.00
FES_MODE	0
BPM_DEF	236.000	236.000	236.000	236.000
MET_DEF	4	4
RESOLUTION	384
CLK_DEF	384
COMPATIBLE_CODE	MA2

BPM	0	0	236.000
MET	0	0	4	4

NMSTR	3	0	4
NMSI_	3	0	4	96	480	7
NMSTR	5	0	0
NMSI_	5	0	0	96	480	3
NMSTR	7	0	3
NMSI_	7	0	3	96	480	0
NMSTR	9	0	7
NMSI_	9	0	7	96	480	4
NMTAP	11	0	3
NMTAP	11	0	5
NMTAP	11	144	3
NMTAP	11	144	5
NMHLD	11	288	2	192
NMHLD	11	288	6	192
NMTAP	12	192	2
NMTAP	12	192	6
NMTAP	13	0	2
NMTAP	13	0	4
NMTAP	13	144	2
NMTAP	13	144	4
NMHLD	13	288	1	192
NMHLD	13	288	5	192
NMTAP	14	192	1
NMTAP	14	192	5
NMTAP	15	0	4
NMTAP	15	0	6
NMTAP	15	144	4
NMTAP	15	144	6
NMTAP	15	288	3
NMTAP	15	288	4
NMTAP	16	0	1
NMTAP	16	0	3
NMTAP	16	144	1
NMTAP	16	144	3
NMTAP	16	288	2
NMTAP	16	288	4
NMTAP	17	48	2
NMTAP	17	48	4
NMTAP	17	192	3
NMTAP	17	192	5
NMTAP	17	336	3
NMTAP	17	336	5
NMTAP	18	96	4
NMTAP	18	96	6
NMTAP	18	192	7
NMTAP	18	288	0
NMTAP	19	0	1
NMTAP	19	0	3
NMTAP	19	96	1
NMSTR	19	96	3
NMSI_	19	96	3	96	96	7
NMTAP	20	0	4
NMTAP	20	0	6
NMSTR	20	96	4
NMSI_	20	96	4	96	96	0
NMTAP	20	96	6
NMHLD	21	0	1	96
NMHLD	21	96	3	96
NMHLD	21	192	4	96
NMHLD	21	288	6	96
NMHLD	22	0	1	96
NMHLD	22	96	3	96
NMHLD	22	192	4	96
NMTAP	22	288	6
NMTAP	23	0	7
NMTAP	23	96	7
NMTAP	23	192	4
NMTAP	23	192	6
NMTAP	23	288	4
NMTAP	23	288	6
NMTAP	24	0	0
NMTAP	24	96	0
NMTAP	24	192	1
NMTAP	24	192	3
NMTAP	24	288	1
NMTAP	24	288	3
NMTAP	25	0	4
NMTAP	25	96	4
NMTAP	25	96	5
NMTAP	25	192	6
NMTAP	25	288	0
NMTAP	25	288	7
NMTAP	26	0	1
NMTAP	26	96	2
NMTAP	26	96	3
NMTAP	26	192	4
NMTAP	26	288	4
NMTAP	26	288	5
NMTAP	27	0	6
NMTAP	27	96	6
NMTAP	27	192	2
NMTAP	27	192	7
NMTAP	27	288	2
NMTAP	27	288	7
NMTAP	28	0	1
NMTAP	28	96	1
NMTAP	28	192	0
NMTAP	28	192	5
NMTAP	28	288	0
NMTAP	28	288	5
NMTAP	29	0	4
NMTAP	29	96	2
NMTAP	29	96	3
NMTAP	29	192	1
NMTAP	29	288	0
NMTAP	29	288	7
NMTAP	30	0	6
NMTAP	30	96	4
NMTAP	30	96	5
NMTAP	30	192	3
NMTAP	30	288	2
NMTAP	30	288	3
NMHLD	31	0	1	96
NMHLD	31	0	4	96
NMHLD	31	144	1	96
NMHLD	31	144	4	96
EXTAP	32	0	2
EXTAP	32	0	3
EXTAP	32	72	3
EXTAP	32	72	4
EXTAP	32	144	4
EXTAP	32	144	5
NMTAP	32	336	4
NMTAP	32	336	6
NMTAP	33	144	0
NMTAP	33	144	7
NMHLD	33	288	1	192
NMHLD	33	288	3	192
NMTAP	34	192	0
NMTAP	34	288	1
NMTAP	34	288	7
NMHLD	34	336	1	96
NMHLD	34	336	7	96
NMHLD	35	144	2	96
NMHLD	35	144	6	96
NMTAP	35	288	3
NMTAP	35	288	5
NMTAP	36	48	2
NMTAP	36	48	4
NMTAP	36	192	3
NMTAP	36	192	5
NMTAP	36	240	3
NMSTR	36	240	5
NMSUL	36	240	5	96	240	3
NMHLD	38	0	1	192
NMHLD	38	192	3	192
NMHLD	39	0	4	192
NMHLD	39	192	6	192
NMTAP	40	0	0
NMSTR	40	96	0
NMSI_	40	96	0	96	96	4
NMHLD	41	0	5	192
NMHLD	41	192	7	192
NMHLD	42	0	0	192
NMHLD	42	192	2	192
NMTAP	43	0	4
NMTAP	43	144	1
NMTAP	43	144	5
NMTAP	43	288	0
NMSTR	43	288	6
NMSXL	43	288	6	96	288	3
NMTAP	45	0	2
NMTAP	45	96	1
NMTAP	45	192	0
NMTAP	45	192	7
NMTAP	45	288	6
NMTAP	46	0	2
NMTAP	46	96	1
NMTAP	46	192	0
NMTAP	46	192	7
NMTAP	46	288	6
NMTTP	47	0	5	E	0	M1
NMTTP	47	96	4	E	0	M1
NMTTP	47	192	3	E	0	M1
NMTTP	47	288	2	E	0	M1
NMHLD	48	0	1	96
NMTAP	48	96	3
NMTAP	48	144	3
NMTAP	48	240	2
NMTAP	48	240	4
NMTAP	48	288	2
NMTAP	48	288	4
NMTAP	49	0	4
NMTAP	49	0	5
NMTAP	49	96	6
NMTAP	49	96	7
NMTAP	49	192	0
NMTAP	49	192	1
NMTAP	49	288	2
NMTAP	49	288	3
NMSTR	50	0	2
NMSCL	50	0	2	96	96	7
NMSTR	50	0	3
NMSCR	50	0	3	96	96	6
EXTAP	50	336	6
EXTAP	50	336	7
EXTAP	51	48	0
EXTAP	51	48	5
EXHLD	51	96	0	144
EXHLD	51	96	5	144
EXTAP	51	336	0
EXTAP	51	336	1
EXTAP	52	48	2
EXTAP	52	48	7
EXTAP	52	96	2
EXTAP	52	96	7
EXTAP	52	192	3
EXTAP	52	192	6
EXTAP	52	288	4
EXTAP	52	288	5
NMTAP	53	0	6
NMTAP	53	0	7
NMTAP	53	96	6
NMTAP	53	96	7
NMTAP	53	192	0
NMTAP	53	192	7
NMTAP	53	288	0
NMTAP	53	288	7
NMTAP	54	0	0
NMTAP	54	0	1
NMTAP	54	96	0
NMTAP	54	96	1
NMTAP	54	192	2
NMTAP	54	192	3
NMTAP	54	288	2
NMTAP	54	288	3
NMTAP	55	0	3
NMTAP	55	0	4
NMTAP	55	96	3
NMTAP	55	96	4
NMTAP	55	192	4
NMTAP	55	192	5
NMSTR	55	288	4
BRSI_	55	288	4	96	96	0
NMHLD	55	288	5	288
NMTAP	57	0	5
NMTAP	57	96	6
NMTAP	57	96	7
NMTAP	57	192	2
NMTAP	57	288	0
NMTAP	57	288	1
NMTAP	58	0	5
NMTAP	58	96	6
NMTAP	58	96	7
NMTAP	58	192	1
NMTAP	58	288	2
NMTAP	58	288	3
NMTAP	59	0	4
NMSTR	59	96	4
NMSCR	59	96	4	96	96	7
NMTAP	59	288	1
NMSTR	60	0	1
NMSCR	60	0	1	96	96	4
NMTAP	60	192	5
NMTAP	60	288	6
NMTAP	61	0	7
NMTAP	61	96	4
NMTAP	61	96	5
NMTAP	61	192	0
NMTAP	61	288	2
NMTAP	61	288	3
NMTAP	62	0	7
NMTAP	62	96	4
NMTAP	62	96	5
NMTAP	62	192	2
NMSTR	62	288	0
NMSUR	62	288	0	96	144	5
NMSTR	62	288	1
NMSCR	62	288	1	96	144	4
NMSTR	63	288	6
NMSCL	63	288	6	96	144	3
NMSTR	63	288	7
NMSUL	63	288	7	96	144	2
NMTAP	64	288	0
NMTAP	64	288	1
NMTAP	65	0	5
NMTAP	65	96	6
NMTAP	65	96	7
NMTAP	65	192	2
NMTAP	65	288	0
NMTAP	65	288	1
NMTAP	66	0	5
NMTAP	66	96	6
NMTAP	66	96	7
NMTAP	66	192	2
NMTAP	66	288	0
NMTAP	66	288	1
NMTAP	67	0	6
NMTAP	67	96	3
NMTAP	67	96	5
NMTAP	67	192	1
NMTAP	67	288	2
NMTAP	67	288	4
NMTAP	68	0	5
NMTAP	68	48	5
NMTAP	68	96	3
NMTAP	68	192	2
NMTAP	68	240	2
NMTAP	68	288	4
NMTAP	69	0	2
NMTAP	69	0	3
NMTAP	69	96	0
NMTAP	69	96	1
NMTAP	69	192	6
NMTAP	69	192	7
NMTAP	69	288	4
NMTAP	69	288	5
NMTAP	70	0	2
NMTAP	70	0	3
NMTAP	70	96	0
NMTAP	70	96	1
NMTAP	70	192	6
NMTAP	70	192	7
NMTAP	70	288	4
NMTAP	70	288	5
NMHLD	71	0	4	96
NMHLD	71	0	6	96
NMHLD	71	144	3	96
NMHLD	71	144	5	96
NMHLD	71	288	2	96
NMHLD	71	288	4	96
NMHLD	72	48	1	96
NMHLD	72	48	3	96
NMTAP	72	192	1
NMTAP	72	192	3
NMTAP	72	288	1
NMTAP	72	288	3
NMHLD	73	0	0	768
NMTTP	73	192	0	E	0	M1
NMTTP	73	288	1	E	0	M1
NMTTP	74	0	2	E	0	M1
NMTTP	74	96	3	E	0	M1
NMTTP	74	192	4	E	0	M1
NMHLD	75	0	7	768
NMTTP	75	192	0	E	0	M1
NMTTP	75	288	7	E	0	M1
NMTTP	76	0	6	E	0	M1
NMTTP	76	96	5	E	0	M1
NMTTP	76	192	4	E	0	M1
NMHLD	77	0	2	768
NMTTP	77	192	4	E	0	M1
NMTTP	77	288	3	E	0	M1
NMTTP	78	0	2	E	0	M1
NMTTP	78	96	1	E	0	M1
NMTTP	78	192	0	E	0	M1
NMHLD	79	0	5	768
NMTTP	79	192	4	E	0	M1
NMTTP	79	288	5	E	0	M1
NMTTP	80	0	6	E	0	M1
NMTTP	80	96	7	E	0	M1
NMTTP	80	192	0	E	0	M1
NMSTR	81	0	2
NMSCL	81	0	2	96	96	7
NMTAP	81	192	4
NMSTR	82	0	5
NMSCR	82	0	5	96	96	0
NMTAP	82	192	3
NMSTR	83	0	2
NMSCL	83	0	2	96	96	7
NMTAP	83	192	4
NMSTR	84	0	5
NMSCR	84	0	5	96	96	0
NMTAP	84	192	3
NMTAP	85	0	2
NMTAP	85	96	2
NMTAP	85	192	1
NMTAP	85	192	3
NMTAP	85	288	1
NMTAP	85	288	3
NMTAP	86	0	0
NMTAP	86	0	4
NMTAP	86	96	0
NMTAP	86	96	4
NMTAP	86	192	5
NMTAP	86	192	7
NMTAP	86	288	5
NMTAP	86	288	7
NMHLD	87	0	6	144
NMHLD	87	144	4	144
NMHLD	87	288	3	144
NMHLD	88	48	1	144
BRTAP	88	192	6
NMSTR	89	0	7
NMSCL	89	0	7	96	480	2
NMSTR	91	0	0
NMSCR	91	0	0	96	480	5
NMSTR	93	0	6
NMSCR	93	0	6	96	480	3
NMHLD	93	0	7	576
NMHLD	95	0	0	576
NMSTR	95	0	1
NMSCL	95	0	1	96	480	4
NMHLD	97	0	5	192
NMTAP	97	192	4
NMHLD	98	0	2	192
NMTAP	98	192	3
NMHLD	99	0	4	192
NMTAP	99	192	3
NMTTP	100	0	0	C	1	M1
NMTTP	100	0	2	B	0	M1
NMTTP	100	0	5	B	0	M1
NMTAP	101	0	6
NMTAP	101	0	7
NMTAP	101	96	0
NMTAP	101	96	5
NMTAP	101	192	1
NMTAP	101	192	4
NMTAP	101	288	2
NMTAP	101	288	3
NMTAP	102	0	0
NMTAP	102	0	1
NMTAP	102	96	2
NMTAP	102	96	7
NMTAP	102	192	3
NMTAP	102	192	6
NMTAP	102	288	4
NMTAP	102	288	5
NMSTR	103	0	6
NMSCL	103	0	6	96	144	3
NMSTR	103	0	7
NMSUL	103	0	7	96	144	2
NMHLD	104	0	0	192
NMHLD	104	0	1	192
BRTAP	104	288	2
BRTAP	104	288	7
NMTAP	105	0	0
NMTAP	105	0	6
NMTAP	105	96	4
NMTAP	105	192	1
NMTAP	105	192	7
NMTAP	105	288	3
NMTAP	106	0	0
NMHLD	106	0	6	96
NMHLD	106	96	4	96
NMHLD	106	192	3	96
NMTAP	106	288	1
NMTAP	107	0	0
NMTAP	107	0	1
NMSTR	107	96	0
NMSI_	107	96	0	96	96	5
NMSTR	107	96	1
NMSI_	107	96	1	96	96	4
NMTAP	108	0	6
NMTAP	108	0	7
NMSTR	108	96	6
NMSI_	108	96	6	96	96	3
NMSTR	108	96	7
NMSI_	108	96	7	96	96	2
NMTAP	109	0	1
NMTAP	109	0	4
NMTAP	109	96	0
NMTAP	109	192	3
NMTAP	109	192	6
NMTAP	109	288	7
NMTAP	110	0	2
NMTAP	110	0	4
NMTAP	110	96	0
NMTAP	110	192	3
NMTAP	110	192	5
NMTAP	110	288	7
NMHLD	111	0	0	96
NMHLD	111	0	7	96
NMHLD	111	144	1	96
NMHLD	111	144	2	96
NMHLD	111	288	3	96
NMHLD	111	288	4	96
NMHLD	112	48	5	96
NMHLD	112	48	6	96
NMTAP	112	192	0
NMTAP	112	192	7
BRTAP	112	288	1
BRTAP	112	288	6
NMTAP	113	0	6
NMTAP	113	0	7
NMTAP	113	96	3
NMTAP	113	192	0
NMTAP	113	192	1
NMTAP	113	288	4
NMTAP	114	0	6
NMTAP	114	0	7
NMTAP	114	96	4
NMTAP	114	96	5
NMTAP	114	192	2
NMTAP	114	192	3
NMTAP	114	288	0
NMTAP	114	288	1
NMSTR	115	0	7
NMSI_	115	0	7	96	96	3
NMSTR	115	192	1
NMSI_	115	192	1	96	96	4
NMSTR	116	0	5
NMSI_	116	0	5	96	96	0
NMSTR	116	192	2
NMSI_	116	192	2	96	96	5
NMTAP	117	0	6
NMTAP	117	48	6
NMTAP	117	96	4
NMTAP	117	192	1
NMTAP	117	240	1
NMTAP	117	288	3
NMTAP	118	0	6
NMTAP	118	48	6
NMTAP	118	96	7
NMTAP	118	192	1
NMTAP	118	240	1
NMTAP	118	288	0
NMHLD	119	0	2	96
NMHLD	119	0	4	96
NMHLD	119	144	3	96
NMHLD	119	144	5	96
NMTAP	119	288	2
NMTAP	119	288	4
NMTAP	119	336	2
NMTAP	119	336	4
NMTAP	120	48	1
NMTAP	120	48	5
NMTAP	120	144	7
NMTAP	120	192	7
BRTAP	120	288	0
BRTAP	120	288	6
NMTAP	121	0	0
NMTAP	121	0	1
NMTAP	121	96	2
NMTAP	121	96	3
NMTAP	121	192	4
NMTAP	121	192	5
NMTAP	121	288	6
NMTAP	121	288	7
NMTAP	122	0	0
NMTAP	122	0	1
NMTAP	122	96	2
NMTAP	122	96	3
NMTAP	122	192	4
NMTAP	122	192	5
NMTAP	122	288	3
NMTAP	122	288	6
BRTAP	123	0	4
BRTAP	123	0	5
NMTAP	123	72	4
NMTAP	123	72	5
NMTAP	123	144	4
NMTAP	123	144	5
NMTAP	123	192	4
NMTAP	123	192	5
BRTAP	123	288	2
BRTAP	123	288	3
NMTAP	123	360	2
NMTAP	123	360	3
NMTAP	124	48	2
NMTAP	124	48	3
NMTAP	124	96	2
NMTAP	124	96	3
BRTAP	124	192	0
BRTAP	124	192	7
NMTAP	124	264	0
NMTAP	124	264	7
NMTAP	124	336	0
NMSTR	124	336	7
NMSI_	124	336	7	96	336	1
CNSI_	126	0	1	0	192	6
CNSI_	126	192	6	0	192	2
CNSI_	127	0	2	0	192	5
CNSI_	127	192	5	0	192	3
CNSI_	128	0	3	0	384	0

T_REC_TAP	354
T_REC_BRK	13
T_REC_XTP	20
T_REC_BXX	0
T_REC_HLD	69
T_REC_XHO	2
T_REC_BHO	0
T_REC_BXH	0
T_REC_STR	37
T_REC_BST	0
T_REC_XST	0
T_REC_XBS	0
T_REC_TTP	27
T_REC_THO	0
T_REC_SLD	36
T_REC_BSL	1
T_REC_ALL	559
T_NUM_TAP	438
T_NUM_BRK	14
T_NUM_HLD	71
T_NUM_SLD	36
T_NUM_ALL	559
T_JUDGE_TAP	451
T_JUDGE_HLD	266
T_JUDGE_SLD	37
T_JUDGE_ALL	754
TTM_EACHPAIRS	181
TTM_SCR_TAP	219000
TTM_SCR_BRK	36400
TTM_SCR_HLD	71000
TTM_SCR_SLD	54000
TTM_SCR_ALL	380400
TTM_SCR_S	367650
TTM_SCR_SS	379000
TTM_RAT_ACV	10036

