VERSION	0.00.00	1.04.00
FES_MODE	0
BPM_DEF	136.000	136.000	136.000	136.000
MET_DEF	4	4
RESOLUTION	384
CLK_DEF	384
COMPATIBLE_CODE	MA2

BPM	0	0	136.000
MET	0	0	4	4

NMTTP	1	96	2	B	0	M1
NMTTP	1	96	2	E	0	M1
NMTAP	1	288	3
NMTTP	2	96	5	B	0	M1
NMTTP	2	96	6	E	0	M1
NMTAP	2	288	4
NMTTP	3	96	2	B	0	M1
NMTTP	3	96	2	E	0	M1
NMTAP	3	288	3
NMTAP	3	336	2
NMTAP	3	336	4
NMTAP	4	48	5
NMTAP	4	96	4
NMTAP	4	96	6
NMTAP	4	144	3
NMTAP	4	160	4
NMTAP	4	176	2
EXSTR	4	192	3
NMSI_	4	192	3	96	48	7
BRTAP	5	0	0
BRTAP	5	0	6
NMTAP	5	96	2
NMSTR	5	144	1
NMSLR	5	144	1	96	96	5
NMTAP	5	144	3
NMSTR	5	240	5
NMSCL	5	240	5	96	96	1
NMSTR	5	336	1
NMSUR	5	336	1	96	144	4
NMTAP	6	48	7
NMTAP	6	144	5
NMSTR	6	192	5
NMSI_	6	192	5	96	48	0
NMSI_	6	192	5	96	48	1
NMTAP	6	288	5
NMTAP	7	0	2
NMTAP	7	0	7
NMTAP	7	96	4
NMTAP	7	96	6
NMTAP	7	144	5
NMTAP	7	192	3
NMTAP	7	192	4
NMTAP	7	240	2
NMTAP	7	288	1
NMTAP	7	288	3
EXSTR	7	336	0
NMSI_	7	336	0	96	48	4
EXTAP	7	336	4
NMTAP	8	48	7
NMTAP	8	96	7
NMTAP	8	144	5
NMTAP	8	168	4
NMSTR	8	192	6
NMSI_	8	192	6	96	48	2
NMTAP	8	288	6
NMTAP	8	288	7
BRHLD	9	0	1	192
BRHLD	9	0	3	192
NMSTR	9	240	1
NMSI_	9	240	1	96	48	4
NMTAP	9	240	3
NMTAP	9	336	1
NMHLD	9	336	5	240
NMTAP	10	240	4
NMSTR	10	240	5
NMSI_	10	240	5	96	48	2
NMHLD	10	336	1	240
NMTAP	10	336	5
NMTAP	11	240	1
NMSTR	11	240	3
NMSI_	11	240	3	96	48	7
NMTAP	11	336	0
NMTAP	11	360	0
NMTAP	12	0	1
NMTAP	12	48	2
NMTAP	12	96	3
NMTAP	12	96	7
NMSTR	12	144	4
NMSI_	12	144	4	96	48	0
NMSTR	12	144	6
NMSI_	12	144	6	96	48	4
NMTAP	12	240	4
NMTAP	12	240	6
NMTAP	13	0	6
NMTAP	13	0	7
NMTAP	13	48	5
NMTAP	13	96	3
NMTAP	13	96	4
NMSTR	13	144	2
NMSI_	13	144	2	96	32	0
NMTAP	13	168	2
NMSTR	13	240	3
NMSI_	13	240	3	96	48	7
NMHLD	13	336	1	96
NMTAP	14	48	0
NMTAP	14	96	1
NMTAP	14	96	7
NMSTR	14	144	6
NMSI_	14	144	6	96	48	3
NMTAP	14	168	6
NMSTR	14	240	2
NMSCR	14	240	2	96	48	5
NMHLD	14	336	6	96
NMTAP	15	48	7
NMTAP	15	96	0
NMTAP	15	96	6
NMSTR	15	144	1
NMSI_	15	144	1	96	32	7
NMSTR	15	144	5
NMSI_	15	144	5	96	32	3
NMTAP	15	168	1
NMTAP	15	168	5
NMTAP	15	240	1
NMTAP	15	240	5
NMTAP	15	336	4
NMTAP	15	360	4
NMTAP	16	0	1
NMTAP	16	32	2
NMTAP	16	64	3
NMTAP	16	96	7
NMTAP	16	128	6
NMTAP	16	160	5
EXSTR	16	192	0
NMSCR	16	192	0	96	48	3
EXSTR	16	192	4
NMSCR	16	192	4	96	48	7
BRTAP	17	0	1
BRTAP	17	0	5
NMTAP	17	96	2
NMTAP	17	96	3
NMSTR	17	144	4
NMSI_	17	144	4	96	48	0
NMTAP	17	192	5
NMTAP	17	240	6
NMTAP	17	336	7
NMTAP	18	0	0
NMTAP	18	0	6
NMTAP	18	48	2
NMTAP	18	96	1
NMTAP	18	96	3
NMTAP	18	144	5
NMTAP	18	192	4
NMTAP	18	192	6
NMTAP	18	240	3
NMTAP	18	240	5
NMTAP	18	288	2
NMTAP	18	288	4
NMSTR	18	336	1
NMSI_	18	336	1	96	48	5
NMTAP	19	0	0
NMTAP	19	0	2
NMTAP	19	48	1
NMSTR	19	144	6
NMSI_	19	144	6	96	48	2
NMTAP	19	192	5
NMTAP	19	192	7
NMTAP	19	240	6
NMTAP	19	336	0
NMTAP	20	0	1
NMTAP	20	0	7
NMTAP	20	48	6
NMTAP	20	96	0
NMSTR	20	96	5
NMSCL	20	96	5	96	48	2
NMTAP	20	144	1
NMSTR	20	192	2
NMSUR	20	192	2	96	48	6
NMSTR	20	288	0
NMSI_	20	288	0	96	48	4
BRTAP	21	0	0
NMHLD	21	0	7	240
NMSTR	21	240	5
NMSI_	21	240	5	96	48	2
NMHLD	21	336	1	192
NMTAP	21	336	5
NMHLD	22	144	5	96
NMTAP	22	240	4
NMTAP	22	256	3
NMTAP	22	272	2
EXSTR	22	288	1
NMSI_	22	288	1	96	48	4
EXTAP	22	288	5
NMTAP	23	0	7
NMTAP	23	48	6
NMTAP	23	96	3
NMTAP	23	96	5
NMTAP	23	144	2
NMTAP	23	192	1
NMTAP	23	192	3
NMTAP	23	240	4
NMTAP	23	288	3
NMTAP	23	288	6
NMHLD	23	336	7	192
NMTAP	24	0	5
NMTAP	24	48	4
NMTAP	24	96	3
NMTAP	24	144	2
NMTAP	24	192	0
NMTAP	24	192	1
NMTAP	24	204	2
NMTAP	24	216	3
NMTAP	24	228	4
NMTAP	24	240	5
NMTAP	24	252	6
NMTAP	24	264	7
NMTAP	24	276	0
BRTAP	24	288	1
BRTAP	24	288	5
NMSTR	25	0	4
NMSI_	25	0	4	96	48	0
NMSTR	25	0	6
NMSI_	25	0	6	96	48	4
NMTAP	25	96	4
NMSTR	25	96	6
NMSI_	25	96	6	96	48	2
NMSTR	25	192	1
NMSCR	25	192	1	96	96	7
NMTAP	25	192	6
NMTAP	25	288	0
NMTAP	25	336	0
NMTAP	26	0	1
NMTAP	26	48	2
NMTAP	26	96	3
NMTAP	26	96	4
NMTAP	26	144	5
NMTAP	26	192	6
NMTAP	26	192	7
NMTAP	26	240	0
NMTAP	26	288	1
NMTAP	26	288	7
NMTAP	26	336	2
NMTAP	26	336	6
NMSTR	27	0	3
NMSUR	27	0	3	96	96	4
NMTAP	27	0	5
NMSTR	27	96	4
NMSCR	27	96	4	96	120	3
NMTAP	27	192	7
NMTAP	27	288	5
NMHLD	27	336	7	96
NMTAP	28	48	0
NMTAP	28	96	1
NMTAP	28	96	7
EXTAP	28	144	4
EXTAP	28	144	5
NMTAP	28	192	6
EXTAP	28	216	7
NMTAP	28	240	6
BRTAP	28	288	1
BRTAP	28	288	5
NMTAP	29	0	2
NMTAP	29	0	3
NMSTR	29	48	0
NMSI_	29	48	0	96	48	4
NMSTR	29	48	1
NMSI_	29	48	1	96	48	4
NMTAP	29	96	7
NMTAP	29	144	0
NMTAP	29	144	1
NMSTR	29	240	6
NMSI_	29	240	6	96	48	3
NMSTR	29	240	7
NMSI_	29	240	7	96	48	3
NMTAP	29	264	0
NMTAP	29	288	1
NMTAP	29	336	6
NMTAP	29	336	7
NMSTR	30	48	0
NMSCR	30	48	0	96	48	3
NMTAP	30	48	1
NMTAP	30	96	7
NMTAP	30	144	0
NMTAP	30	144	6
NMTAP	30	240	6
NMSTR	30	240	7
NMSCL	30	240	7	96	48	4
NMTAP	30	288	0
NMTAP	30	336	1
NMTAP	30	336	7
NMHLD	31	0	2	72
NMHLD	31	72	4	72
NMHLD	31	144	6	72
NMHLD	31	216	0	72
NMSTR	31	288	2
NMSI_	31	288	2	96	48	7
NMTAP	32	0	5
NMTAP	32	24	4
NMTAP	32	72	0
NMTAP	32	96	1
NMTAP	32	144	7
NMTAP	32	168	6
NMTAP	32	216	2
NMTAP	32	240	3
NMTAP	32	288	4
NMTAP	32	288	5
NMSTR	33	0	0
NMSI_	33	0	0	96	24	4
NMSTR	33	0	7
NMSI_	33	0	7	96	24	3
NMTAP	33	24	1
NMTAP	33	24	6
NMTAP	33	48	2
NMTAP	33	48	5
NMTTP	33	96	0	C	1	M1
NMTAP	33	192	1
NMTAP	33	192	6
NMTAP	33	288	3
NMTAP	33	288	4
NMTAP	33	336	5
NMTAP	34	0	0
NMTAP	34	0	6
NMTAP	34	48	1
NMTAP	34	96	3
NMTAP	34	96	4
NMTAP	34	144	5
NMTAP	34	192	1
NMTAP	34	192	7
NMTAP	34	240	2
NMTAP	34	288	3
NMTAP	34	288	4
NMTAP	34	336	2
NMTAP	34	336	6
NMTAP	35	0	1
NMSTR	35	0	7
NMSCL	35	0	7	96	48	4
NMSTR	35	96	0
NMSCR	35	96	0	96	48	3
NMTAP	35	96	7
NMTAP	35	192	0
NMHLD	35	192	5	96
NMTAP	35	288	4
NMTAP	35	336	3
NMTAP	35	336	7
NMSTR	36	48	1
NMSI_	36	48	1	96	48	4
NMSTR	36	48	5
NMSI_	36	48	5	96	48	0
NMTAP	36	96	0
NMTAP	36	96	4
NMTAP	36	144	1
NMTAP	36	144	5
NMTAP	36	240	2
NMTAP	36	240	6
BRTAP	36	288	0
BRTAP	36	288	4
NMTAP	37	0	1
NMTAP	37	0	7
NMTAP	37	48	6
NMTAP	37	96	4
NMTAP	37	96	5
NMTAP	37	144	2
NMTAP	37	192	1
NMTAP	37	192	3
NMTAP	37	240	5
NMTAP	37	288	4
NMTAP	37	288	6
NMTAP	37	336	0
EXHLD	38	0	1	48
EXHLD	38	0	7	48
EXHLD	38	72	3	48
EXHLD	38	72	4	48
EXSTR	38	144	0
NMSV_	38	144	0	96	48	3
EXSTR	38	144	6
NMSV_	38	144	6	96	48	3
BRTAP	38	240	0
BRTAP	38	240	6
NMTAP	38	336	4
NMTAP	38	360	4
EXSTR	39	0	2
NMSI_	39	0	2	96	48	7
NMTAP	39	96	4
NMTAP	39	192	4
EXTAP	39	240	0
NMTAP	39	288	4
EXHLD	39	336	2	144
NMTAP	40	0	4
NMSTR	40	96	4
NMSXL	40	96	4	96	144	3
EXTAP	40	144	3
NMHLD	41	0	2	144
NMTAP	41	144	3
NMTTP	41	192	1	B	0	M1
NMTTP	41	192	2	E	0	M1
NMTAP	41	288	3
NMTAP	42	0	4
NMTAP	42	72	4
NMTAP	42	144	4
NMTTP	42	192	3	B	0	M1
NMTTP	42	192	4	E	0	M1
NMTAP	42	240	5
NMTAP	42	336	6
NMTAP	42	360	6
NMHLD	43	0	4	144
NMTAP	43	144	5
NMTTP	43	192	6	B	0	M1
NMTTP	43	192	6	E	0	M1
NMTAP	43	288	4
NMSTR	43	336	3
NMSCL	43	336	3	96	144	5
NMTAP	43	336	5
NMTAP	44	48	4
NMTAP	44	96	4
BRTAP	44	240	0
BRTAP	44	240	7
BRTAP	44	288	0
BRTAP	44	288	7
NMTAP	45	0	3
NMTAP	45	0	4
NMTAP	45	48	2
NMTAP	45	96	4
NMTAP	45	96	5
NMTAP	45	144	6
NMTAP	45	192	2
NMTAP	45	192	3
NMTAP	45	240	0
NMTAP	45	288	4
NMTAP	45	288	5
NMTAP	45	336	7
NMTAP	46	0	2
NMTAP	46	0	3
NMSTR	46	48	1
NMSI_	46	48	1	96	48	5
NMTAP	46	96	3
NMTAP	46	144	5
NMSTR	46	192	7
NMSCL	46	192	7	96	48	4
NMSCR	46	192	7	96	48	2
NMTAP	47	0	0
NMTAP	47	0	6
NMTAP	47	48	1
NMTAP	47	96	2
NMTAP	47	96	3
NMTAP	47	144	4
NMTAP	47	192	3
NMTAP	47	192	5
NMTAP	47	240	2
NMTAP	47	240	6
NMTAP	47	288	1
NMTAP	47	288	7
EXTAP	47	336	1
EXSTR	47	336	7
NMSI_	47	336	7	96	48	3
EXTAP	48	48	4
EXTAP	48	96	0
NMTAP	48	144	2
NMTAP	48	168	4
NMSTR	48	192	3
NMSF_	48	192	3	96	48	7
EXTAP	49	0	1
EXTAP	49	0	5
NMTAP	49	48	2
NMTAP	49	72	3
NMTAP	49	120	2
NMTAP	49	120	4
NMTAP	49	168	5
NMTAP	49	216	4
NMTAP	49	216	6
NMTAP	49	264	6
NMTAP	49	288	7
NMTAP	49	336	7
NMHLD	49	360	5	264
NMTAP	50	48	4
NMTAP	50	144	4
NMTAP	50	240	4
NMSTR	50	288	4
NMSCL	50	288	4	96	144	6
NMTAP	50	312	6
NMHLD	50	360	5	168
EXTAP	51	0	4
EXTAP	51	192	5
NMTAP	51	216	4
NMTAP	51	272	3
NMTAP	51	272	5
NMTAP	51	320	2
NMTAP	51	320	4
NMTAP	51	368	1
EXSTR	52	0	3
NMSI_	52	0	3	96	48	7
EXTAP	52	96	2
EXTAP	52	96	3
NMSTR	52	192	0
NMSV_	52	192	0	96	48	3
NMSTR	52	192	6
NMSV_	52	192	6	96	48	3
NMTAP	52	240	7
EXTAP	52	288	0
EXTAP	52	288	6
NMTTP	53	0	1	E	0	M1
NMTTP	53	12	2	E	0	M1
NMTTP	53	24	3	E	0	M1
NMTTP	53	36	4	E	0	M1
NMTTP	53	48	5	E	0	M1
NMTTP	53	60	6	E	0	M1
NMTTP	53	72	7	E	0	M1
NMTTP	53	84	0	E	0	M1
NMTTP	53	96	1	B	0	M1
NMTTP	53	96	1	D	1	M1
NMTAP	53	192	5
NMTAP	53	240	4
NMTAP	53	240	6
NMTAP	53	288	7
NMTAP	53	336	0
NMTAP	53	336	6
NMTAP	54	0	1
NMTAP	54	24	3
NMSTR	54	48	2
NMSI_	54	48	2	96	48	7
NMTAP	54	72	4
NMTAP	54	120	4
NMTAP	54	144	2
EXTAP	54	240	6
EXTAP	54	240	7
BRSTR	54	288	0
NMSCR	54	288	0	96	48	3
BRTAP	54	288	5
NMTAP	55	0	0
NMSTR	55	0	7
NMSCL	55	0	7	96	48	4
NMTAP	55	96	1
NMTAP	55	144	2
NMTAP	55	192	2
NMTAP	55	216	3
NMSTR	55	264	1
NMSI_	55	264	1	96	24	3
NMSTR	55	264	3
NMSI_	55	264	3	96	24	7
NMTAP	55	336	1
NMTAP	55	336	3
NMHLD	56	96	4	48
NMHLD	56	96	6	48
NMTAP	56	192	3
NMTAP	56	216	4
NMTAP	56	264	1
NMTAP	56	264	3
NMTAP	56	336	4
NMTAP	56	336	6
NMTAP	57	0	1
NMTAP	57	24	0
NMTAP	57	48	1
NMTAP	57	72	7
NMTAP	57	96	1
NMTAP	57	120	6
NMTAP	57	144	1
NMTAP	57	168	5
NMSTR	57	192	1
BRSI_	57	192	1	96	48	5
NMTAP	57	216	4
NMTAP	57	240	1
NMTAP	57	264	3
NMTTP	57	288	0	C	1	M1
NMTTP	60	144	3	E	0	M1
NMTTP	60	168	5	E	0	M1
NMTTP	60	192	4	E	0	M1
NMTTP	60	264	5	B	0	M1
NMTTP	60	336	2	B	0	M1
NMTTP	61	0	4	D	0	M1
NMTTP	61	96	3	D	0	M1
NMTTP	61	192	5	D	0	M1
NMHLD	62	0	2	96
NMTAP	62	96	3
NMTAP	62	240	4
NMTAP	62	288	3
NMHLD	63	0	5	96
NMTAP	63	96	4
NMTAP	63	240	3
NMTAP	63	264	3
NMSTR	63	288	4
NMSI_	63	288	4	96	48	0
NMHLD	64	0	1	72
NMHLD	64	72	7	72
NMHLD	64	144	5	72
NMHLD	64	216	3	72
NMSTR	64	288	1
NMSXL	64	288	1	96	144	0
NMTAP	65	0	4
NMTAP	65	48	4
NMTAP	65	96	5
NMTAP	65	144	6
NMTAP	65	192	6
NMTAP	65	192	7
NMTAP	65	204	5
NMTAP	65	216	4
NMTAP	65	228	3
NMTAP	65	240	2
NMTAP	65	252	1
NMTAP	65	264	0
NMTAP	65	276	7
BRTAP	65	288	2
BRTAP	65	288	6
NMSTR	66	0	0
NMSI_	66	0	0	96	24	4
NMSTR	66	0	7
NMSI_	66	0	7	96	24	3
NMTAP	66	24	1
NMTAP	66	24	6
NMTAP	66	48	2
NMTAP	66	48	5
NMTTP	66	96	0	C	1	M1
NMTAP	66	192	1
NMTAP	66	192	6
NMTAP	66	288	3
NMTAP	66	288	4
NMTAP	66	336	2
NMTAP	67	0	1
NMTAP	67	0	7
NMTAP	67	48	6
NMTAP	67	96	3
NMTAP	67	96	4
NMTAP	67	144	2
NMTAP	67	192	0
NMTAP	67	192	6
EXTAP	67	240	5
EXSTR	67	288	0
NMSCR	67	288	0	96	48	3
EXSTR	67	288	4
NMSCR	67	288	4	96	48	7
EXTAP	67	336	3
EXTAP	67	336	7
NMSTR	68	0	0
NMSUL	68	0	0	96	48	4
NMSTR	68	0	4
NMSUL	68	0	4	96	48	0
NMSTR	68	96	0
BRSCR	68	96	0	96	48	3
NMSTR	68	96	4
BRSCR	68	96	4	96	48	7
NMTAP	68	192	0
NMTAP	68	192	4
NMTAP	68	288	0
NMTAP	68	288	4
NMTAP	68	336	2
NMSTR	68	336	6
NMSXR	68	336	6	96	144	7
NMTAP	69	48	3
NMTAP	69	96	2
NMHLD	69	144	1	96
NMTAP	69	240	0
BRTAP	69	288	2
BRTAP	69	288	6
NMTAP	70	0	1
NMTAP	70	0	7
NMTAP	70	48	6
NMTAP	70	96	4
NMTAP	70	96	5
NMTAP	70	144	2
NMTAP	70	192	1
NMTAP	70	192	3
NMTAP	70	240	5
NMTAP	70	288	4
NMTAP	70	288	6
NMTAP	70	336	0
EXTAP	71	0	1
EXTAP	71	0	7
NMSTR	71	48	6
NMSI_	71	48	6	96	48	2
EXTAP	71	72	4
NMTAP	71	96	5
EXTAP	71	144	6
EXTAP	71	144	7
BRTAP	71	240	0
NMTAP	71	264	0
NMTAP	71	288	7
NMTAP	71	312	1
NMTAP	71	336	6
NMTAP	71	360	2
EXSTR	72	0	5
NMSI_	72	0	5	96	48	0
NMTAP	72	96	3
NMTAP	72	192	3
EXSTR	72	240	1
NMSI_	72	240	1	96	48	4
NMTAP	72	288	5
EXTAP	72	336	1
NMTAP	73	0	5
NMTAP	73	48	7
NMSTR	73	96	7
NMSI_	73	96	7	96	48	3
NMSTR	73	144	0
NMSCR	73	144	0	96	48	3
NMSTR	73	192	7
NMSCL	73	192	7	96	48	4
NMSTR	73	240	0
NMSI_	73	240	0	96	48	4
NMTAP	73	288	7
NMTAP	73	336	0
BRTAP	74	0	7
NMTAP	74	96	0
NMTAP	74	96	1
NMTAP	74	144	0
NMTAP	74	144	7
NMTAP	74	192	6
NMSTR	74	192	7
NMSCR	74	192	7	96	48	2
NMTAP	74	288	6
NMTAP	74	336	7
NMSTR	75	0	0
NMSCL	75	0	0	96	48	5
NMTAP	75	96	1
NMTAP	75	144	0
NMSTR	75	192	7
NMSI_	75	192	7	96	48	3
NMTAP	75	240	4
NMTAP	75	288	5
CNSI_	75	336	3	0	24	1
NMTAP	75	336	6
NMSTR	76	0	0
NMSCL	76	0	0	96	48	5
NMTAP	76	96	1
NMTAP	76	144	0
NMSTR	76	192	7
NMSCR	76	192	7	96	48	2
NMTAP	76	288	6
NMTAP	76	336	7
NMTAP	77	0	0
NMTAP	77	24	0
NMTAP	77	72	1
NMTAP	77	72	7
NMTAP	77	120	2
NMTAP	77	120	3
NMTAP	77	168	1
NMHLD	77	168	5	72
NMTAP	77	240	4
NMTAP	77	288	6
NMTAP	77	288	7
NMTAP	77	336	0
NMTAP	77	336	7
NMSTR	78	0	0
NMSCL	78	0	0	96	48	5
NMTAP	78	0	1
NMTAP	78	96	3
NMTAP	78	144	1
NMSTR	78	192	7
NMSCR	78	192	7	96	48	2
NMTAP	78	288	4
NMTAP	78	336	6
NMSTR	79	0	0
NMSI_	79	0	0	96	48	4
NMTAP	79	96	3
NMTAP	79	144	1
CNSI_	79	144	4	0	24	6
NMSTR	79	192	7
NMSI_	79	192	7	96	48	3
NMSTR	79	240	1
NMSI_	79	240	1	96	48	5
NMTAP	79	288	7
NMTAP	79	336	1
NMSTR	80	0	0
NMSCL	80	0	0	96	48	5
NMTAP	80	96	1
NMTAP	80	144	0
NMSTR	80	192	7
NMSCR	80	192	7	96	48	2
NMTAP	80	288	6
NMTAP	80	336	7
NMSTR	81	0	0
NMSI_	81	0	0	96	48	4
NMSTR	81	0	3
NMSI_	81	0	3	96	48	1
NMTAP	81	96	0
NMTAP	81	96	3
NMSTR	81	192	4
NMSI_	81	192	4	96	48	6
NMSTR	81	192	7
NMSI_	81	192	7	96	48	3
NMTAP	81	288	4
NMTAP	81	288	7
NMTAP	82	0	1
NMTAP	82	24	0
NMTAP	82	48	2
NMTAP	82	72	7
NMTAP	82	96	3
NMTAP	82	120	6
NMTAP	82	144	4
NMTAP	82	168	5
NMSTR	82	240	2
NMSXR	82	240	2	96	120	3
NMSTR	82	240	6
NMSXR	82	240	6	96	120	7
NMTAP	82	336	2
NMTAP	82	336	6
NMHLD	83	144	1	96
NMHLD	83	144	5	96
NMSTR	83	288	0
NMSCR	83	288	0	96	24	3
NMSTR	83	288	4
NMSCR	83	288	4	96	24	7
NMTAP	83	312	3
NMTAP	83	312	7
BRTAP	83	360	0
BRTAP	83	360	4

T_REC_TAP	454
T_REC_BRK	26
T_REC_XTP	29
T_REC_BXX	0
T_REC_HLD	30
T_REC_XHO	5
T_REC_BHO	2
T_REC_BXH	0
T_REC_STR	89
T_REC_BST	1
T_REC_XST	14
T_REC_XBS	0
T_REC_TTP	33
T_REC_THO	0
T_REC_SLD	103
T_REC_BSL	3
T_REC_ALL	789
T_NUM_TAP	619
T_NUM_BRK	32
T_NUM_HLD	35
T_NUM_SLD	103
T_NUM_ALL	789
T_JUDGE_TAP	646
T_JUDGE_HLD	94
T_JUDGE_SLD	106
T_JUDGE_ALL	846
TTM_EACHPAIRS	169
TTM_SCR_TAP	309500
TTM_SCR_BRK	83200
TTM_SCR_HLD	35000
TTM_SCR_SLD	154500
TTM_SCR_ALL	582200
TTM_SCR_S	561650
TTM_SCR_SS	579000
TTM_RAT_ACV	10055

