VERSION	0.00.00	1.04.00
FES_MODE	0
BPM_DEF	136.000	136.000	136.000	136.000
MET_DEF	4	4
RESOLUTION	384
CLK_DEF	384
COMPATIBLE_CODE	MA2

BPM	0	0	136.000
MET	0	0	4	4

NMHLD	1	0	3	672
NMTAP	1	96	4
NMTAP	1	288	4
NMTAP	2	96	4
NMHLD	2	288	4	384
NMTAP	3	96	3
NMSTR	3	288	3
NMSI_	3	288	3	96	96	0
EXTAP	4	192	1
EXTAP	4	192	7
NMTAP	5	0	5
NMTAP	5	96	4
NMTAP	5	96	5
NMTAP	5	192	1
NMTAP	5	288	1
NMTAP	5	288	3
NMTAP	6	0	6
NMTAP	6	96	4
NMTAP	6	96	6
NMTAP	6	192	1
NMTAP	6	240	1
NMTAP	6	288	0
NMTAP	7	0	6
NMTAP	7	96	6
NMTAP	7	96	7
NMHLD	7	192	2	96
BXTAP	7	288	0
BXTAP	7	336	0
EXTAP	8	48	1
EXTAP	8	48	7
EXTAP	8	96	1
EXTAP	8	96	7
EXTAP	8	192	2
EXTAP	8	192	6
EXTAP	8	288	3
EXTAP	8	288	5
NMTAP	9	0	3
NMHLD	9	96	3	1152
NMTTP	9	288	3	E	0	M1
NMTTP	10	96	2	E	0	M1
NMTTP	10	288	3	E	0	M1
NMTTP	11	96	1	E	0	M1
NMTTP	11	288	3	E	0	M1
NMTAP	12	96	4
NMTAP	12	288	3
NMTAP	12	288	4
NMTAP	13	0	5
NMHLD	13	96	5	960
NMTTP	13	288	4	B	0	M1
NMTTP	13	288	5	E	0	M1
NMTTP	14	96	6	B	0	M1
NMTTP	14	96	7	E	0	M1
NMTTP	14	288	3	B	0	M1
NMTTP	14	288	4	E	0	M1
NMTTP	15	96	6	B	0	M1
NMTTP	15	96	6	A	0	M1
NMTAP	15	288	4
NMTAP	16	0	4
NMTAP	16	0	5
NMTAP	16	96	3
NMTAP	16	96	4
EXTAP	16	192	3
EXTAP	16	192	4
EXTAP	16	240	3
EXTAP	16	240	4
EXTAP	16	288	2
EXTAP	16	288	5
NMTAP	17	0	2
NMTAP	17	96	1
NMTAP	17	96	7
NMTAP	17	192	5
NMTAP	17	288	0
NMTAP	17	288	6
NMTAP	18	0	2
NMTAP	18	96	0
NMTAP	18	96	1
NMTAP	18	192	5
NMTAP	18	288	6
NMTAP	18	288	7
NMSTR	19	0	0
NMSI_	19	0	0	96	96	4
NMSTR	19	192	5
NMSCR	19	192	5	96	96	0
NMTAP	20	0	1
NMSTR	20	96	2
NMSXR	20	96	2	96	192	5
BXHLD	21	0	6	240
EXTAP	21	240	7
BXTAP	21	336	0
BXHLD	21	336	1	192
EXTAP	22	144	7
EXTAP	22	240	3
EXTAP	22	240	5
EXTAP	22	288	3
EXTAP	22	288	5
NMSTR	23	0	2
NMSI_	23	0	2	96	96	5
NMTAP	23	192	6
NMSTR	23	288	3
NMSCL	23	288	3	96	96	0
NMSTR	23	288	7
NMSCL	23	288	7	96	96	4
EXTAP	24	192	1
EXTAP	24	192	5
BRTAP	25	0	3
BRTAP	25	0	4
NMTAP	25	96	6
NMTAP	25	96	7
NMTAP	25	192	3
NMTAP	25	192	4
NMTAP	25	288	0
NMTAP	25	336	0
NMTAP	26	48	1
NMTAP	26	48	7
NMTAP	26	96	1
NMTAP	26	96	7
NMTAP	26	192	0
NMTAP	26	192	6
NMTAP	26	288	1
NMTAP	26	288	5
NMTAP	27	0	2
NMTAP	27	0	4
NMTAP	27	96	6
NMTAP	27	96	7
NMTAP	27	192	3
NMTAP	27	192	5
NMTAP	27	288	1
NMHLD	27	336	1	96
NMTAP	28	48	0
NMTAP	28	144	3
NMTAP	28	144	4
EXTAP	28	240	6
EXTAP	28	288	6
EXTAP	28	288	7
NMTAP	29	0	5
NMTAP	29	48	5
NMTAP	29	96	4
NMTAP	29	192	1
NMTAP	29	240	1
NMTAP	29	288	3
NMTAP	30	0	6
NMTAP	30	48	6
NMTAP	30	96	7
NMTAP	30	192	0
NMTAP	30	192	5
EXHLD	30	288	1	96
NMTAP	30	288	4
NMTAP	31	0	0
NMTAP	31	96	6
NMTAP	31	96	7
NMTAP	31	192	4
NMTAP	31	192	5
NMSTR	31	288	2
NMSCL	31	288	2	96	192	4
NMTAP	31	288	3
NMTTP	32	0	0	C	1	M1
NMTAP	33	0	4
NMTAP	33	0	5
BRTAP	33	96	1
BRTAP	33	96	7
NMTAP	33	192	2
NMTAP	33	192	3
NMTAP	33	288	7
NMTAP	33	336	7
NMTAP	34	48	0
NMTAP	34	48	6
NMTAP	34	96	0
NMTAP	34	96	6
NMTAP	34	192	2
NMTAP	34	240	2
NMTAP	34	288	1
NMTAP	34	288	3
NMTAP	35	0	2
NMTAP	35	0	4
NMTAP	35	96	6
NMTAP	35	96	7
NMTAP	35	192	3
NMTAP	35	192	5
NMTAP	35	288	1
NMHLD	35	336	1	96
NMTAP	36	48	7
NMSTR	36	96	7
NMSCL	36	96	7	96	96	3
NMSUL	36	96	7	96	96	2
NMTAP	37	0	2
NMTAP	37	48	2
NMTAP	37	96	1
NMTAP	37	96	3
NMTAP	37	192	5
NMTAP	37	240	5
NMTAP	37	288	4
NMTAP	37	288	6
BXTAP	38	0	6
BXTAP	38	0	7
BXTAP	38	72	1
BXTAP	38	72	7
BXTAP	38	144	2
BXSTR	38	144	6
BRSI_	38	144	6	96	96	2
BXHLD	39	0	0	240
EXTAP	39	240	6
EXHLD	39	336	2	96
EXTAP	39	336	4
NMTAP	40	48	3
NMSTR	40	96	3
NMSI_	40	96	3	96	48	1
NMSI_	40	96	3	96	48	5
NMSTR	41	0	6
NMSCL	41	0	6	96	144	3
NMTAP	41	288	1
NMSTR	42	0	1
NMSCR	42	0	1	96	144	4
NMTAP	42	288	6
NMSTR	43	0	6
NMSCL	43	0	6	96	192	2
NMTAP	43	288	1
NMHLD	44	0	0	192
EXTAP	44	192	7
EXTAP	44	240	7
BXTAP	44	288	0
NMTAP	45	0	1
NMTAP	45	0	6
NMHLD	45	48	1	96
NMTAP	45	48	6
NMTAP	45	144	3
NMTAP	45	240	4
NMTAP	45	240	5
NMTAP	45	336	6
NMTAP	45	336	7
NMTAP	46	48	0
NMTAP	46	48	1
NMTAP	46	144	2
NMTAP	46	144	3
NMTAP	46	240	1
NMTAP	46	240	4
NMTAP	46	288	1
NMTAP	46	288	4
NMTAP	47	0	3
NMTAP	47	0	5
NMTAP	47	48	3
NMTAP	47	48	5
NMTAP	47	144	1
NMTAP	47	192	1
NMTAP	47	240	3
EXTAP	47	336	0
EXTAP	47	336	7
EXTAP	48	48	6
EXSTR	48	96	6
NMSUL	48	96	6	96	96	2
NMHLD	49	0	1	288
NMTTP	49	96	1	E	0	M1
NMTTP	49	192	2	E	0	M1
NMTTP	49	288	3	E	0	M1
NMHLD	50	0	5	288
NMTTP	50	96	7	E	0	M1
NMTTP	50	192	6	E	0	M1
NMTTP	50	288	5	E	0	M1
NMHLD	51	0	2	288
NMTTP	51	96	3	E	0	M1
NMTTP	51	192	1	B	0	M1
NMTTP	51	288	0	E	0	M1
NMHLD	52	0	6	288
NMTTP	52	96	5	E	0	M1
NMTTP	52	192	6	B	0	M1
NMTTP	52	288	0	C	0	M1
EXTAP	53	0	0
BRTAP	53	96	1
BRTAP	53	96	7
NMTAP	53	192	2
NMTAP	53	240	2
NMTAP	53	288	3
NMTAP	54	0	5
NMTAP	54	48	5
NMTAP	54	96	4
NMTAP	54	192	2
BXTAP	54	240	0
BXTAP	54	240	1
BXTAP	54	288	0
BXTAP	54	288	1
NMSTR	55	0	7
NMSCL	55	0	7	96	96	4
NMTAP	55	192	2
NMTAP	55	240	2
NMTAP	55	288	3
NMTAP	56	0	5
NMTAP	56	48	5
NMTAP	56	96	4
NMTAP	56	192	3
NMTAP	56	192	6
NMTAP	56	288	2
NMSTR	56	288	7
BRSCL	56	288	7	96	192	0
EXHLD	58	0	1	768
EXTAP	58	0	6
NMTHO	59	0	0	768	C	0	M1
NMTTP	59	0	3	B	0	M1
NMTTP	59	0	4	B	0	M1
BXHLD	61	0	0	384
NMSTR	62	0	7
NMSI_	62	0	7	96	96	4
NMSTR	62	192	0
NMSI_	62	192	0	96	96	3
NMSTR	63	0	7
NMSCL	63	0	7	96	96	4
NMSTR	63	192	0
NMSCR	63	192	0	96	96	3
NMTAP	64	0	4
NMTAP	64	96	4
NMTAP	64	192	3
NMSTR	64	288	3
NMSXL	64	288	3	96	240	6
NMSXR	64	288	3	96	240	0
NMSTR	66	0	7
BRSI_	66	0	7	96	48	3
EXTAP	66	192	2
EXTAP	66	192	4
NMTAP	66	288	0
NMTAP	66	336	0
NMTAP	67	48	4
NMTAP	67	48	6
NMTAP	67	96	4
NMTAP	67	96	6
NMTAP	67	192	2
NMTAP	67	240	2
NMTAP	67	288	1
NMTAP	67	288	3
BRTAP	68	0	0
BRTAP	68	0	1
BRTAP	68	96	6
BRTAP	68	96	7
NMTAP	68	192	4
NMTAP	68	192	5
NMTAP	68	288	0
NMTAP	68	336	0
NMTAP	69	48	1
NMTAP	69	48	7
NMSTR	69	96	1
NMSCL	69	96	1	96	96	5
NMSUL	69	96	1	96	96	4
NMTAP	69	96	7
NMTAP	70	0	2
NMTAP	70	48	3
NMTAP	70	96	1
NMTAP	70	96	4
NMTAP	70	192	5
NMTAP	70	240	4
NMTAP	70	288	3
NMTAP	70	288	6
BXTAP	71	0	0
BXTAP	71	0	1
BXTAP	71	72	1
BXTAP	71	72	3
BXTAP	71	144	3
BXSTR	71	144	4
BRSI_	71	144	4	96	96	1
BRSI_	71	144	4	96	96	7
BXHLD	72	0	0	240
EXTAP	72	240	6
EXTAP	72	336	2
EXTAP	72	336	4
NMTAP	73	48	3
NMTAP	73	48	4
NMSTR	73	96	3
NMSCL	73	96	3	96	96	0
NMSTR	73	96	4
NMSCR	73	96	4	96	96	7
BXTAP	74	0	1
BXTAP	74	0	7
NMTAP	74	96	0
NMTAP	74	96	6
NMTAP	74	192	2
NMTAP	74	192	7
NMTAP	74	288	0
NMTAP	74	288	5
NMTAP	75	0	1
NMTAP	75	0	7
NMTAP	75	96	0
NMTAP	75	96	6
EXTAP	75	192	2
BXTAP	75	192	7
EXTAP	75	288	2
BXTAP	75	288	7
NMTAP	76	0	0
NMTAP	76	0	6
NMTAP	76	96	2
NMTAP	76	96	7
NMTAP	76	192	0
NMTAP	76	192	5
NMTAP	76	288	2
NMTAP	76	288	3
NMHLD	76	336	2	96
NMTAP	76	336	3
NMTTP	77	48	0	C	1	M1
EXTAP	77	288	1
EXTAP	77	288	6
NMTAP	78	0	0
NMTAP	78	0	5
NMTAP	78	96	1
NMTAP	78	96	7
NMTAP	78	192	0
NMTAP	78	192	6
NMTAP	78	288	2
NMTAP	78	288	7
NMTAP	79	0	0
NMTAP	79	0	5
NMTAP	79	96	1
NMTAP	79	96	7
BXTAP	79	192	0
EXTAP	79	192	5
BXTAP	79	288	0
EXTAP	79	288	5
NMTAP	80	0	2
NMTAP	80	0	7
NMTAP	80	96	0
NMTAP	80	96	6
NMTAP	80	192	1
NMTAP	80	192	7
NMSTR	80	288	0
NMSI_	80	288	0	96	48	4
NMTAP	80	288	5
NMSTR	81	0	6
NMSI_	81	0	6	96	48	2
NMSTR	81	96	1
NMSI_	81	96	1	96	48	4
NMSTR	81	192	5
NMSI_	81	192	5	96	48	2
NMSTR	81	288	0
BRSCR	81	288	0	96	192	6
EXTAP	82	192	7
BXTAP	82	240	7
BXTAP	82	336	0
BXTAP	82	336	6
NMTAP	83	48	2
NMTAP	83	48	3
NMTAP	83	96	2
NMTAP	83	96	3
NMTAP	83	144	1
NMTAP	83	144	4
NMTAP	83	240	7
NMHLD	83	288	7	72
NMTTP	83	360	0	C	1	M1
NMTTP	83	360	1	B	0	M1

T_REC_TAP	233
T_REC_BRK	10
T_REC_XTP	48
T_REC_BXX	27
T_REC_HLD	15
T_REC_XHO	3
T_REC_BHO	0
T_REC_BXH	5
T_REC_STR	29
T_REC_BST	0
T_REC_XST	1
T_REC_XBS	2
T_REC_TTP	31
T_REC_THO	1
T_REC_SLD	31
T_REC_BSL	6
T_REC_ALL	442
T_NUM_TAP	342
T_NUM_BRK	50
T_NUM_HLD	19
T_NUM_SLD	31
T_NUM_ALL	442
T_JUDGE_TAP	381
T_JUDGE_HLD	169
T_JUDGE_SLD	37
T_JUDGE_ALL	587
TTM_EACHPAIRS	120
TTM_SCR_TAP	171000
TTM_SCR_BRK	130000
TTM_SCR_HLD	19000
TTM_SCR_SLD	46500
TTM_SCR_ALL	366500
TTM_SCR_S	350700
TTM_SCR_SS	361500
TTM_RAT_ACV	10138

