VERSION	0.00.00	1.04.00
FES_MODE	0
BPM_DEF	150.000	150.000	150.000	150.000
MET_DEF	4	4
RESOLUTION	384
CLK_DEF	384
COMPATIBLE_CODE	MA2

BPM	0	0	150.000
MET	0	0	4	4

NMTAP	1	0	2
NMHLD	1	0	5	624
NMTAP	1	96	3
NMHLD	1	144	3	96
NMTAP	1	288	3
NMTAP	2	0	4
NMTAP	2	96	3
NMHLD	2	144	3	96
NMTAP	2	288	3
NMTAP	2	288	5
NMHLD	3	0	2	288
NMTAP	3	0	4
NMTAP	3	96	3
NMHLD	3	144	3	96
NMSTR	3	288	3
NMSI_	3	288	3	96	48	7
NMHLD	4	0	1	288
CNSLL	4	48	7	0	144	2
NMTAP	4	288	0
EXTAP	4	336	7
NMTAP	5	0	1
NMSTR	5	0	6
NMSI_	5	0	6	96	48	4
NMTAP	5	96	3
NMTAP	5	144	2
NMSTR	5	192	1
NMSI_	5	192	1	96	48	3
NMTAP	5	288	3
NMTAP	5	336	4
NMSTR	6	0	5
NMSI_	6	0	5	96	48	7
NMTAP	6	96	4
NMTAP	6	144	3
NMSTR	6	192	2
NMSI_	6	192	2	96	48	0
NMTAP	6	288	3
NMTAP	6	336	4
NMTAP	7	0	5
NMTAP	7	48	5
NMTAP	7	96	1
NMTAP	7	144	1
NMTAP	7	192	7
NMTAP	7	216	0
NMTAP	7	240	7
NMTAP	7	264	0
NMSTR	7	288	7
NMSI_	7	288	7	96	48	3
NMTAP	7	312	0
NMTAP	7	336	7
BXHLD	8	0	1	288
EXTAP	8	192	7
NMTAP	8	288	4
NMSTR	9	0	3
NMSI_	9	0	3	96	48	1
NMTAP	9	0	5
NMTAP	9	96	5
EXTAP	9	192	1
NMTAP	9	192	4
NMTAP	9	288	5
NMTAP	9	336	4
NMSTR	10	0	3
NMSI_	10	0	3	96	48	7
NMTAP	10	0	5
NMTAP	10	96	5
EXTAP	10	192	0
NMTAP	10	192	6
NMTAP	10	288	4
NMTAP	10	336	3
NMSTR	11	0	2
NMSI_	11	0	2	96	48	4
NMTAP	11	0	5
NMTAP	11	96	5
EXTAP	11	192	0
NMTAP	11	192	5
NMSTR	11	288	2
NMSCL	11	288	2	96	96	6
NMTAP	11	288	5
NMSTR	12	0	6
NMSCR	12	0	6	96	96	2
NMTAP	12	96	4
NMSTR	12	192	5
BRSI_	12	192	5	96	48	3
NMTAP	12	240	5
NMTAP	12	288	2
NMTAP	13	0	2
EXSTR	13	0	3
NMSI_	13	0	3	96	48	6
NMTAP	13	96	2
NMTAP	13	192	3
EXTAP	13	192	7
NMTAP	13	288	2
NMTAP	13	336	3
NMTAP	14	0	1
NMSTR	14	0	4
NMSI_	14	0	4	96	48	0
NMTAP	14	96	1
NMTAP	14	192	2
NMTAP	14	240	2
NMTAP	14	288	2
NMSTR	14	288	3
NMSI_	14	288	3	96	48	7
NMSTR	15	0	1
NMSI_	15	0	1	96	48	5
EXTAP	15	96	7
BXTAP	15	192	0
BXTAP	15	192	6
NMTAP	15	288	1
NMSTR	15	288	5
NMSCR	15	288	5	96	192	4
NMTTP	16	0	3	B	0	M1
NMTTP	16	0	4	B	0	M1
NMTTP	16	0	4	E	1	M1
EXTAP	16	192	0
NMTAP	16	288	1
NMTAP	16	288	7
NMTAP	17	0	6
NMTAP	17	24	4
NMTAP	17	72	4
NMTAP	17	96	5
NMTAP	17	144	5
NMTAP	17	192	3
NMTAP	17	192	6
NMTAP	17	240	7
NMTAP	17	288	4
NMTAP	17	288	6
NMTAP	17	336	5
NMTAP	18	0	2
NMTAP	18	24	3
NMTAP	18	72	3
NMTAP	18	96	1
NMTAP	18	144	1
NMTAP	18	192	7
NMTAP	18	240	0
NMHLD	18	288	1	96
NMTAP	18	288	4
NMTAP	19	0	7
NMSTR	19	48	6
NMSCL	19	48	6	96	48	3
NMTAP	19	96	3
NMSTR	19	144	2
NMSCL	19	144	2	96	48	7
EXTAP	19	240	3
NMTAP	19	336	6
NMTAP	20	0	0
NMTAP	20	0	6
NMSTR	20	48	1
NMSI_	20	48	1	96	48	5
NMSTR	20	48	5
NMSI_	20	48	5	96	48	3
NMTAP	20	96	2
NMTAP	20	144	1
NMTAP	20	144	5
EXTAP	20	240	7
NMTAP	20	336	1
NMTAP	21	0	1
NMTAP	21	24	3
NMTAP	21	72	3
NMTAP	21	96	2
NMTAP	21	144	2
NMTAP	21	192	1
NMTAP	21	192	4
NMTAP	21	240	0
NMTAP	21	288	1
NMTAP	21	288	3
NMTAP	21	336	2
NMTAP	22	0	5
NMTAP	22	24	4
NMTAP	22	72	4
NMTAP	22	96	6
NMTAP	22	144	6
NMTAP	22	192	0
NMTAP	22	240	1
NMTAP	22	240	7
NMHLD	22	288	2	96
NMTAP	22	288	6
NMTAP	23	0	3
NMSTR	23	48	4
NMSI_	23	48	4	96	48	6
NMTAP	23	96	2
NMSTR	23	144	3
NMSI_	23	144	3	96	48	0
EXTAP	23	240	7
EXTAP	23	336	0
EXTAP	24	0	1
NMTAP	24	0	4
EXSTR	24	48	2
NMSI_	24	48	2	96	48	0
NMTAP	24	72	3
NMTAP	24	120	3
EXTAP	24	144	2
EXTAP	24	240	0
BXTAP	24	288	1
BXTAP	24	288	7
NMHLD	25	0	2	96
NMHLD	25	0	4	96
NMTAP	25	144	1
NMTAP	25	144	3
NMHLD	25	192	1	96
NMHLD	25	192	3	96
NMHLD	26	0	2	96
NMHLD	26	0	4	96
NMTAP	26	144	3
NMTAP	26	144	5
NMHLD	26	192	3	96
NMHLD	26	192	5	96
NMHLD	27	0	4	96
NMHLD	27	0	5	96
NMTAP	27	144	3
NMTAP	27	144	4
NMHLD	27	192	3	96
NMHLD	27	192	4	96
NMTAP	27	336	2
NMTAP	27	336	3
NMHLD	28	0	2	96
NMHLD	28	0	3	96
NMTAP	28	144	3
NMTAP	28	144	4
NMTAP	28	192	3
NMTAP	28	192	4
NMTAP	28	288	2
NMTAP	28	288	5
NMHLD	29	0	1	72
NMHLD	29	72	3	72
NMTAP	29	144	2
NMHLD	29	192	6	72
NMHLD	29	264	4	72
NMTAP	29	336	5
NMHLD	30	0	2	72
NMHLD	30	72	3	72
NMTAP	30	144	1
BRTAP	30	192	0
BRTAP	30	192	4
NMTAP	30	288	2
NMTAP	30	288	6
NMTAP	31	0	0
NMTAP	31	48	0
NMTAP	31	96	1
NMTAP	31	96	7
NMTAP	31	144	1
NMTAP	31	144	7
NMTAP	31	192	2
NMTAP	31	192	6
NMTAP	31	240	2
NMTAP	31	240	6
NMTAP	31	288	3
NMTAP	31	288	5
NMTAP	31	336	3
NMTAP	31	336	5
NMTAP	32	0	6
NMTAP	32	32	4
NMTAP	32	64	5
NMTAP	32	96	1
NMTAP	32	128	3
NMTAP	32	160	2
NMTAP	32	192	7
NMTAP	32	224	5
NMTAP	32	256	6
NMTAP	32	288	0
NMTAP	32	320	2
NMTAP	32	352	1
BXHLD	33	0	7	192
EXSTR	33	192	3
NMSI_	33	192	3	96	48	0
NMSI_	33	192	3	96	48	6
EXTAP	34	0	1
EXTAP	34	0	5
NMSTR	34	48	2
NMSI_	34	48	2	96	48	7
NMTAP	34	72	3
NMTAP	34	120	3
NMTAP	34	144	2
NMTAP	34	192	5
NMSTR	34	240	6
NMSI_	34	240	6	96	48	3
NMTAP	34	264	7
NMTAP	34	312	7
NMTAP	34	336	6
NMTAP	35	0	0
NMTAP	35	48	1
NMTAP	35	72	1
NMTAP	35	96	3
NMTAP	35	120	3
NMTAP	35	144	2
NMSTR	35	192	4
NMSI_	35	192	4	96	48	1
NMSI_	35	192	4	96	48	7
NMTAP	35	240	3
NMTAP	35	240	5
EXTAP	36	0	2
EXTAP	36	0	6
NMSTR	36	48	5
NMSI_	36	48	5	96	48	3
NMTAP	36	72	4
NMTAP	36	120	4
NMTAP	36	144	5
NMTAP	36	192	2
NMTAP	36	240	1
NMTAP	36	264	1
NMTAP	36	288	7
NMTAP	36	312	7
NMTAP	36	336	0
NMSTR	37	0	1
NMSI_	37	0	1	96	48	4
NMSTR	37	0	5
NMSI_	37	0	5	96	48	7
NMTAP	37	48	4
NMTAP	37	96	1
NMTAP	37	96	5
NMSTR	37	192	2
NMSI_	37	192	2	96	48	7
NMSTR	37	192	6
NMSI_	37	192	6	96	48	3
NMTAP	37	240	1
BRTAP	37	288	2
BRTAP	37	288	6
EXTAP	38	0	0
EXTAP	38	0	4
NMSTR	38	48	1
NMSI_	38	48	1	96	48	4
NMTAP	38	72	3
NMTAP	38	120	3
NMTAP	38	144	1
NMTAP	38	192	5
NMSTR	38	240	6
NMSCL	38	240	6	96	48	3
NMTAP	38	264	7
NMTAP	38	312	7
NMTAP	38	336	6
EXTAP	39	0	0
NMTAP	39	48	1
NMTAP	39	72	1
NMTAP	39	96	3
NMTAP	39	120	3
NMTAP	39	144	2
NMSTR	39	192	4
NMSI_	39	192	4	96	48	1
NMSI_	39	192	4	96	48	7
NMTAP	39	240	3
NMTAP	39	240	5
EXTAP	40	0	2
EXTAP	40	0	6
NMTAP	40	48	3
NMTAP	40	48	5
NMTAP	40	72	3
NMTAP	40	72	5
NMTAP	40	120	2
NMTAP	40	120	4
NMTAP	40	144	2
NMTAP	40	144	4
EXTAP	40	192	0
NMTAP	40	240	3
NMTAP	40	264	4
NMSTR	40	288	1
NMSXL	40	288	1	96	120	0
NMSTR	40	288	5
NMSXL	40	288	5	96	120	4
EXTAP	41	192	0
EXTAP	41	192	4
NMTAP	41	288	2
NMTAP	41	288	7
NMTAP	41	336	3
NMTAP	41	336	6
NMTAP	42	0	4
NMTAP	42	0	5
NMTAP	42	48	2
NMTAP	42	72	2
EXTAP	42	96	3
NMTAP	42	144	6
NMTAP	42	168	4
NMTAP	42	192	5
NMTAP	42	240	2
NMTAP	42	264	2
EXTAP	42	288	3
NMTAP	42	336	6
NMTAP	42	360	4
NMTAP	43	0	5
NMTAP	43	48	1
NMTAP	43	72	1
EXTAP	43	96	3
NMTAP	43	144	5
NMTAP	43	168	4
NMTAP	43	192	6
NMTAP	43	240	2
NMTAP	43	264	3
EXTAP	43	288	0
NMTAP	43	336	1
NMTAP	43	336	7
NMHLD	44	0	2	144
NMTAP	44	0	6
NMTAP	44	72	3
NMSTR	44	144	4
NMSI_	44	144	4	96	48	6
NMSTR	44	192	4
NMSLL	44	192	4	96	96	0
NMTAP	45	0	7
NMTAP	45	72	1
NMTAP	45	72	3
NMTAP	45	144	3
NMTAP	45	144	7
NMTAP	45	192	5
NMTAP	45	216	4
NMTAP	45	264	2
NMTAP	45	288	3
NMTAP	45	336	0
NMTAP	45	336	7
EXTAP	46	0	1
EXTAP	46	0	6
NMTAP	46	48	5
NMTAP	46	72	5
EXTAP	46	96	4
NMTAP	46	144	1
NMTAP	46	168	3
NMTAP	46	192	2
NMTAP	46	240	5
NMTAP	46	264	5
EXTAP	46	288	4
NMTAP	46	336	1
NMTAP	46	360	3
NMTAP	47	0	2
NMTAP	47	48	6
NMTAP	47	72	6
EXTAP	47	96	4
NMTAP	47	144	2
NMTAP	47	168	3
NMTAP	47	192	1
NMTAP	47	240	5
NMTAP	47	264	4
EXTAP	47	288	7
NMTAP	47	336	1
NMTAP	47	336	6
NMSTR	48	0	2
NMSI_	48	0	2	96	48	4
NMTAP	48	0	5
NMTAP	48	96	2
NMSTR	48	96	6
NMSI_	48	96	6	96	48	2
NMSTR	48	192	0
NMSI_	48	192	0	96	48	4
NMTAP	48	192	6
NMTAP	48	288	0
NMTAP	48	288	7
NMTAP	49	0	5
NMTAP	49	24	3
NMTAP	49	48	5
NMTAP	49	72	3
NMTAP	49	96	4
NMTAP	49	120	2
NMTAP	49	144	4
NMTAP	49	168	2
NMTAP	49	192	6
NMTAP	49	216	3
NMTAP	49	240	5
NMTAP	49	264	4
BRSTR	49	288	7
BRSCL	49	288	7	96	768	0
NMSTR	52	0	7
NMSCL	52	0	7	96	672	0
NMSTR	54	0	7
NMSI_	54	0	7	96	192	5
CNSI_	54	288	5	0	192	3
NMTAP	55	0	0
CNSI_	55	96	3	0	192	1
NMSTR	56	0	0
NMSI_	56	0	0	96	192	2
CNSI_	56	288	2	0	192	4
NMTAP	57	0	7
CNSI_	57	96	4	0	192	6
NMHLD	58	0	7	96
NMTAP	58	96	4
NMTAP	58	144	4
NMTAP	58	192	3
NMHLD	58	192	5	96
NMTAP	58	288	1
NMTAP	59	0	1
NMHLD	59	0	3	96
NMTAP	59	96	0
NMTAP	59	144	0
NMHLD	59	192	1	96
NMTAP	59	192	7
NMTAP	59	288	3
NMSTR	60	0	2
NMSI_	60	0	2	96	96	5
NMTAP	60	96	5
NMTAP	60	144	6
NMSTR	60	192	7
NMSI_	60	192	7	96	96	3
NMTAP	60	288	3
NMTAP	60	336	2
NMSTR	61	0	1
NMSI_	61	0	1	96	96	5
NMTAP	61	96	0
NMTAP	61	144	7
NMSTR	61	192	6
NMSI_	61	192	6	96	96	2
NMTAP	61	288	3
NMHLD	62	0	0	72
NMHLD	62	72	1	72
NMTAP	62	144	2
NMHLD	62	192	7	72
NMHLD	62	264	6	72
NMTAP	62	336	5
NMHLD	63	0	1	72
NMHLD	63	72	2	72
NMTAP	63	144	3
NMHLD	63	192	6	72
NMHLD	63	264	5	72
NMTAP	63	336	4
NMTAP	64	0	3
NMTAP	64	48	3
NMTAP	64	96	3
NMTAP	64	144	3
NMTAP	64	192	3
NMTAP	64	216	4
NMTAP	64	240	3
NMTAP	64	264	4
NMTAP	64	288	3
NMTAP	64	312	4
NMTAP	64	336	3
NMTAP	64	360	4
NMTAP	65	0	1
NMTAP	65	32	3
NMTAP	65	64	2
NMTAP	65	96	6
NMTAP	65	128	4
NMTAP	65	160	5
NMTAP	65	192	0
NMTAP	65	224	2
NMTAP	65	256	1
NMTAP	65	288	7
NMTAP	65	320	5
NMTAP	65	352	6
BRHLD	66	0	0	192
EXSTR	66	192	3
BRSF_	66	192	3	96	48	7
EXTAP	67	0	1
EXTAP	67	0	5
NMSTR	67	48	2
NMSCL	67	48	2	96	48	7
NMTAP	67	72	3
NMTAP	67	96	1
NMTAP	67	120	3
NMTAP	67	144	2
NMTAP	67	192	5
NMSTR	67	240	6
NMSCL	67	240	6	96	48	3
NMTAP	67	264	7
NMTAP	67	288	5
NMTAP	67	312	7
NMTAP	67	336	6
NMTAP	68	0	1
NMTAP	68	48	1
NMTAP	68	72	0
NMTAP	68	96	2
NMTAP	68	120	0
NMHLD	68	144	1	48
BRTAP	68	192	7
NMTAP	68	216	4
NMTAP	68	240	5
BRTAP	68	264	0
EXTAP	68	288	3
NMTAP	68	312	2
BRTAP	68	336	7
EXTAP	69	0	2
EXTAP	69	0	6
NMSTR	69	48	5
NMSI_	69	48	5	96	48	3
NMTAP	69	72	4
NMTAP	69	96	6
NMTAP	69	120	4
NMTAP	69	144	5
NMTAP	69	192	2
NMTAP	69	240	1
NMTAP	69	264	1
NMTAP	69	288	7
NMTAP	69	312	7
NMTAP	69	336	0
NMSTR	70	0	1
NMSCR	70	0	1	96	24	2
NMSTR	70	0	5
BRSCR	70	0	5	96	24	6
NMTAP	70	48	2
NMTAP	70	48	6
BRTAP	70	96	1
BRTAP	70	96	5
CNSI_	70	120	2	0	24	4
CNSI_	70	120	6	0	24	0
NMSTR	70	192	3
NMSCL	70	192	3	96	24	2
NMSTR	70	192	7
BRSCL	70	192	7	96	24	6
NMTAP	70	240	2
NMTAP	70	240	6
BRTAP	70	288	3
BRTAP	70	288	7
CNSI_	70	312	2	0	24	0
CNSI_	70	312	6	0	24	4
EXTAP	71	0	0
EXTAP	71	0	4
NMSTR	71	48	1
NMSI_	71	48	1	96	48	4
NMTAP	71	72	0
NMTAP	71	96	2
NMTAP	71	120	0
NMTAP	71	144	1
NMTAP	71	192	7
NMSTR	71	240	5
NMSCR	71	240	5	96	48	0
NMTAP	71	264	4
NMTAP	71	288	6
NMTAP	71	312	4
NMTAP	71	336	5
EXTAP	72	0	1
NMTAP	72	48	1
NMTAP	72	72	0
NMTAP	72	96	2
NMTAP	72	120	0
NMHLD	72	144	1	48
BRTAP	72	192	7
NMTAP	72	216	4
NMTAP	72	240	5
BRTAP	72	264	0
EXTAP	72	288	3
NMTAP	72	312	2
BRTAP	72	336	7
EXTAP	73	0	3
EXTAP	73	0	5
NMTAP	73	48	1
NMTAP	73	96	2
NMTAP	73	96	4
NMTAP	73	144	6
NMTAP	73	192	0
NMTAP	73	216	7
NMTAP	73	240	0
NMTAP	73	264	7
NMSTR	73	288	1
BRSUR	73	288	1	96	144	3
NMSTR	73	288	6
NMSUL	73	288	6	96	144	4
NMTAP	73	312	2
NMTAP	73	312	5
NMTAP	73	336	3
NMTAP	73	336	4
BXTAP	74	192	2
BXTAP	74	192	5
NMTAP	74	288	3
NMTAP	74	288	4
NMSTR	75	0	1
NMSI_	75	0	1	96	48	4
NMTAP	75	0	3
NMTAP	75	96	5
NMTAP	75	144	6
NMSTR	75	192	7
NMSCL	75	192	7	96	48	4
NMTAP	75	240	3
NMTAP	75	264	3
NMTAP	75	288	7
NMTAP	75	336	1
NMHLD	76	0	2	96
NMTAP	76	48	3
NMHLD	76	96	5	96
NMTAP	76	144	4
NMTAP	76	192	2
NMTAP	76	240	2
NMTAP	76	264	3
NMTAP	76	312	0
NMTAP	76	336	7
NMTAP	77	0	3
NMSTR	77	0	6
NMSI_	77	0	6	96	48	3
NMTAP	77	96	2
NMTAP	77	144	1
NMHLD	77	192	0	48
NMTAP	77	240	3
NMTAP	77	264	3
NMSTR	77	288	1
NMSLL	77	288	1	96	96	5
NMTAP	77	336	4
EXTAP	78	0	4
EXTAP	78	96	3
CNSLR	78	96	5	0	96	1
NMSTR	78	192	5
BRSI_	78	192	5	96	48	3
NMTAP	78	240	5
NMTAP	78	288	0
NMSTR	79	0	2
NMSI_	79	0	2	96	48	7
NMTAP	79	0	7
NMTAP	79	96	6
NMTAP	79	144	5
NMSTR	79	192	4
NMSCR	79	192	4	96	48	7
NMTAP	79	240	0
NMTAP	79	264	0
NMTAP	79	288	4
NMTAP	79	336	1
NMHLD	80	0	2	96
NMTAP	80	48	3
NMHLD	80	96	5	96
NMTAP	80	144	4
NMTAP	80	192	2
NMTAP	80	240	2
NMTAP	80	264	3
NMTAP	80	312	0
NMTAP	80	336	7
NMTAP	81	0	3
NMTAP	81	0	6
NMTAP	81	48	5
NMTAP	81	72	4
NMSTR	81	96	5
NMSCR	81	96	5	96	96	2
NMTAP	81	144	3
EXTAP	81	192	2
CNSCL	81	288	2	0	96	5
NMTHO	82	0	0	192	C	0	M1
NMSTR	82	192	4
BRSI_	82	192	4	96	48	7
NMTAP	82	240	0
NMTAP	82	264	0
BRTAP	82	288	4

T_REC_TAP	434
T_REC_BRK	15
T_REC_XTP	51
T_REC_BXX	6
T_REC_HLD	48
T_REC_XHO	0
T_REC_BHO	1
T_REC_BXH	2
T_REC_STR	67
T_REC_BST	1
T_REC_XST	4
T_REC_XBS	0
T_REC_TTP	3
T_REC_THO	1
T_REC_SLD	67
T_REC_BSL	8
T_REC_ALL	708
T_NUM_TAP	559
T_NUM_BRK	33
T_NUM_HLD	49
T_NUM_SLD	67
T_NUM_ALL	708
T_JUDGE_TAP	581
T_JUDGE_HLD	131
T_JUDGE_SLD	75
T_JUDGE_ALL	787
TTM_EACHPAIRS	105
TTM_SCR_TAP	279500
TTM_SCR_BRK	85800
TTM_SCR_HLD	49000
TTM_SCR_SLD	100500
TTM_SCR_ALL	514800
TTM_SCR_S	496200
TTM_SCR_SS	511500
TTM_RAT_ACV	10064

