VERSION	0.00.00	1.04.00
FES_MODE	0
BPM_DEF	150.000	150.000	150.000	150.000
MET_DEF	4	4
RESOLUTION	384
CLK_DEF	384
COMPATIBLE_CODE	MA2

BPM	0	0	150.000
MET	0	0	4	4

BXSTR	1	0	3
NMSCL	1	0	3	96	480	4
BXSTR	3	0	4
NMSCR	3	0	4	96	480	3
NMTAP	5	0	3
NMTAP	5	96	3
NMTAP	5	192	3
NMTAP	5	288	3
NMTAP	6	0	4
NMTAP	6	96	4
NMTAP	6	192	4
NMTAP	6	288	4
EXTAP	7	0	2
EXTAP	7	48	2
EXTAP	7	96	5
EXTAP	7	144	5
EXTAP	7	192	1
EXTAP	7	240	1
EXTAP	7	288	6
EXTAP	7	336	6
EXSTR	8	0	0
NMSI_	8	0	0	96	96	4
BRTAP	8	288	3
BRTAP	8	288	5
NMHLD	9	0	1	1536
NMTAP	9	0	4
NMTAP	9	96	4
NMTAP	9	192	3
NMTAP	9	288	3
NMTAP	10	0	5
NMTAP	10	96	5
NMTAP	10	192	2
NMTAP	10	288	2
NMTAP	11	0	6
NMTAP	11	96	6
NMTAP	11	192	0
NMTAP	11	288	0
BXTAP	12	0	7
BXTAP	12	96	4
BXTAP	12	192	0
BXTAP	12	288	3
NMHLD	13	0	6	672
NMTAP	13	96	3
NMTAP	13	192	4
NMTAP	13	288	4
NMTAP	14	0	2
NMTAP	14	96	2
NMTAP	14	192	5
NMTAP	14	288	5
NMTAP	15	0	6
NMTAP	15	0	7
NMTAP	15	96	6
NMTAP	15	96	7
NMTAP	15	192	0
NMTAP	15	192	1
NMTAP	15	288	0
NMTAP	15	288	1
NMSTR	16	0	0
NMSI_	16	0	0	96	96	4
NMSTR	16	0	7
NMSI_	16	0	7	96	96	3
BRTAP	16	288	2
BRTAP	16	288	5
NMTAP	17	0	0
NMHLD	17	0	1	96
NMTAP	17	96	4
NMHLD	17	192	6	96
NMTAP	17	192	7
NMTAP	17	288	3
NMHLD	18	0	0	288
NMSTR	18	0	1
NMSCR	18	0	1	96	192	6
NMTAP	19	0	0
NMHLD	19	0	7	384
NMTAP	19	96	5
NMTAP	19	192	4
NMTAP	19	288	3
NMHLD	20	0	0	288
NMTAP	20	96	2
NMTAP	20	192	3
NMTAP	20	288	4
NMHLD	21	0	6	96
NMTAP	21	0	7
NMTAP	21	96	3
NMTAP	21	192	0
NMHLD	21	192	1	96
NMTAP	21	288	4
NMSTR	22	0	6
NMSCL	22	0	6	96	192	1
NMHLD	22	0	7	288
NMTAP	23	0	0
NMHLD	23	0	7	96
NMHLD	23	96	6	96
NMTAP	23	192	5
NMTAP	23	288	2
NMTAP	23	288	5
BXTAP	24	0	3
BXTAP	24	0	4
BXTAP	24	72	3
BXTAP	24	72	4
BXSTR	24	144	3
NMSI_	24	144	3	96	48	0
BXSTR	24	144	4
NMSI_	24	144	4	96	48	7
NMTTP	25	0	0	E	0	M1
NMTTP	25	96	1	E	0	M1
NMTTP	25	192	2	B	0	M1
NMTTP	25	192	2	E	0	M1
NMTTP	26	0	0	E	0	M1
NMTTP	26	96	7	E	0	M1
NMTTP	26	192	5	B	0	M1
NMTTP	26	192	6	E	0	M1
NMTTP	27	0	2	A	0	M1
NMTTP	27	96	1	A	0	M1
NMTTP	27	192	0	A	0	M1
NMTTP	27	288	7	A	0	M1
NMTTP	28	0	6	A	0	M1
NMTTP	28	96	5	A	0	M1
NMTTP	28	192	3	A	0	M1
NMTTP	28	192	4	E	0	M1
NMTTP	28	192	4	A	0	M1
NMHLD	29	0	2	48
NMTAP	29	0	3
NMTAP	29	96	0
NMTAP	29	192	4
NMHLD	29	192	5	48
NMTAP	29	288	7
NMTAP	30	0	2
NMTAP	30	0	3
NMTAP	30	96	0
NMTAP	30	96	7
NMTAP	30	192	4
NMTAP	30	192	5
NMTAP	30	288	0
NMTAP	30	288	7
NMHLD	31	0	1	96
NMHLD	31	96	3	96
NMHLD	31	192	5	96
NMHLD	31	288	7	96
NMTHO	32	0	0	384	C	1	M1
BRTAP	33	288	0
BRTAP	33	288	7
NMHLD	34	0	2	48
NMHLD	34	0	3	48
NMHLD	34	96	2	48
NMHLD	34	96	3	48
NMHLD	34	192	4	48
NMHLD	34	192	5	48
NMHLD	34	288	4	48
NMHLD	34	288	5	48
NMHLD	35	0	6	48
NMHLD	35	0	7	48
NMHLD	35	96	6	48
NMHLD	35	96	7	48
NMHLD	35	192	0	48
NMHLD	35	192	1	48
EXHLD	35	288	0	48
EXHLD	35	288	2	48
NMHLD	36	0	2	48
NMHLD	36	0	4	48
NMHLD	36	96	2	48
NMHLD	36	96	4	48
NMHLD	36	192	0	48
NMHLD	36	192	7	48
NMHLD	36	288	0	48
NMHLD	36	288	7	48
BRTAP	37	0	3
BRTAP	37	0	5
BRTAP	37	96	0
BRTAP	37	96	7
BRTAP	37	192	2
BRTAP	37	192	4
BRTAP	37	288	0
BRTAP	37	288	7
NMHLD	38	0	5	48
NMHLD	38	0	6	48
NMHLD	38	96	5	48
NMHLD	38	96	6	48
NMHLD	38	192	3	48
NMHLD	38	192	4	48
NMHLD	38	288	3	48
NMHLD	38	288	4	48
NMHLD	39	0	1	48
NMHLD	39	0	2	48
NMHLD	39	96	1	48
NMHLD	39	96	2	48
NMHLD	39	192	0	48
NMHLD	39	192	7	48
EXHLD	39	288	6	48
EXHLD	39	288	7	48
NMHLD	40	0	4	48
NMHLD	40	0	6	48
NMHLD	40	96	4	48
NMHLD	40	96	6	48
NMHLD	40	192	1	48
NMHLD	40	192	3	48
NMHLD	40	288	1	48
NMHLD	40	288	3	48
NMSTR	41	0	0
BRSUL	41	0	0	96	96	4
NMSTR	41	0	7
BRSUR	41	0	7	96	96	3
BRTAP	41	288	2
BRTAP	41	288	5
NMTAP	42	0	1
NMTAP	42	96	0
NMTAP	42	192	1
NMTAP	42	192	7
NMTAP	42	288	0
NMTAP	42	288	6
NMTAP	43	0	6
NMTAP	43	96	7
NMTAP	43	192	0
NMTAP	43	192	5
NMTAP	43	288	1
NMTAP	43	288	4
EXTAP	44	0	2
EXTAP	44	0	3
EXTAP	44	72	2
EXTAP	44	72	3
EXTAP	44	144	2
EXTAP	44	144	3
EXTAP	44	192	2
EXTAP	44	192	3
NMTAP	44	288	3
NMTAP	44	288	6
BXTAP	45	0	4
BXTAP	45	0	5
BXTAP	45	72	4
BXTAP	45	72	5
BXTAP	45	144	4
BXTAP	45	144	5
BXSTR	45	192	4
NMSI_	45	192	4	96	48	7
BXTAP	45	192	5
NMTAP	46	0	0
NMTAP	46	96	1
NMTAP	46	96	3
NMTAP	46	192	2
NMTAP	46	288	3
NMTAP	46	288	5
NMTAP	47	0	4
NMTAP	47	96	5
NMTAP	47	96	7
NMTAP	47	192	6
NMTAP	47	288	0
NMTAP	47	288	7
NMTAP	48	0	2
NMTAP	48	96	1
NMTAP	48	96	3
NMTAP	48	192	5
NMSTR	48	288	4
NMSUL	48	288	4	96	192	0
NMTAP	48	288	6
NMTAP	49	288	0
NMTAP	49	288	7
BRSTR	50	0	0
NMSCR	50	0	0	96	576	7
BRTAP	50	0	7
CNSUR	51	288	7	0	480	1
NMHLD	54	0	7	384
NMHLD	55	0	5	384
NMHLD	56	0	3	384
NMTAP	57	0	1
NMTAP	57	192	3
NMHLD	57	192	4	384
NMTTP	58	0	6	E	0	M1
NMTTP	58	96	0	E	0	M1
NMHLD	58	192	3	384
NMTTP	59	0	1	B	0	M1
NMTTP	59	0	2	E	0	M1
NMTTP	59	96	0	E	0	M1
NMTTP	59	96	7	B	0	M1
NMHLD	59	192	4	384
NMTTP	60	0	5	A	0	M1
NMTTP	60	0	6	E	0	M1
NMTTP	60	0	6	A	0	M1
NMTTP	60	0	6	D	0	M1
NMTTP	60	96	0	E	0	M1
NMTTP	60	96	0	A	0	M1
NMTTP	60	96	0	D	0	M1
NMTTP	60	96	7	A	0	M1
NMHLD	60	192	3	192
NMTAP	61	0	1
NMTAP	61	96	0
NMTAP	61	96	2
NMTAP	61	192	3
NMTAP	61	192	7
NMTAP	61	288	4
NMTAP	61	288	6
EXHLD	62	0	6	72
EXHLD	62	72	5	72
EXTAP	62	144	4
EXHLD	62	192	1	72
EXHLD	62	264	2	72
EXTAP	62	336	3
EXHLD	63	0	4	72
EXHLD	63	72	5	72
EXTAP	63	144	6
EXHLD	63	192	3	72
EXHLD	63	264	2	72
EXTAP	63	336	1
EXHLD	64	0	6	72
EXHLD	64	72	5	72
EXTAP	64	144	4
EXHLD	64	192	3	72
EXHLD	64	264	2	72
EXTAP	64	336	1
NMTHO	65	0	0	384	C	1	M1
BRTAP	66	288	0
BRTAP	66	288	7
NMHLD	67	0	2	48
NMHLD	67	0	3	48
NMHLD	67	96	3	48
NMHLD	67	96	4	48
NMTAP	67	192	4
NMTAP	67	192	5
NMTAP	67	264	4
NMTAP	67	264	5
NMTAP	67	336	4
NMTAP	67	336	5
NMHLD	68	0	4	48
NMHLD	68	0	5	48
NMHLD	68	96	6	48
NMHLD	68	96	7	48
NMTAP	68	192	0
NMTAP	68	192	1
NMTAP	68	264	0
NMTAP	68	264	1
NMTAP	68	336	0
NMTAP	68	336	1
NMHLD	69	0	0	48
NMHLD	69	0	1	48
NMHLD	69	96	3	48
NMHLD	69	96	4	48
NMTAP	69	192	6
NMTAP	69	192	7
NMTAP	69	264	6
NMTAP	69	264	7
NMTAP	69	336	6
NMTAP	69	336	7
BRTAP	70	0	6
BRTAP	70	0	7
BRTAP	70	96	2
BRTAP	70	96	3
BRTAP	70	192	0
BRTAP	70	192	1
BRTAP	70	288	4
BRTAP	70	288	5
NMHLD	71	0	6	48
NMHLD	71	0	7	48
NMHLD	71	96	6	48
NMHLD	71	96	7	48
NMTAP	71	192	4
NMTAP	71	192	5
NMTAP	71	264	4
NMTAP	71	264	5
NMTAP	71	336	4
NMTAP	71	336	5
NMHLD	72	0	4	48
NMHLD	72	0	5	48
NMHLD	72	96	2	48
NMHLD	72	96	3	48
NMTAP	72	192	0
NMTAP	72	192	1
NMTAP	72	264	0
NMTAP	72	264	1
NMTAP	72	336	0
NMTAP	72	336	1
NMTAP	73	0	0
NMTAP	73	0	1
NMTAP	73	48	7
NMTAP	73	96	6
NMTAP	73	144	5
NMTAP	73	192	4
NMTAP	73	240	3
NMTAP	73	288	2
NMTAP	73	336	1
NMSTR	74	0	0
BRSUL	74	0	0	96	96	3
NMSTR	74	0	7
BRSUR	74	0	7	96	96	4
BRTAP	74	288	2
BRTAP	74	288	5
NMHLD	75	0	1	1536
NMTAP	75	0	4
NMTAP	75	96	4
NMTAP	75	192	3
NMTAP	75	288	3
NMTAP	76	0	5
NMTAP	76	96	5
NMTAP	76	192	2
NMTAP	76	288	2
NMTAP	77	0	6
NMTAP	77	96	6
NMTAP	77	192	0
NMTAP	77	288	0
BRTAP	78	0	7
BRTAP	78	96	4
BRTAP	78	192	0
BRTAP	78	288	3
NMHLD	79	0	6	672
NMTAP	79	96	3
NMTAP	79	192	4
NMTAP	79	288	4
NMTAP	80	0	2
NMTAP	80	96	2
NMTAP	80	192	5
NMTAP	80	288	5
NMTAP	81	0	6
NMTAP	81	0	7
NMTAP	81	96	0
NMTAP	81	96	5
NMTAP	81	192	1
NMTAP	81	192	4
NMTAP	81	288	2
NMTAP	81	288	3
NMSTR	82	0	3
BRSF_	82	0	3	96	96	7
NMTTP	82	288	0	C	1	M1

T_REC_TAP	174
T_REC_BRK	33
T_REC_XTP	22
T_REC_BXX	15
T_REC_HLD	91
T_REC_XHO	16
T_REC_BHO	0
T_REC_BXH	0
T_REC_STR	10
T_REC_BST	1
T_REC_XST	1
T_REC_XBS	5
T_REC_TTP	32
T_REC_THO	2
T_REC_SLD	12
T_REC_BSL	5
T_REC_ALL	419
T_NUM_TAP	239
T_NUM_BRK	59
T_NUM_HLD	109
T_NUM_SLD	12
T_NUM_ALL	419
T_JUDGE_TAP	293
T_JUDGE_HLD	300
T_JUDGE_SLD	17
T_JUDGE_ALL	610
TTM_EACHPAIRS	120
TTM_SCR_TAP	119500
TTM_SCR_BRK	153400
TTM_SCR_HLD	109000
TTM_SCR_SLD	18000
TTM_SCR_ALL	399900
TTM_SCR_S	382200
TTM_SCR_SS	394000
TTM_RAT_ACV	10149

