VERSION	0.00.00	1.04.00
FES_MODE	0
BPM_DEF	150.000	150.000	150.000	150.000
MET_DEF	4	4
RESOLUTION	384
CLK_DEF	384
COMPATIBLE_CODE	MA2

BPM	0	0	150.000
MET	0	0	4	4

NMHLD	1	0	7	384
NMHLD	2	0	4	96
NMTAP	2	144	4
NMTAP	2	144	6
NMTAP	2	288	4
NMTAP	2	288	5
NMTAP	2	336	2
NMTAP	2	360	2
NMHLD	3	0	3	96
NMTAP	3	144	1
NMTAP	3	144	3
NMTAP	3	288	2
NMTAP	3	288	3
NMTAP	3	336	5
NMTAP	3	360	5
NMHLD	4	0	4	96
NMTAP	4	144	4
NMTAP	4	144	6
NMTAP	4	288	3
NMTAP	4	288	4
NMTAP	4	336	2
NMTAP	4	360	2
NMSTR	5	0	3
NMSV_	5	0	3	96	48	0
NMTAP	5	96	1
NMHLD	5	192	7	72
NMHLD	5	264	6	72
NMTAP	5	336	5
NMSTR	6	0	5
NMSI_	6	0	5	96	32	3
NMTAP	6	96	2
NMHLD	6	192	0	72
NMHLD	6	264	1	72
NMTAP	6	336	2
NMSTR	7	0	2
NMSV_	7	0	2	96	48	5
NMTAP	7	96	7
NMHLD	7	192	6	72
NMHLD	7	264	5	72
NMTAP	7	336	4
NMSTR	8	0	4
NMSI_	8	0	4	96	48	0
NMTAP	8	96	1
NMHLD	8	192	3	72
NMHLD	8	264	2	72
NMTAP	8	336	0
NMTAP	9	0	1
NMTAP	9	0	7
NMTAP	9	48	5
NMTAP	9	72	4
NMTAP	9	96	6
NMTAP	9	144	2
NMTAP	9	168	3
NMTAP	9	192	1
NMTAP	9	240	7
NMTAP	9	264	0
EXTAP	9	288	1
EXTAP	9	288	6
NMSTR	10	0	2
NMSV_	10	0	2	96	48	4
NMTAP	10	0	4
NMTAP	10	96	6
CNSCL	10	144	4	0	48	3
NMHLD	10	144	6	96
CNSI_	10	192	3	0	48	7
NMTAP	10	288	0
NMTAP	10	288	6
NMTAP	10	336	2
NMSTR	11	0	4
NMSCR	11	0	4	96	96	7
NMSTR	11	96	7
NMSUL	11	96	7	96	96	1
NMSTR	11	192	1
NMSCR	11	192	1	96	96	4
NMTAP	11	288	0
NMHLD	12	0	7	96
NMTAP	12	96	6
NMTAP	12	144	0
NMSTR	12	144	5
NMSI_	12	144	5	96	32	3
NMHLD	12	240	2	96
NMTAP	12	336	3
NMTAP	13	0	1
NMTAP	13	0	4
NMTAP	13	48	5
NMTAP	13	72	4
NMTAP	13	96	6
NMTAP	13	144	2
NMTAP	13	168	3
EXTAP	13	192	1
NMTAP	13	240	7
NMTAP	13	264	7
BRTAP	13	288	0
NMTAP	14	0	1
NMTAP	14	0	5
NMTAP	14	48	1
NMTAP	14	96	1
NMTAP	14	96	3
NMTAP	14	144	1
NMTAP	14	192	2
NMTAP	14	192	6
NMTAP	14	240	2
NMTAP	14	288	2
NMTAP	14	288	4
NMTAP	14	336	2
NMTAP	15	0	1
NMTAP	15	0	5
NMTAP	15	48	5
NMTAP	15	96	3
NMTAP	15	96	5
NMTAP	15	144	5
NMTAP	15	192	2
NMTAP	15	192	6
NMTAP	15	240	6
NMTAP	15	288	4
NMTAP	15	288	6
NMTAP	15	336	6
NMTAP	16	0	3
NMTAP	16	32	2
NMTAP	16	64	1
NMTAP	16	96	7
NMTAP	16	128	6
NMTAP	16	160	5
NMTAP	16	192	2
NMTAP	16	224	1
NMTAP	16	256	0
NMTAP	16	288	6
NMTAP	16	320	5
NMTAP	16	352	4
EXSTR	17	0	3
NMSCR	17	0	3	96	48	6
EXSTR	17	0	7
NMSCR	17	0	7	96	48	2
NMSTR	17	192	0
NMSI_	17	192	0	96	48	4
NMSTR	17	192	1
NMSI_	17	192	1	96	48	3
NMTAP	17	240	7
BRTAP	17	288	0
BRTAP	17	288	1
EXTAP	18	0	5
EXHLD	18	0	6	264
NMTAP	18	96	5
NMTAP	18	192	5
NMTAP	18	264	5
NMTAP	18	288	6
EXTAP	18	336	5
EXTAP	18	336	6
EXTAP	19	0	4
EXHLD	19	0	7	264
NMTAP	19	96	4
NMTAP	19	192	4
NMTAP	19	264	4
NMTAP	19	288	7
EXTAP	19	336	4
EXTAP	19	336	7
EXHLD	20	0	5	264
EXTAP	20	0	6
NMTAP	20	96	6
NMTAP	20	192	6
NMTAP	20	264	6
NMTAP	20	288	5
EXTAP	20	336	5
EXTAP	20	336	6
EXHLD	21	0	4	192
EXTAP	21	0	7
NMTAP	21	96	7
NMSTR	21	192	7
NMSCL	21	192	7	96	48	4
NMTAP	21	240	4
EXTAP	21	288	7
EXTAP	22	0	1
EXHLD	22	0	2	264
NMTAP	22	96	1
NMTAP	22	192	1
NMTAP	22	264	1
NMTAP	22	288	2
EXTAP	22	336	1
EXTAP	22	336	2
EXHLD	23	0	0	264
EXTAP	23	0	3
NMTAP	23	96	3
NMTAP	23	192	3
NMTAP	23	264	3
NMTAP	23	288	0
EXTAP	23	336	0
EXTAP	23	336	3
EXTAP	24	0	1
EXTAP	24	0	2
NMTAP	24	96	4
NMTAP	24	96	7
EXTAP	24	144	1
EXTAP	24	144	2
NMTAP	24	240	4
NMTAP	24	240	7
EXTAP	24	288	1
EXTAP	24	288	2
NMTAP	24	336	0
NMTAP	24	336	3
NMSTR	25	0	1
NMSI_	25	0	1	96	32	7
NMHLD	25	0	2	48
NMSTR	25	96	1
NMSI_	25	96	1	96	32	3
NMHLD	25	96	4	48
NMSTR	25	192	1
NMSI_	25	192	1	96	48	5
NMHLD	25	192	6	48
EXTAP	25	288	0
EXTAP	25	288	1
NMTAP	26	0	6
NMTAP	26	0	7
NMTAP	26	48	0
NMTAP	26	96	1
NMTAP	26	96	3
NMTAP	26	144	4
NMTAP	26	192	2
NMTAP	26	192	6
NMTAP	26	240	1
NMTAP	26	264	0
NMTAP	26	288	1
NMTAP	26	336	5
NMTAP	26	360	4
NMSTR	27	0	6
NMSI_	27	0	6	96	48	3
NMTAP	27	48	7
NMTAP	27	96	3
NMTAP	27	144	2
NMTAP	27	192	1
NMTAP	27	192	5
NMTAP	27	240	6
NMTAP	27	264	7
NMTAP	27	288	6
NMTAP	27	336	2
NMTAP	27	360	3
NMSTR	28	0	1
NMSCR	28	0	1	96	48	4
NMTAP	28	48	0
NMTAP	28	96	4
NMTAP	28	144	5
NMTAP	28	192	2
NMTAP	28	192	6
NMTAP	28	240	1
NMTAP	28	264	0
NMTAP	28	288	1
NMTAP	28	336	5
NMTAP	28	360	4
NMTAP	29	0	6
NMTAP	29	48	2
NMTAP	29	72	3
NMTAP	29	96	1
NMTAP	29	144	0
NMTAP	29	144	4
NMSTR	29	192	6
NMSCL	29	192	6	96	48	2
NMSTR	29	192	7
NMSCL	29	192	7	96	24	4
NMTAP	29	240	0
EXTAP	29	288	6
EXTAP	29	288	7
NMTAP	30	0	0
NMTAP	30	0	1
NMTAP	30	48	7
NMTAP	30	96	4
NMTAP	30	96	6
NMTAP	30	144	3
NMTAP	30	192	1
NMTAP	30	192	5
NMTAP	30	240	6
NMTAP	30	264	7
NMTAP	30	288	6
NMTAP	30	336	2
NMTAP	30	360	3
NMSTR	31	0	1
NMSV_	31	0	1	96	48	4
NMTAP	31	48	0
NMTAP	31	96	4
NMTAP	31	144	5
NMTAP	31	192	2
NMTAP	31	192	6
NMTAP	31	240	1
NMTAP	31	264	0
NMTAP	31	288	1
NMTAP	31	336	5
NMTAP	31	360	4
NMHLD	32	0	6	96
NMTAP	32	96	7
NMTAP	32	144	4
NMTAP	32	144	5
NMTAP	32	192	2
NMTAP	32	192	3
NMTAP	32	240	0
NMTAP	32	240	1
NMTAP	32	288	2
NMTAP	32	288	7
NMTAP	32	336	6
NMTAP	32	360	4
NMSTR	33	0	5
NMSV_	33	0	5	96	48	0
NMSTR	33	96	3
NMSCR	33	96	3	96	48	6
NMTAP	33	96	5
NMTAP	33	192	3
NMSTR	33	192	7
NMSF_	33	192	7	96	48	3
BRTAP	33	288	7
NMHLD	34	0	1	336
NMTAP	34	0	5
NMTAP	34	336	3
NMTAP	35	0	2
NMHLD	35	0	4	144
NMTAP	35	144	3
NMTAP	35	192	4
NMTAP	35	264	3
NMTAP	35	264	5
NMTAP	35	336	2
NMTAP	35	336	6
NMTAP	36	0	2
NMHLD	36	0	6	336
NMTAP	36	336	4
NMHLD	37	0	3	144
NMTAP	37	0	5
NMTAP	37	144	4
NMSTR	37	192	4
BRSI_	37	192	4	96	48	0
NMTAP	37	240	3
NMTAP	38	0	1
NMTAP	38	0	7
NMTAP	38	48	7
NMTAP	38	96	3
NMTAP	38	96	7
NMTAP	38	144	7
NMTAP	38	192	2
NMTAP	38	192	6
NMTAP	38	240	6
NMTAP	38	288	4
NMTAP	38	288	6
NMTAP	38	336	5
NMTAP	38	360	5
NMTAP	39	0	3
NMTAP	39	48	3
NMTAP	39	96	3
NMTAP	39	96	4
NMTAP	39	144	3
NMTAP	39	192	2
NMTAP	39	192	6
NMTAP	39	240	2
NMTAP	39	288	2
NMTAP	39	288	3
NMTAP	39	336	1
NMTAP	39	360	1
NMTAP	40	0	7
NMTAP	40	32	6
NMTAP	40	64	5
NMTAP	40	96	3
NMTAP	40	128	2
NMTAP	40	160	1
NMTAP	40	192	6
NMTAP	40	224	5
NMTAP	40	256	4
NMTAP	40	288	2
NMTAP	40	320	1
NMTAP	40	352	0
NMTTP	41	0	4	B	0	M1
NMTTP	41	0	5	B	0	M1
NMTTP	41	0	5	E	1	M1
NMTTP	41	96	1	B	0	M1
NMTTP	41	96	2	E	1	M1
NMTTP	41	192	7	A	1	M1
BRSTR	41	288	3
NMSF_	41	288	3	96	48	7
NMSTR	42	96	2
NMSLR	42	96	2	96	48	6
NMTAP	42	96	4
NMSTR	42	192	0
NMSCL	42	192	0	96	72	2
NMSTR	42	288	2
NMSLR	42	288	2	96	48	6
NMSTR	43	0	0
NMSCL	43	0	0	96	72	2
NMSTR	43	96	2
NMSLR	43	96	2	96	48	6
NMSTR	43	192	0
NMSCL	43	192	0	96	72	2
NMSTR	43	288	2
NMSI_	43	288	2	96	48	6
BRTAP	44	0	0
NMTAP	44	96	3
NMSTR	44	96	5
NMSLL	44	96	5	96	48	1
NMSTR	44	192	7
NMSCR	44	192	7	96	72	5
NMSTR	44	288	5
NMSLL	44	288	5	96	48	1
NMSTR	45	0	7
NMSCR	45	0	7	96	72	5
NMSTR	45	96	5
NMSLL	45	96	5	96	48	1
NMSTR	45	192	7
NMSCR	45	192	7	96	72	5
BXHLD	45	288	4	768
NMTAP	46	0	6
NMTAP	46	48	3
NMTAP	46	96	5
NMTAP	46	144	2
NMTAP	46	192	6
NMTAP	46	240	3
NMTAP	46	288	5
NMTAP	46	336	2
NMTAP	47	0	6
NMTAP	47	48	3
NMTAP	47	96	5
NMTAP	47	144	2
NMTAP	47	192	6
NMTAP	47	240	3
NMSTR	47	288	5
NMSCR	47	288	5	96	32	7
NMSTR	48	0	3
NMSCR	48	0	3	96	32	5
NMSTR	48	96	1
NMSCR	48	96	1	96	32	3
NMSTR	48	192	7
NMSCR	48	192	7	96	32	1
NMTAP	48	288	5
NMHLD	49	0	2	48
NMTAP	49	48	3
NMHLD	49	96	5	48
NMTAP	49	144	4
NMHLD	49	192	0	48
NMTAP	49	240	1
NMHLD	49	288	7	48
NMTAP	49	336	6
EXTAP	50	0	2
EXTAP	50	0	4
NMTAP	50	96	3
NMSTR	50	96	5
NMSLL	50	96	5	96	48	1
NMSTR	50	192	7
NMSCR	50	192	7	96	72	5
NMSTR	50	288	5
NMSLL	50	288	5	96	48	1
NMSTR	51	0	7
NMSCR	51	0	7	96	72	5
NMSTR	51	96	5
NMSLL	51	96	5	96	48	1
NMSTR	51	192	7
NMSCR	51	192	7	96	72	5
NMSTR	51	288	5
NMSLL	51	288	5	96	48	1
BRTAP	52	0	7
NMSTR	52	96	2
NMSLR	52	96	2	96	48	6
NMTAP	52	96	4
NMSTR	52	192	0
NMSCL	52	192	0	96	72	2
NMSTR	52	288	2
NMSLR	52	288	2	96	48	6
NMSTR	53	0	0
NMSCL	53	0	0	96	72	2
NMSTR	53	96	2
NMSLR	53	96	2	96	48	6
NMSTR	53	192	0
NMSI_	53	192	0	96	48	4
EXTAP	53	288	3
NMTAP	54	0	1
EXTAP	54	0	3
NMTAP	54	48	4
NMTAP	54	96	2
EXTAP	54	144	3
NMTAP	54	144	5
NMTAP	54	192	1
NMTAP	54	240	4
NMTAP	54	288	2
EXTAP	54	288	3
NMTAP	54	336	5
NMTAP	55	0	1
EXTAP	55	0	3
NMTAP	55	48	4
NMTAP	55	96	2
EXTAP	55	144	3
NMTAP	55	144	5
NMTAP	55	192	1
NMTAP	55	240	4
NMTAP	55	288	2
EXTAP	55	288	3
NMTAP	55	336	5
NMTAP	56	0	1
EXHLD	56	0	3	48
NMTAP	56	48	4
NMTAP	56	96	2
EXHLD	56	96	3	48
NMTAP	56	144	5
NMTAP	56	192	1
EXTAP	56	192	3
NMTAP	56	240	4
EXTAP	56	264	3
NMTAP	56	288	2
EXTAP	56	336	3
NMTAP	56	336	5
NMSTR	57	0	6
NMSCL	57	0	6	96	96	2
NMSTR	57	96	2
NMSCL	57	96	2	96	96	6
NMSTR	57	192	6
NMSCL	57	192	6	96	96	2
BRTAP	57	288	2
NMHLD	58	0	0	1344
NMTTP	58	96	6	E	0	M1
NMTTP	58	102	5	B	0	M1
NMTTP	58	288	4	B	0	M1
NMTTP	58	294	4	E	0	M1
NMTTP	59	96	5	D	0	M1
NMTTP	59	102	4	A	0	M1
NMTTP	59	288	6	E	0	M1
NMTTP	59	294	5	B	0	M1
NMTTP	60	96	4	B	0	M1
NMTTP	60	102	4	E	0	M1
NMTTP	60	288	5	D	0	M1
NMTTP	60	294	4	A	0	M1
NMTTP	61	96	6	E	0	M1
NMTTP	61	102	5	B	0	M1
NMSTR	61	192	3
NMSI_	61	192	3	96	48	7
NMTAP	61	216	3
EXTAP	61	288	4
NMTAP	62	0	0
NMTAP	62	0	6
NMTAP	62	48	0
NMTAP	62	96	1
NMTAP	62	96	3
NMTAP	62	144	1
NMTAP	62	192	2
NMTAP	62	192	7
NMTAP	62	240	2
NMTAP	62	288	3
NMTAP	62	288	4
NMTAP	62	336	3
NMTAP	63	0	1
NMTAP	63	0	7
NMTAP	63	48	7
NMTAP	63	96	4
NMTAP	63	96	6
NMTAP	63	144	6
NMTAP	63	192	0
NMTAP	63	192	5
NMTAP	63	240	5
NMTAP	63	288	3
NMTAP	63	288	4
NMTAP	63	336	4
NMTAP	64	0	0
NMTAP	64	32	1
NMTAP	64	64	2
NMTAP	64	96	4
NMTAP	64	128	5
NMTAP	64	160	6
NMTAP	64	192	1
NMTAP	64	224	2
NMTAP	64	256	3
NMTAP	64	288	5
NMTAP	64	320	6
NMTAP	64	352	7
NMTAP	65	0	1
NMTAP	65	24	0
NMTAP	65	48	1
NMTAP	65	72	0
NMTAP	65	96	2
NMTAP	65	120	7
NMTAP	65	144	2
NMTAP	65	168	7
EXSTR	65	192	3
NMSI_	65	192	3	96	48	0
EXTAP	65	240	4
EXTAP	65	240	5
EXTAP	65	288	6
BRTAP	66	0	7
NMTAP	66	336	2
NMTAP	66	336	3
NMTAP	66	360	2
NMTAP	66	360	3
BXTAP	67	0	0
BRTAP	67	0	4
NMTAP	67	336	4
NMTAP	67	336	5
NMTAP	67	360	4
NMTAP	67	360	5
BRTAP	68	0	3
BXTAP	68	0	7
NMTAP	68	144	1
NMTAP	68	144	4
NMTAP	68	240	3
NMTAP	68	240	6
NMTAP	68	288	3
NMTAP	68	288	6
NMTAP	68	336	4
NMTAP	68	336	5
NMTAP	69	0	0
NMTAP	69	0	7
NMTAP	69	96	0
NMTAP	69	96	7
NMSTR	69	192	0
NMSI_	69	192	0	96	48	4
NMSTR	69	192	7
NMSI_	69	192	7	96	48	3
NMTAP	69	224	0
NMTAP	69	224	7
NMTAP	69	256	0
NMTAP	69	256	7
BXTAP	69	288	0
BXTAP	69	288	7
NMSTR	70	0	1
NMSCR	70	0	1	96	48	4
NMSTR	70	48	5
NMSV_	70	48	5	96	48	0
NMTAP	70	96	1
NMTAP	70	144	5
NMTAP	70	192	2
NMTAP	70	240	2
NMTAP	70	264	3
NMTAP	70	288	1
NMTAP	70	336	6
NMTAP	70	360	7
NMSTR	71	0	6
NMSV_	71	0	6	96	48	3
NMSTR	71	48	2
NMSCL	71	48	2	96	48	7
NMTAP	71	96	6
NMTAP	71	144	2
NMTAP	71	192	5
NMTAP	71	240	5
NMTAP	71	264	4
NMTAP	71	288	6
NMTAP	71	336	1
NMTAP	71	360	0
NMSTR	72	0	1
NMSCR	72	0	1	96	48	4
NMTAP	72	48	1
NMTAP	72	96	0
NMTAP	72	96	1
NMSTR	72	144	6
NMSCL	72	144	6	96	48	3
NMTAP	72	192	6
NMTAP	72	240	6
NMTAP	72	240	7
NMSTR	72	288	1
NMSI_	72	288	1	96	48	5
NMTAP	72	336	1
NMSTR	73	0	0
NMSI_	73	0	0	96	48	4
NMTAP	73	0	1
NMTAP	73	96	0
NMSTR	73	96	7
NMSI_	73	96	7	96	48	3
NMSTR	73	192	6
NMSI_	73	192	6	96	48	2
NMTAP	73	192	7
EXTAP	73	288	2
NMTAP	73	288	6
NMTAP	74	0	0
NMTAP	74	48	1
NMTAP	74	48	7
NMTAP	74	96	6
NMTAP	74	144	4
NMTAP	74	144	5
NMTAP	74	192	2
NMTAP	74	240	1
NMTAP	74	240	3
NMTAP	74	288	5
NMTAP	74	336	6
NMTAP	74	336	7
NMSTR	75	0	1
NMSCR	75	0	1	96	48	4
NMSTR	75	48	4
NMSCR	75	48	4	96	48	7
NMTAP	75	96	1
NMSTR	75	192	0
NMSCR	75	192	0	96	96	6
NMTAP	76	0	7
NMTAP	76	48	0
NMTAP	76	48	6
NMTAP	76	96	1
NMTAP	76	144	2
NMTAP	76	144	3
NMTAP	76	192	5
NMTAP	76	240	4
NMTAP	76	240	6
NMTAP	76	288	2
NMTAP	76	336	0
NMTAP	76	336	1
NMSTR	77	0	6
NMSUL	77	0	6	96	48	2
NMTAP	77	48	7
NMSTR	77	96	0
NMSCL	77	96	0	96	48	5
NMSCR	77	96	0	96	48	3
NMHLD	77	288	1	48
NMHLD	77	288	7	48
NMSTR	78	0	2
NMSXR	78	0	2	96	144	4
NMTAP	78	0	6
NMTAP	78	96	5
NMHLD	78	144	7	96
NMTAP	78	288	0
NMTAP	78	288	6
NMTAP	78	336	2
NMTAP	78	360	3
NMTAP	79	0	1
NMTAP	79	48	0
NMTAP	79	48	7
NMTAP	79	96	5
NMTAP	79	144	4
NMTAP	79	144	6
NMTAP	79	192	2
NMTAP	79	240	1
NMTAP	79	240	3
NMTAP	79	288	7
NMTAP	79	336	0
NMTAP	79	336	6
NMTAP	80	0	1
NMTAP	80	32	1
NMTAP	80	64	1
NMTAP	80	96	3
NMTAP	80	128	3
NMTAP	80	160	3
NMTAP	80	192	4
NMTAP	80	224	4
NMTAP	80	256	4
NMTAP	80	288	6
NMTAP	80	320	6
NMTAP	80	352	6
NMTAP	81	0	1
NMTAP	81	24	0
NMTAP	81	48	2
NMTAP	81	72	7
NMTAP	81	96	3
NMTAP	81	120	6
NMTAP	81	144	4
NMTAP	81	168	5
NMTAP	81	192	1
NMTAP	81	204	2
NMTAP	81	216	3
NMTAP	81	228	4
NMTAP	81	240	5
NMTAP	81	252	6
NMTAP	81	264	7
NMTAP	81	276	0
BRTAP	81	288	1
BRTAP	81	288	5
EXHLD	82	0	7	240
NMTAP	82	96	4
NMTAP	82	240	4
NMTAP	82	264	5
NMTAP	82	288	4
NMTAP	82	336	3
NMTAP	82	336	6
NMHLD	83	0	0	240
NMTAP	83	96	3
NMTAP	83	240	3
NMTAP	83	264	2
NMTAP	83	288	3
NMTAP	83	336	1
NMTAP	83	336	4
NMTAP	84	0	7
NMTAP	84	48	6
NMTAP	84	96	1
NMTAP	84	144	2
NMHLD	84	192	4	48
NMHLD	84	288	2	48
NMTAP	85	0	3
NMTAP	85	48	4
NMTAP	85	96	2
NMTAP	85	144	1
NMSTR	85	192	6
NMSI_	85	192	6	96	48	3
NMTAP	85	240	7
CNSI_	85	336	3	0	24	5
EXTAP	86	0	1
NMTAP	86	48	2
NMTAP	86	96	5
NMTAP	86	144	4
NMTAP	86	240	2
NMTAP	86	264	3
NMTAP	86	288	1
NMTAP	86	336	0
NMTAP	86	336	4
NMTAP	87	0	6
NMTAP	87	48	5
NMTAP	87	96	2
NMTAP	87	144	3
NMTAP	87	240	5
NMTAP	87	264	4
NMTAP	87	288	6
NMTAP	87	336	3
NMTAP	87	336	7
EXTAP	88	0	0
EXTAP	88	0	1
NMTAP	88	48	2
NMHLD	88	96	5	48
NMTAP	88	144	4
EXTAP	88	192	6
EXTAP	88	192	7
NMTAP	88	240	5
NMHLD	88	288	2	48
NMTAP	88	336	3
EXTAP	89	0	0
EXTAP	89	0	1
NMTAP	89	48	2
NMTAP	89	72	7
NMTAP	89	96	3
NMTAP	89	120	6
NMTAP	89	144	4
NMTAP	89	168	5
NMTAP	89	192	3
NMTAP	89	216	4
NMTAP	89	240	2
NMTAP	89	264	3
NMSTR	89	288	1
NMSUR	89	288	1	96	336	4
NMTAP	89	312	4
NMTAP	89	336	5
NMTAP	89	360	6
NMHLD	90	0	7	336

T_REC_TAP	516
T_REC_BRK	12
T_REC_XTP	54
T_REC_BXX	4
T_REC_HLD	37
T_REC_XHO	9
T_REC_BHO	0
T_REC_BXH	1
T_REC_STR	78
T_REC_BST	1
T_REC_XST	3
T_REC_XBS	0
T_REC_TTP	20
T_REC_THO	0
T_REC_SLD	82
T_REC_BSL	1
T_REC_ALL	818
T_NUM_TAP	671
T_NUM_BRK	19
T_NUM_HLD	46
T_NUM_SLD	82
T_NUM_ALL	818
T_JUDGE_TAP	688
T_JUDGE_HLD	170
T_JUDGE_SLD	83
T_JUDGE_ALL	941
TTM_EACHPAIRS	144
TTM_SCR_TAP	335500
TTM_SCR_BRK	49400
TTM_SCR_HLD	46000
TTM_SCR_SLD	123000
TTM_SCR_ALL	553900
TTM_SCR_S	535450
TTM_SCR_SS	552000
TTM_RAT_ACV	10034

