VERSION	0.00.00	1.04.00
FES_MODE	0
BPM_DEF	150.000	150.000	150.000	150.000
MET_DEF	4	4
RESOLUTION	384
CLK_DEF	384
COMPATIBLE_CODE	MA2

BPM	0	0	150.000
MET	0	0	4	4

EXTAP	2	0	2
EXTAP	2	96	3
EXTAP	2	144	3
EXTAP	2	240	4
EXTAP	2	288	4
NMTAP	3	0	5
NMTAP	3	96	4
NMTAP	3	192	3
NMTAP	3	288	2
NMTAP	3	288	3
NMTAP	4	0	1
NMTAP	4	96	3
NMTAP	4	144	3
NMTAP	4	240	4
NMTAP	4	288	4
NMTAP	5	0	6
NMTAP	5	96	4
NMTAP	5	192	3
NMTAP	5	288	2
NMTAP	5	288	4
NMTAP	6	0	1
NMTAP	6	96	2
NMTAP	6	192	3
NMTAP	6	288	4
NMTAP	6	288	5
NMTAP	7	0	6
NMTAP	7	96	5
NMTAP	7	192	4
NMTAP	7	288	2
NMTAP	7	288	3
NMTAP	8	0	0
NMTAP	8	96	1
NMTAP	8	192	2
NMTAP	8	288	3
NMTAP	8	288	4
NMTAP	9	0	5
NMTAP	9	96	6
BRTAP	9	192	1
BRTAP	9	192	7
EXHLD	10	0	2	288
NMTAP	10	96	3
NMTAP	10	288	3
NMHLD	11	0	1	288
EXTAP	11	96	0
NMTAP	11	288	0
NMHLD	12	0	6	288
EXTAP	12	96	7
NMTAP	12	288	7
NMHLD	13	0	5	288
EXTAP	13	96	4
NMTAP	13	288	4
NMHLD	14	0	2	288
NMTAP	14	96	3
NMTAP	14	192	4
NMTAP	14	288	3
NMHLD	15	0	5	288
NMTAP	15	96	4
NMTAP	15	192	3
NMTAP	15	288	4
EXTAP	16	0	2
EXTAP	16	48	2
EXTAP	16	96	6
EXTAP	16	144	6
EXTAP	16	192	1
EXTAP	16	240	1
EXTAP	16	288	7
EXTAP	16	336	7
EXTAP	17	0	0
EXTAP	17	48	0
EXTAP	17	96	7
EXTAP	17	192	1
EXTAP	17	192	6
NMTAP	17	288	2
NMTAP	17	288	5
NMHLD	18	0	0	96
NMHLD	18	96	1	96
NMTAP	18	192	2
EXTAP	18	288	2
EXTAP	18	288	3
NMHLD	19	0	7	96
NMHLD	19	96	6	96
NMTAP	19	192	5
NMTAP	19	288	4
EXTAP	19	288	5
NMHLD	20	0	0	96
NMHLD	20	96	1	96
NMTAP	20	192	2
NMTAP	20	288	2
NMTAP	20	288	3
NMHLD	21	0	7	96
NMHLD	21	96	6	96
NMTAP	21	192	4
BRTAP	21	288	3
BRTAP	21	288	5
NMHLD	22	0	3	96
NMHLD	22	96	2	96
NMHLD	22	192	1	96
NMTAP	22	288	0
NMHLD	23	0	7	96
NMHLD	23	96	6	96
NMHLD	23	192	5	96
EXTAP	23	288	4
EXTAP	24	0	3
EXTAP	24	96	1
EXTAP	24	96	2
EXTAP	24	144	1
EXTAP	24	144	2
NMTAP	24	240	0
NMTAP	24	240	1
NMTAP	24	288	0
NMTAP	24	288	1
NMSTR	25	0	7
NMSCL	25	0	7	96	192	2
NMTAP	25	288	1
NMTAP	26	0	2
NMTAP	26	96	1
NMTAP	26	96	3
NMTAP	26	192	2
NMTAP	26	192	4
NMTAP	26	288	1
NMTAP	26	288	3
NMTAP	27	0	5
NMTAP	27	96	4
NMTAP	27	96	6
NMTAP	27	192	3
NMTAP	27	192	5
NMTAP	27	288	4
NMTAP	27	288	6
NMTAP	28	0	2
NMTAP	28	96	2
NMTAP	28	96	3
NMTAP	28	192	1
NMTAP	28	240	1
NMTAP	28	288	2
NMTAP	28	288	3
NMTAP	29	0	5
NMTAP	29	96	4
NMTAP	29	96	5
NMTAP	29	192	6
NMTAP	29	240	6
NMTAP	29	288	0
NMTAP	29	288	7
NMHLD	30	0	7	96
NMHLD	30	96	6	96
NMHLD	30	192	5	96
NMTAP	30	288	4
NMHLD	31	0	3	96
NMHLD	31	96	2	96
NMHLD	31	192	1	96
BRTAP	31	288	0
NMTAP	32	0	6
NMTAP	32	0	7
NMTAP	32	96	5
NMTAP	32	96	6
NMTAP	32	144	5
NMTAP	32	144	6
NMTAP	32	240	4
NMTAP	32	240	5
NMSTR	32	288	4
NMSUL	32	288	4	96	288	1
NMTAP	32	288	5
BXTAP	33	288	0
NMTAP	34	0	0
NMHLD	34	0	6	480
NMTTP	34	192	7	B	0	M1
NMTTP	34	288	6	B	0	M1
NMTTP	35	0	5	B	0	M1
NMTTP	35	96	4	B	0	M1
NMTAP	35	192	2
NMTAP	35	288	2
NMHLD	36	0	2	480
NMTAP	36	0	3
NMTTP	36	192	0	B	0	M1
NMTTP	36	288	1	B	0	M1
NMTTP	37	0	2	B	0	M1
NMTTP	37	96	3	B	0	M1
NMTAP	37	192	5
NMTAP	37	288	5
NMTAP	38	0	4
NMHLD	38	0	5	1152
NMTTP	38	192	4	E	0	M1
NMTTP	38	288	3	E	0	M1
NMTTP	39	0	2	E	0	M1
NMTTP	39	96	1	E	0	M1
NMTTP	39	192	0	E	0	M1
NMTTP	39	288	7	E	0	M1
NMTTP	40	0	6	E	0	M1
NMTTP	40	96	5	E	0	M1
NMTTP	40	192	4	E	0	M1
NMTAP	41	0	2
NMTAP	41	96	1
NMTAP	41	192	0
BXTAP	41	288	7
NMTAP	42	0	0
NMTAP	42	0	7
EXHLD	42	96	0	48
EXHLD	42	96	7	48
NMHLD	42	192	0	48
NMHLD	42	192	1	48
EXHLD	42	288	0	48
EXHLD	42	288	7	48
NMHLD	43	0	6	48
NMHLD	43	0	7	48
NMHLD	43	96	0	48
NMHLD	43	96	7	48
NMHLD	43	192	0	48
NMHLD	43	192	1	48
NMHLD	43	288	0	48
NMHLD	43	288	7	48
BRTAP	44	0	5
BRTAP	44	0	6
NMHLD	44	96	3	48
NMHLD	44	96	4	48
EXHLD	44	192	1	48
EXHLD	44	192	2	48
NMHLD	44	288	3	48
NMHLD	44	288	4	48
NMHLD	45	0	5	48
NMHLD	45	0	6	48
EXHLD	45	96	3	48
EXHLD	45	96	4	48
NMHLD	45	192	1	48
NMHLD	45	192	2	48
NMHLD	45	288	3	48
NMHLD	45	288	4	48
EXTAP	46	0	4
NMSTR	46	0	5
NMSV_	46	0	5	96	96	0
NMTAP	46	192	1
EXTAP	46	288	0
EXTAP	46	288	1
NMTAP	47	0	0
NMSTR	47	0	1
NMSV_	47	0	1	96	96	4
NMTAP	47	192	5
EXTAP	47	288	4
NMTAP	47	288	5
BRTAP	48	0	4
BRTAP	48	0	5
EXHLD	48	96	2	48
EXHLD	48	96	4	48
NMHLD	48	192	3	48
NMHLD	48	192	5	48
NMHLD	48	288	2	48
NMHLD	48	288	4	48
EXTAP	49	0	3
EXTAP	49	48	2
EXTAP	49	96	4
EXTAP	49	144	5
EXTAP	49	192	3
EXTAP	49	240	2
EXTAP	49	288	4
EXTAP	49	336	4
BXTAP	50	0	3
BXTAP	50	0	5
EXHLD	50	96	0	48
EXHLD	50	96	7	48
EXHLD	50	192	0	48
EXHLD	50	192	1	48
NMHLD	50	288	6	48
NMHLD	50	288	7	48
NMHLD	51	0	0	48
NMHLD	51	0	2	48
NMHLD	51	96	5	48
NMHLD	51	96	7	48
NMHLD	51	192	1	48
NMHLD	51	192	2	48
NMHLD	51	288	5	48
NMHLD	51	288	6	48
BRTAP	52	0	0
BRTAP	52	0	7
NMHLD	52	96	2	48
NMHLD	52	96	3	48
NMHLD	52	192	5	48
NMHLD	52	192	7	48
EXHLD	52	288	2	48
EXHLD	52	288	7	48
NMHLD	53	0	4	48
NMHLD	53	0	5	48
NMHLD	53	96	0	48
NMHLD	53	96	1	48
EXHLD	53	192	4	48
EXHLD	53	192	6	48
NMHLD	53	288	1	48
NMHLD	53	288	3	48
NMSTR	54	0	2
NMSCL	54	0	2	96	96	7
NMTAP	54	0	4
NMTAP	54	192	6
NMTAP	54	288	6
EXTAP	54	288	7
NMSTR	55	0	6
NMSCL	55	0	6	96	96	3
NMTAP	55	0	7
NMTAP	55	192	2
NMTAP	55	288	2
EXTAP	55	288	3
EXHLD	56	0	2	48
NMHLD	56	0	4	48
NMHLD	56	96	3	48
NMHLD	56	96	5	48
NMHLD	56	192	2	48
NMHLD	56	192	6	48
NMHLD	56	288	1	48
NMHLD	56	288	7	48
NMHLD	57	0	0	48
NMHLD	57	96	1	48
NMHLD	57	192	2	48
BRTAP	57	288	3
NMSTR	58	0	4
NMSI_	58	0	4	96	192	7
NMHLD	58	0	5	672
CNSI_	58	288	7	0	192	3
CNSI_	59	96	3	0	192	1
NMHLD	60	0	2	672
NMSTR	60	0	4
NMSI_	60	0	4	96	192	0
CNSI_	60	288	0	0	192	3
CNSI_	61	96	3	0	192	6
NMHLD	62	0	5	288
NMTTP	62	96	7	E	0	M1
NMTTP	62	192	6	E	0	M1
NMTTP	62	288	4	B	0	M1
NMHLD	63	0	2	288
NMTTP	63	96	3	B	0	M1
NMTTP	63	192	2	E	0	M1
NMTTP	63	288	0	B	0	M1
EXTAP	64	0	6
EXTAP	64	48	6
EXTAP	64	96	2
EXTAP	64	144	2
EXTAP	64	192	5
EXTAP	64	240	5
EXTAP	64	288	3
EXTAP	64	336	3
EXTAP	65	0	4
EXTAP	65	48	4
EXTAP	65	96	3
EXTAP	65	192	1
EXTAP	65	192	6
BRTAP	65	288	2
BRTAP	65	288	5
NMHLD	66	0	2	288
NMTAP	66	0	3
NMTAP	66	288	4
NMTAP	67	0	4
NMHLD	67	0	5	288
NMTAP	67	288	3
NMTAP	68	0	2
NMTAP	68	48	2
NMTAP	68	48	3
NMTAP	68	144	5
NMTAP	68	192	4
NMTAP	68	192	5
NMTAP	68	288	3
NMTAP	68	288	4
EXTAP	69	0	3
EXTAP	69	0	4
NMTAP	69	96	2
NMTAP	69	96	5
EXTAP	69	192	1
EXTAP	69	192	6
EXTAP	69	224	1
EXTAP	69	224	6
EXTAP	69	256	1
EXTAP	69	256	6
EXTAP	69	288	1
EXTAP	69	288	6
NMTAP	70	0	2
NMTAP	70	96	1
NMTAP	70	96	3
NMTAP	70	192	0
NMTAP	70	192	2
NMTAP	70	288	1
NMTAP	70	288	3
NMTAP	71	0	5
NMTAP	71	96	4
NMTAP	71	96	6
NMTAP	71	192	5
NMTAP	71	192	7
NMTAP	71	288	4
NMTAP	71	288	6
NMTAP	72	0	1
NMTAP	72	48	1
NMTAP	72	48	3
NMTAP	72	144	6
NMTAP	72	192	4
NMTAP	72	192	6
NMTAP	72	288	3
NMTAP	72	288	4
NMTAP	73	0	2
BRTAP	73	48	2
BRTAP	73	48	3
BRTAP	73	144	0
BRTAP	73	144	1
BRTAP	73	240	6
BRTAP	73	240	7
BRTAP	73	336	4
BRTAP	73	336	5
NMHLD	74	0	4	48
NMHLD	74	0	5	48
NMHLD	74	96	2	48
NMHLD	74	96	3	48
NMHLD	74	192	6	48
NMHLD	74	192	7	48
NMHLD	74	288	0	48
NMHLD	74	288	1	48
EXTAP	75	0	6
EXTAP	75	48	6
NMSTR	75	96	6
NMSI_	75	96	6	96	96	3
NMSTR	75	96	7
NMSI_	75	96	7	96	96	3
NMHLD	76	0	2	48
NMHLD	76	0	3	48
NMHLD	76	96	4	48
NMHLD	76	96	6	48
NMHLD	76	192	0	48
NMHLD	76	192	2	48
NMHLD	76	288	5	48
NMHLD	76	288	7	48
EXTAP	77	0	1
EXTAP	77	48	1
NMSTR	77	96	1
NMSI_	77	96	1	96	96	4
NMSTR	77	96	7
NMSI_	77	96	7	96	96	4
EXTAP	78	0	3
NMTAP	78	0	5
NMTAP	78	96	0
NMTAP	78	96	1
NMTAP	78	144	0
NMHLD	78	144	1	144
BRTAP	78	240	5
BRTAP	78	288	5
NMTAP	79	0	1
NMTAP	79	0	3
NMTAP	79	96	6
NMTAP	79	96	7
NMHLD	79	144	6	144
NMTAP	79	144	7
BRTAP	79	240	1
BRTAP	79	288	1
EXTAP	80	0	0
EXTAP	80	48	1
EXTAP	80	96	2
EXTAP	80	144	3
EXTAP	80	192	4
EXTAP	80	240	5
EXTAP	80	288	6
EXTAP	80	336	7
EXSTR	81	0	0
NMSI_	81	0	0	96	96	4
BRSTR	81	96	7
NMSCL	81	96	7	96	96	4
NMSCR	81	96	7	96	96	2
EXHLD	82	0	2	288
EXTAP	82	0	4
NMTTP	82	96	3	B	0	M1
NMTTP	82	288	1	B	0	M1
NMHLD	83	0	7	288
NMTTP	83	96	6	B	0	M1
NMTTP	83	288	0	B	0	M1
NMHLD	84	0	3	288
NMTTP	84	96	2	B	0	M1
NMTTP	84	288	4	B	0	M1
NMHLD	85	0	5	288
NMTTP	85	96	6	B	0	M1
NMTTP	85	288	4	B	0	M1
NMHLD	86	0	2	288
NMTTP	86	96	3	E	0	M1
NMTTP	86	288	0	B	0	M1
NMTTP	86	288	1	B	0	M1
NMHLD	87	0	6	288
NMTTP	87	96	5	B	0	M1
NMTTP	87	288	0	B	0	M1
NMTTP	87	288	1	B	0	M1
NMHLD	88	0	4	96
NMTAP	88	0	5
NMTTP	88	96	7	B	0	M1
NMTTP	88	96	7	E	0	M1
NMTAP	88	192	2
NMHLD	88	192	3	96
NMTTP	88	288	0	B	0	M1
NMTTP	88	288	1	E	0	M1
NMTHO	89	0	0	384	C	1	M1
NMTTP	89	0	2	B	0	M1
NMTTP	89	0	3	B	0	M1
NMTTP	89	0	4	B	0	M1
NMTTP	89	0	5	B	0	M1

T_REC_TAP	166
T_REC_BRK	26
T_REC_XTP	81
T_REC_BXX	4
T_REC_HLD	113
T_REC_XHO	21
T_REC_BHO	0
T_REC_BXH	0
T_REC_STR	12
T_REC_BST	1
T_REC_XST	1
T_REC_XBS	0
T_REC_TTP	45
T_REC_THO	1
T_REC_SLD	15
T_REC_BSL	0
T_REC_ALL	486
T_NUM_TAP	305
T_NUM_BRK	31
T_NUM_HLD	135
T_NUM_SLD	15
T_NUM_ALL	486
T_JUDGE_TAP	336
T_JUDGE_HLD	315
T_JUDGE_SLD	15
T_JUDGE_ALL	666
TTM_EACHPAIRS	129
TTM_SCR_TAP	152500
TTM_SCR_BRK	80600
TTM_SCR_HLD	135000
TTM_SCR_SLD	22500
TTM_SCR_ALL	390600
TTM_SCR_S	375900
TTM_SCR_SS	387500
TTM_RAT_ACV	10080

