VERSION	0.00.00	1.04.00
FES_MODE	0
BPM_DEF	164.000	164.000	164.000	164.000
MET_DEF	4	4
RESOLUTION	384
CLK_DEF	384
COMPATIBLE_CODE	MA2

BPM	0	0	164.000
MET	0	0	4	4

NMTAP	1	288	3
NMTAP	1	288	4
NMSTR	2	0	1
NMSI_	2	0	1	96	48	5
NMTAP	2	96	7
NMSTR	2	192	6
NMSI_	2	192	6	96	48	3
NMTAP	2	288	1
NMSTR	3	0	0
NMSCR	3	0	0	96	48	3
NMTAP	3	96	6
NMSTR	3	192	7
NMSI_	3	192	7	96	48	4
NMSTR	3	288	0
NMSCR	3	288	0	96	96	6
BXTAP	4	0	0
BRHLD	4	192	0	96
BRHLD	4	192	5	96
BRHLD	5	0	2	96
BRHLD	5	0	3	96
NMTTP	5	192	0	A	0	M1
NMTTP	5	192	1	E	0	M1
NMTTP	5	192	1	D	0	M1
NMTTP	5	192	6	E	0	M1
NMTTP	5	192	6	A	0	M1
NMTTP	5	192	6	D	0	M1
NMHLD	6	0	1	96
NMHLD	6	96	2	96
NMHLD	6	192	3	96
NMTAP	6	288	4
NMHLD	7	0	6	96
NMHLD	7	96	0	96
NMHLD	7	192	2	96
NMTAP	7	288	4
NMTAP	8	0	6
NMTAP	8	0	7
NMTAP	8	96	3
NMTAP	8	144	2
NMTAP	8	144	4
NMTAP	8	240	0
NMTAP	8	288	1
NMTAP	8	288	7
NMTAP	9	0	4
NMTAP	9	0	5
NMHLD	9	48	3	96
NMHLD	9	48	6	96
NMTAP	9	192	0
NMTAP	9	192	1
BRTAP	9	240	0
BRTAP	9	240	1
NMHLD	10	0	1	672
NMTTP	10	96	4	A	0	M1
NMTTP	10	192	4	A	0	M1
NMTTP	10	288	4	A	0	M1
NMTTP	11	0	3	A	0	M1
NMTTP	11	96	2	A	0	M1
NMTTP	11	192	0	A	0	M1
NMTTP	11	288	7	A	0	M1
NMHLD	12	0	6	672
NMTTP	12	96	4	A	0	M1
NMTTP	12	192	4	A	0	M1
NMTTP	12	288	4	A	0	M1
NMTTP	13	0	5	A	0	M1
NMTTP	13	96	7	A	0	M1
NMTTP	13	192	0	A	0	M1
NMTTP	13	288	1	A	0	M1
NMSTR	14	0	3
NMSI_	14	0	3	96	48	1
NMTAP	14	96	4
NMSTR	14	192	5
NMSI_	14	192	5	96	48	3
NMTAP	14	288	2
NMSTR	15	0	1
NMSI_	15	0	1	96	48	7
NMTAP	15	96	6
NMSTR	15	192	5
NMSI_	15	192	5	96	48	3
NMTAP	15	288	0
NMSTR	16	0	7
NMSI_	16	0	7	96	48	5
NMTAP	16	96	0
NMSTR	16	192	4
NMSI_	16	192	4	96	48	0
NMTAP	16	288	7
EXTAP	16	336	7
NMTTP	17	48	6	A	0	M1
NMTTP	17	144	5	B	0	M1
NMTTP	17	240	4	E	0	M1
NMTTP	17	240	4	D	1	M1
NMSTR	18	0	1
NMSCL	18	0	1	96	48	7
NMTAP	18	96	5
NMTAP	18	192	6
NMSTR	18	240	6
NMSCL	18	240	6	96	48	4
NMTAP	18	288	3
NMTAP	18	336	3
NMHLD	19	0	2	96
NMHLD	19	96	0	96
NMTAP	19	192	7
NMTAP	19	240	7
NMTAP	19	288	5
NMTAP	20	0	4
NMTAP	20	96	1
NMTAP	20	96	3
NMSTR	20	144	1
NMSI_	20	144	1	96	48	4
NMSTR	20	144	3
NMSI_	20	144	3	96	48	6
EXTAP	20	240	1
EXTAP	20	240	3
EXHLD	20	336	5	144
EXHLD	20	336	7	144
NMTTP	21	144	4	E	0	M1
NMTTP	21	160	3	B	0	M1
NMTTP	21	176	2	B	0	M1
NMTTP	21	192	2	E	0	M1
NMTAP	21	288	7
NMSTR	22	0	7
NMSI_	22	0	7	96	96	4
NMSTR	22	192	0
NMSI_	22	192	0	96	96	3
NMSTR	23	0	7
NMSSR	23	0	7	96	96	3
NMSTR	23	192	0
NMSSL	23	192	0	96	96	4
NMSTR	24	0	7
NMSUR	24	0	7	96	48	3
CNSCR	24	144	3	0	48	5
NMTAP	24	192	0
CNSI_	24	192	5	0	96	2
EXTAP	24	288	1
EXTAP	24	336	1
EXTAP	25	48	2
EXTAP	25	48	3
EXHLD	25	144	0	96
EXHLD	25	144	5	96
NMHLD	26	0	3	96
NMHLD	26	0	4	288
NMTAP	26	144	3
NMSTR	26	192	3
NMSI_	26	192	3	96	48	1
EXTAP	26	288	3
NMHLD	27	0	0	288
NMHLD	27	0	4	96
NMTAP	27	144	4
NMSTR	27	192	4
NMSI_	27	192	4	96	48	6
EXTAP	27	288	4
NMHLD	28	0	2	96
NMHLD	28	0	7	288
NMTAP	28	144	2
NMSTR	28	192	2
NMSI_	28	192	2	96	48	0
EXTAP	28	288	2
NMHLD	29	0	6	96
NMHLD	29	0	7	288
NMTAP	29	144	6
NMSTR	29	192	6
NMSI_	29	192	6	96	48	4
EXTAP	29	288	6
NMHLD	30	0	1	144
NMTAP	30	144	2
NMSTR	30	192	2
NMSCR	30	192	2	96	48	5
NMTAP	30	336	7
NMSTR	31	0	7
NMSCR	31	0	7	96	48	2
NMTAP	31	144	6
NMSTR	31	192	6
NMSI_	31	192	6	96	48	1
NMTAP	31	336	3
NMHLD	32	0	3	288
NMTAP	32	96	2
NMSTR	32	192	1
NMSI_	32	192	1	96	24	7
CNSI_	32	312	7	0	72	5
EXTAP	33	0	2
NMTAP	33	96	1
NMTAP	33	96	5
NMTAP	33	192	2
NMTAP	33	240	4
NMTAP	33	288	1
NMTAP	33	288	3
NMSTR	34	0	2
NMSI_	34	0	2	96	48	0
NMSTR	34	96	5
NMSI_	34	96	5	96	48	7
NMSTR	34	192	2
NMSUL	34	192	2	96	48	6
NMSTR	34	288	5
NMSUR	34	288	5	96	48	1
NMSTR	35	0	2
NMSCL	35	0	2	96	48	7
NMSTR	35	96	5
NMSCR	35	96	5	96	48	0
NMSTR	35	192	3
NMSI_	35	192	3	96	48	7
NMSTR	35	288	4
NMSCL	35	288	4	96	144	5
NMHLD	36	0	1	144
EXTAP	36	0	4
NMTAP	36	240	6
NMTAP	36	240	7
NMSTR	36	288	6
NMSI_	36	288	6	96	48	3
NMSTR	36	288	7
NMSI_	36	288	7	96	48	2
EXTAP	37	0	6
EXTAP	37	0	7
NMTAP	37	192	0
NMTAP	37	192	1
NMTAP	37	288	2
NMTAP	37	288	3
NMTAP	37	336	2
NMTAP	37	336	3
NMTAP	38	0	1
NMTAP	38	0	4
NMTAP	38	96	4
NMTAP	38	96	5
NMTAP	38	144	3
NMTAP	38	144	6
NMTAP	38	240	2
NMTAP	38	240	3
NMTAP	38	288	1
NMHLD	38	288	4	288
NMSTR	39	96	5
NMSI_	39	96	5	96	48	2
EXTAP	39	192	5
NMSTR	39	288	6
NMSCR	39	288	6	96	144	4
EXHLD	40	0	1	144
NMTAP	40	288	0
BRTAP	40	336	0
BRTAP	40	336	7
NMTAP	41	48	2
NMTAP	41	48	5
BRTAP	41	96	2
BRTAP	41	96	5
EXTAP	41	192	3
EXTAP	41	192	4
NMSTR	41	288	1
NMSCR	41	288	1	96	48	4
NMTAP	41	288	7
BRSTR	42	0	0
NMSI_	42	0	0	96	48	4
BRTAP	42	0	1
NMTAP	42	96	0
NMSTR	42	192	1
NMSI_	42	192	1	96	48	4
NMSI_	42	192	1	96	48	6
NMTAP	42	288	1
NMTAP	43	0	5
NMTAP	43	48	4
NMTAP	43	96	3
NMTAP	43	96	6
NMTAP	43	192	2
NMTAP	43	240	2
NMTAP	43	288	1
NMSTR	43	288	7
BRSCL	43	288	7	96	96	2
NMTAP	44	0	2
BXTAP	44	0	7
NMSTR	44	96	7
BRSCR	44	96	7	96	96	4
NMTAP	44	192	5
BXTAP	44	192	7
NMSTR	44	288	7
BRSLL	44	288	7	96	96	3
NMSTR	45	0	3
BRSLL	45	0	3	96	96	7
BXTAP	45	0	7
BXTAP	45	96	7
NMTAP	45	192	3
NMTAP	45	240	2
NMTAP	45	288	0
NMTAP	45	288	1
NMSTR	46	0	2
NMSI_	46	0	2	96	48	7
NMSTR	46	0	3
NMSI_	46	0	3	96	48	6
BXTAP	46	96	2
BXTAP	46	96	3
NMTAP	46	288	4
NMTAP	46	288	7
NMHLD	46	336	4	96
NMTAP	46	336	7
NMTAP	47	48	0
NMTAP	47	144	1
NMTAP	47	192	2
NMTAP	47	240	3
NMTAP	47	288	4
NMTAP	48	0	2
NMSTR	48	0	3
NMSI_	48	0	3	96	48	6
NMTAP	48	96	0
NMSTR	48	192	4
NMSI_	48	192	4	96	48	1
NMTAP	48	192	5
NMTAP	48	288	7
NMTAP	49	0	1
NMSTR	49	0	3
NMSUR	49	0	3	96	48	0
NMTAP	49	96	0
NMTAP	49	192	2
NMTAP	49	240	2
NMTAP	49	288	1
NMTAP	49	288	7
EXSTR	50	0	5
NMSI_	50	0	5	96	48	2
EXSTR	50	96	1
NMSI_	50	96	1	96	48	4
EXSTR	50	192	6
NMSCL	50	192	6	96	48	3
EXSTR	50	288	0
NMSUR	50	288	0	96	48	4
EXSTR	51	0	7
NMSUL	51	0	7	96	48	2
EXSTR	51	96	7
NMSUR	51	96	7	96	24	4
EXTAP	51	192	7
EXTAP	51	288	0
EXTAP	51	288	7
NMSTR	52	0	2
NMSXL	52	0	2	96	96	3
NMSLL	52	0	2	96	96	3
NMTAP	52	288	2
NMTAP	52	288	4
NMSTR	53	0	0
NMSI_	53	0	0	96	48	4
NMSTR	53	0	1
NMSI_	53	0	1	96	48	4
EXTAP	53	96	0
EXTAP	53	96	1
BXTAP	53	192	2
BXTAP	53	192	6
EXSTR	54	0	1
NMSLR	54	0	1	96	144	7
NMTAP	54	96	7
NMTAP	54	192	6
NMTAP	54	240	6
NMTAP	54	288	5
NMHLD	55	0	4	288
NMTAP	55	0	6
NMTAP	55	96	0
NMTAP	55	192	2
NMTAP	55	288	3
NMTAP	56	0	4
EXSTR	56	0	5
NMSLR	56	0	5	96	144	3
NMTAP	56	96	3
NMTAP	56	192	2
NMTAP	56	288	1
NMTAP	56	336	1
NMHLD	57	0	0	192
NMTAP	57	0	4
NMTAP	57	96	2
NMTAP	57	192	7
NMTAP	57	240	7
NMTAP	57	288	1
NMTAP	57	288	6
EXHLD	58	0	2	96
EXHLD	58	0	4	96
NMTAP	58	144	3
NMTAP	58	144	5
NMTAP	58	192	3
NMTAP	58	192	5
NMTAP	58	288	6
NMTAP	58	336	0
NMSTR	59	0	0
NMSF_	59	0	0	96	48	4
EXTAP	59	96	0
BXTAP	59	192	1
BXTAP	59	192	7
NMTTP	60	0	6	A	0	M1
NMTTP	60	48	5	A	0	M1
NMTTP	60	96	4	A	0	M1
NMTTP	60	144	3	A	0	M1
NMTTP	60	240	1	E	0	M1
NMTTP	60	288	2	B	0	M1
NMTTP	60	336	3	A	0	M1
NMTTP	60	336	3	D	0	M1
NMTAP	61	48	6
NMTAP	61	96	5
NMTAP	61	144	4
NMTAP	61	192	3
NMTAP	61	240	2
NMTAP	61	240	4
NMTAP	61	336	1
NMHLD	62	0	1	96
NMTTP	62	96	3	E	0	M1
NMTTP	62	96	3	D	0	M1
NMHLD	62	192	6	96
NMTTP	62	288	5	E	0	M1
NMTTP	62	288	5	D	0	M1
NMTTP	62	336	3	A	0	M1
NMTTP	62	352	3	D	0	M1
NMTTP	62	368	2	A	0	M1
NMTTP	63	0	2	D	0	M1
NMTTP	63	48	7	E	0	M1
NMTTP	63	96	5	B	0	M1
NMTTP	63	144	4	A	0	M1
NMTTP	63	240	1	B	0	M1
NMTTP	63	240	1	A	0	M1
NMTTP	63	288	0	E	0	M1
NMTTP	63	288	0	D	0	M1
EXTAP	64	0	5
NMTAP	64	32	4
NMTAP	64	64	5
EXTAP	64	96	2
NMTAP	64	128	3
NMTAP	64	160	2
EXTAP	64	192	6
NMTAP	64	224	4
NMTAP	64	256	5
EXTAP	64	288	1
NMTAP	64	320	3
NMTAP	64	352	2
BXTAP	65	0	7
NMTAP	65	32	4
NMTAP	65	64	5
BXTAP	65	96	0
NMTAP	65	128	3
NMTAP	65	160	2
BXTAP	65	192	7
NMTAP	65	224	3
NMTAP	65	256	5
BXTAP	65	288	0
NMTAP	65	320	4
NMTAP	65	352	2
BXHLD	66	0	7	576
BRTAP	66	288	0
BRHLD	66	336	0	240
NMSTR	68	0	7
NMSSR	68	0	7	96	480	3
NMSTR	70	0	0
NMSSL	70	0	0	96	480	4
NMSTR	72	0	7
NMSSR	72	0	7	96	480	3
NMSTR	74	0	2
NMSXL	74	0	2	96	480	3
NMSLL	74	0	2	96	480	3
NMHLD	76	0	0	288
NMTAP	76	96	1
NMTAP	76	192	2
NMTAP	76	288	3
NMHLD	77	0	4	288
NMTAP	77	96	5
NMTAP	77	192	6
NMTAP	77	288	7
NMHLD	78	0	0	96
NMTAP	78	96	1
NMHLD	78	192	3	96
NMTAP	78	288	4
NMTAP	79	0	4
NMTAP	79	0	5
NMTAP	79	96	6
NMTAP	79	96	7
NMTAP	79	192	0
NMTAP	79	192	1
NMTAP	79	288	2
NMTAP	79	288	3
NMTAP	80	0	1
NMTAP	80	0	4
NMTAP	80	48	2
NMTAP	80	72	3
NMTAP	80	96	2
NMTAP	80	144	5
NMTAP	80	168	4
NMTAP	80	192	5
NMTAP	80	240	2
NMTAP	80	264	3
NMTAP	80	288	2
NMTAP	80	336	4
NMTAP	80	336	5
NMTAP	81	0	3
NMTAP	81	0	6
NMTAP	81	48	1
NMTAP	81	72	0
NMTAP	81	96	1
NMTAP	81	144	6
NMTAP	81	168	7
NMTAP	81	192	6
NMTAP	81	240	1
NMTAP	81	264	0
NMTAP	81	288	1
NMTAP	81	336	6
NMTAP	81	336	7
NMTAP	82	0	0
NMTAP	82	0	5
NMTAP	82	48	1
NMTAP	82	72	3
NMTAP	82	96	2
NMTAP	82	144	6
NMTAP	82	168	4
NMTAP	82	192	5
NMTAP	82	240	1
NMTAP	82	264	3
NMTAP	82	288	2
NMTAP	82	336	4
NMTAP	82	336	5
NMTAP	83	0	3
NMTAP	83	0	6
NMTAP	83	48	2
NMTAP	83	72	0
NMTAP	83	96	1
NMTAP	83	144	5
NMTAP	83	168	7
NMTAP	83	192	6
NMTAP	83	240	2
NMTAP	83	264	0
NMTAP	83	288	1
NMTAP	83	336	6
NMTAP	83	336	7
BRTAP	84	0	0
BRTAP	84	0	5
BRTAP	84	96	1
BRTAP	84	96	6
BRHLD	84	192	2	96
BRHLD	84	192	7	96
NMSTR	85	0	4
NMSCL	85	0	4	96	48	1
EXTAP	85	0	6
NMTAP	85	96	5
EXTAP	85	192	0
NMSTR	85	192	3
NMSCR	85	192	3	96	48	6
NMTAP	85	240	0
NMTAP	85	288	1
NMSTR	86	0	4
NMSCL	86	0	4	96	48	1
EXTAP	86	0	7
NMTAP	86	96	6
EXTAP	86	192	0
EXHLD	86	192	5	96
NMTAP	86	288	1
NMSTR	87	0	2
NMSUL	87	0	2	96	48	6
NMHLD	87	0	7	192
NMSTR	87	96	2
NMSI_	87	96	2	96	48	5
NMTAP	87	192	2
NMSTR	87	288	6
NMSI_	87	288	6	96	48	4
NMSTR	88	0	6
NMSI_	88	0	6	96	48	1
NMSTR	88	96	6
NMSI_	88	96	6	96	48	3
NMTAP	88	192	6
EXTAP	89	0	0
NMSTR	89	0	3
NMSI_	89	0	3	96	24	5
NMTAP	89	96	1
CNSCR	89	120	5	0	24	6
NMSTR	89	192	4
NMSI_	89	192	4	96	24	2
EXTAP	89	192	7
NMTAP	89	240	7
NMTAP	89	288	6
CNSCL	89	312	2	0	24	1
EXTAP	90	0	0
NMSTR	90	0	3
NMSI_	90	0	3	96	24	5
NMTAP	90	96	1
CNSCR	90	120	5	0	24	6
EXHLD	90	192	2	96
EXTAP	90	192	7
NMTAP	90	288	6
NMHLD	91	0	0	192
NMSTR	91	0	5
NMSI_	91	0	5	96	48	2
NMSTR	91	96	5
NMSI_	91	96	5	96	48	7
NMTAP	91	192	5
NMTAP	91	288	1
NMSTR	92	0	2
NMSSL	92	0	2	96	96	6
NMSTR	92	0	5
NMSSR	92	0	5	96	96	1
NMTAP	92	336	4
NMSTR	93	0	4
NMSI_	93	0	4	96	48	7
NMTAP	93	96	2
NMTAP	93	144	1
NMSTR	93	192	0
NMSI_	93	192	0	96	48	3
NMTAP	93	288	7
NMTAP	93	336	6
NMSTR	94	0	5
NMSI_	94	0	5	96	48	0
NMTAP	94	96	4
NMTAP	94	144	3
NMSTR	94	192	2
NMSCR	94	192	2	96	48	4
NMTAP	94	288	6
NMTAP	94	336	7
NMSTR	95	0	0
NMSI_	95	0	0	96	48	5
NMTAP	95	96	3
NMTAP	95	144	2
NMSTR	95	192	1
NMSCR	95	192	1	96	48	4
NMTAP	95	288	6
NMTAP	95	336	7
NMSTR	96	0	0
NMSCL	96	0	0	96	48	5
NMTAP	96	96	2
NMTAP	96	144	1
NMTAP	96	192	0
BRTAP	96	288	4
BRTAP	96	288	7
NMSTR	97	0	0
NMSV_	97	0	0	96	96	3
NMSTR	97	96	3
NMSCL	97	96	3	96	96	0
NMSTR	97	192	0
NMSV_	97	192	0	96	96	3
NMTAP	97	288	7
NMTAP	98	0	5
NMTAP	98	48	5
NMTAP	98	96	2
NMTAP	98	96	4
NMTAP	98	192	0
NMTAP	98	192	1
NMTAP	98	288	2
NMTAP	98	288	7
NMSTR	99	0	4
NMSCR	99	0	4	96	96	0
NMSTR	99	96	0
NMSCR	99	96	0	96	96	4
NMSTR	99	192	4
NMSI_	99	192	4	96	48	0
NMTAP	99	288	0
NMTAP	100	0	1
NMTAP	100	48	2
NMTAP	100	96	6
NMTAP	100	144	5
NMTAP	100	192	3
NMTAP	100	192	4
NMTAP	100	288	1
NMTAP	100	288	6
NMHLD	101	0	0	144
NMHLD	101	0	7	144
NMTTP	101	192	1	A	0	M1
NMTTP	101	192	6	A	0	M1
NMTTP	101	204	2	D	0	M1
NMTTP	101	204	6	D	0	M1
NMTTP	101	216	2	A	0	M1
NMTTP	101	216	5	A	0	M1
NMTTP	101	228	3	D	0	M1
NMTTP	101	228	5	D	0	M1
NMTTP	101	240	3	A	0	M1
NMTTP	101	240	4	A	0	M1
NMSTR	102	0	0
BRSCR	102	0	0	96	96	3
NMSTR	102	0	7
BRSCL	102	0	7	96	96	4
CNSXL	102	192	3	0	192	6
CNSXR	102	192	4	0	192	1
BRTAP	104	0	0
BRSTR	104	0	5
NMSI_	104	0	5	96	48	1
NMTAP	104	96	3
NMSTR	104	192	2
NMSI_	104	192	2	96	48	7
NMTAP	104	288	4
NMSTR	105	0	4
NMSCR	105	0	4	96	48	7
NMTAP	105	96	2
NMSTR	105	192	3
NMSI_	105	192	3	96	48	0
NMSTR	105	288	7
NMSCL	105	288	7	96	96	1
BXTAP	106	0	7
BRHLD	106	192	2	96
NMTTP	106	192	6	A	1	M1
NMTTP	106	192	6	D	0	M1
NMTTP	107	0	1	A	1	M1
NMTTP	107	0	2	D	0	M1
BRHLD	107	0	5	96
NMTTP	107	192	0	B	0	M1
NMTTP	107	192	0	E	1	M1
NMTTP	107	192	0	A	0	M1
NMTTP	107	192	7	B	0	M1
NMTTP	107	192	7	A	0	M1
NMHLD	108	0	3	96
NMHLD	108	96	2	96
NMTAP	108	192	1
NMTAP	108	240	1
NMTAP	108	288	4
NMTAP	109	0	6
NMHLD	109	48	6	48
NMTAP	109	96	4
NMHLD	109	144	4	48
NMTAP	109	192	2
NMHLD	109	240	2	48
NMTAP	109	288	0
EXTAP	110	0	4
EXTAP	110	0	5
NMTAP	110	48	6
NMTAP	110	72	7
NMTAP	110	96	6
EXTAP	110	144	4
EXTAP	110	144	5
NMTAP	110	192	1
NMTAP	110	216	0
NMTAP	110	240	1
EXTAP	110	288	2
EXTAP	110	288	3
NMTAP	110	336	6
NMTAP	110	360	7
NMTAP	111	0	6
EXHLD	111	48	4	96
EXHLD	111	48	5	96
BRTAP	111	192	2
BRTAP	111	192	7
BRTAP	111	240	2
BRTAP	111	240	7
NMSTR	112	0	3
NMSI_	112	0	3	96	1248	0
NMSTR	112	0	4
NMSI_	112	0	4	96	1248	7

T_REC_TAP	291
T_REC_BRK	19
T_REC_XTP	42
T_REC_BXX	16
T_REC_HLD	42
T_REC_XHO	11
T_REC_BHO	9
T_REC_BXH	1
T_REC_STR	95
T_REC_BST	2
T_REC_XST	8
T_REC_XBS	0
T_REC_TTP	70
T_REC_THO	0
T_REC_SLD	102
T_REC_BSL	6
T_REC_ALL	714
T_NUM_TAP	506
T_NUM_BRK	53
T_NUM_HLD	53
T_NUM_SLD	102
T_NUM_ALL	714
T_JUDGE_TAP	543
T_JUDGE_HLD	209
T_JUDGE_SLD	108
T_JUDGE_ALL	860
TTM_EACHPAIRS	110
TTM_SCR_TAP	253000
TTM_SCR_BRK	137800
TTM_SCR_HLD	53000
TTM_SCR_SLD	153000
TTM_SCR_ALL	596800
TTM_SCR_S	573800
TTM_SCR_SS	591500
TTM_RAT_ACV	10089

