VERSION	0.00.00	1.04.00
FES_MODE	0
BPM_DEF	164.000	164.000	164.000	164.000
MET_DEF	4	4
RESOLUTION	384
CLK_DEF	384
COMPATIBLE_CODE	MA2

BPM	0	0	164.000
MET	0	0	4	4

EXTAP	1	288	3
EXTAP	1	288	4
NMHLD	2	0	2	192
NMTAP	2	96	3
NMTAP	2	192	3
NMTAP	2	288	3
NMTAP	2	288	4
NMHLD	3	0	5	96
NMTAP	3	96	4
NMHLD	3	192	2	96
NMTAP	3	288	3
NMSTR	4	0	5
NMSCL	4	0	5	96	96	2
NMSTR	4	192	1
NMSI_	4	192	1	96	96	5
NMSTR	5	0	6
NMSCR	5	0	6	96	96	1
NMTAP	5	192	3
NMTAP	5	288	3
NMTAP	6	0	5
NMTAP	6	96	4
NMTAP	6	96	6
NMTAP	6	192	5
NMTAP	6	288	4
NMTAP	6	288	5
NMTAP	7	0	2
NMTAP	7	96	2
NMTAP	7	96	3
NMTAP	7	192	2
NMTAP	7	288	1
NMTAP	7	288	3
NMHLD	8	0	4	96
NMHLD	8	0	6	96
NMHLD	8	144	3	96
NMHLD	8	144	5	96
NMHLD	8	288	2	96
NMHLD	8	288	4	96
NMHLD	9	48	1	96
NMHLD	9	48	3	96
EXTAP	9	192	0
EXTAP	9	240	0
EXTAP	9	240	7
NMHLD	10	0	6	288
NMTAP	10	96	4
NMTAP	10	192	4
NMTAP	10	288	4
NMHLD	11	0	5	192
NMTAP	11	96	4
NMTAP	11	192	4
NMTAP	11	288	3
NMTAP	11	336	3
NMHLD	12	0	4	288
NMTAP	12	96	3
NMTAP	12	192	3
NMTAP	12	288	3
NMHLD	13	0	2	192
NMTAP	13	96	3
NMTAP	13	192	3
NMTAP	13	288	4
NMTAP	13	336	4
NMHLD	14	0	3	288
NMTAP	14	96	4
NMTAP	14	192	4
NMTAP	14	288	4
NMTAP	15	0	4
NMTAP	15	0	5
NMTAP	15	96	3
NMTAP	15	96	4
NMTAP	15	192	2
NMTAP	15	192	3
NMHLD	15	288	1	96
NMTAP	16	0	0
NMTAP	16	96	0
NMTAP	16	192	1
NMTAP	16	192	7
EXTAP	16	288	2
EXTAP	16	288	6
EXTAP	16	336	2
EXTAP	16	336	6
NMTTP	17	48	1	E	0	M1
NMTTP	17	144	0	C	0	M1
NMTTP	17	240	5	E	0	M1
NMTAP	18	0	6
NMTAP	18	96	6
NMTAP	18	96	7
NMTAP	18	192	5
NMTAP	18	240	5
NMTAP	18	288	4
NMTAP	19	0	2
NMTAP	19	96	2
NMTAP	19	96	3
NMTAP	19	192	1
NMTAP	19	240	1
NMTAP	19	288	0
NMHLD	20	0	0	96
NMHLD	20	0	7	96
EXTAP	20	144	0
EXTAP	20	144	7
EXTAP	20	240	3
EXTAP	20	240	4
BRTAP	20	336	1
BRTAP	20	336	6
NMTAP	21	192	3
NMTAP	21	288	4
NMSTR	22	0	2
NMSCR	22	0	2	96	96	5
NMTAP	22	192	6
NMTAP	22	288	6
NMTAP	23	0	5
NMTAP	23	96	3
NMTAP	23	192	1
NMSTR	23	288	7
NMSCL	23	288	7	96	240	1
NMHLD	24	0	0	336
EXTAP	24	336	7
EXSTR	25	48	1
NMSUR	25	48	1	96	240	4
EXTAP	25	48	5
NMHLD	26	0	5	192
NMTAP	26	192	4
NMTAP	26	288	5
NMTAP	27	0	3
NMTAP	27	96	4
NMTAP	27	192	2
NMTAP	27	192	3
NMTAP	27	288	1
NMTAP	27	288	4
NMHLD	28	0	1	96
NMHLD	28	96	2	96
NMHLD	28	192	3	96
NMTAP	28	288	4
NMTAP	29	0	3
NMTAP	29	96	3
NMTAP	29	192	4
NMTAP	29	192	5
NMTAP	29	288	3
NMTAP	29	288	6
NMHLD	30	0	6	192
NMTAP	30	96	4
NMHLD	30	192	3	192
NMTAP	30	288	4
NMHLD	31	0	5	192
NMTAP	31	96	4
NMHLD	31	192	2	192
NMSTR	31	288	3
NMSXL	31	288	3	96	288	7
NMTAP	33	0	0
NMTAP	33	0	1
NMTAP	33	96	6
NMTAP	33	96	7
NMTAP	33	192	0
NMTAP	33	240	0
NMTAP	33	288	7
NMTAP	34	0	1
NMTAP	34	0	5
NMTAP	34	96	2
NMTAP	34	144	2
NMTAP	34	192	3
NMTAP	34	240	3
NMTAP	34	288	1
NMTAP	34	336	1
NMTAP	35	0	7
NMTAP	35	48	7
NMTAP	35	96	0
NMTAP	35	144	0
NMTAP	35	192	6
NMTAP	35	240	6
EXTAP	35	288	4
EXTAP	35	288	5
NMTAP	36	0	2
NMTAP	36	0	6
NMTAP	36	96	5
NMTAP	36	144	5
NMTAP	36	192	4
NMTAP	36	240	4
NMTAP	36	288	6
NMTAP	36	336	6
NMTAP	37	0	0
NMTAP	37	48	0
NMTAP	37	96	7
NMTAP	37	144	7
NMTAP	37	192	1
NMTAP	37	240	1
EXTAP	37	288	2
EXTAP	37	288	3
NMHLD	38	0	1	96
NMHLD	38	0	5	96
NMHLD	38	144	0	96
NMHLD	38	144	6	96
NMSTR	38	288	7
NMSI_	38	288	7	96	48	3
EXTAP	39	96	2
NMTAP	39	192	1
NMTAP	39	192	3
NMTAP	39	288	4
NMTAP	39	288	6
NMHLD	40	0	3	288
NMHLD	40	0	7	288
EXTAP	40	336	3
EXTAP	40	336	7
EXTAP	41	48	1
EXTAP	41	48	5
EXTAP	41	96	1
EXTAP	41	96	5
NMSTR	41	192	2
NMSI_	41	192	2	96	48	7
NMSTR	41	192	6
NMSI_	41	192	6	96	48	3
BXTAP	42	0	0
NMSTR	42	96	1
NMSI_	42	96	1	96	48	4
NMSTR	42	192	5
NMSI_	42	192	5	96	48	0
EXTAP	42	288	3
NMTAP	43	0	2
NMTAP	43	96	0
NMTAP	43	96	1
NMTAP	43	192	2
NMTAP	43	192	3
NMTAP	43	288	4
NMTAP	43	288	5
NMSTR	44	0	6
NMSCR	44	0	6	96	96	1
NMSTR	44	192	2
NMSCR	44	192	2	96	96	5
NMTAP	45	0	6
NMTAP	45	96	6
NMTAP	45	96	7
NMTAP	45	192	4
NMTAP	45	192	5
NMTAP	45	288	3
NMTAP	45	288	6
NMHLD	46	0	2	96
NMTAP	46	96	3
NMHLD	46	192	5	96
NMSTR	46	288	4
NMSCL	46	288	4	96	144	6
NMTAP	47	192	5
NMTAP	47	288	4
NMTAP	47	288	5
NMHLD	48	0	6	96
NMTAP	48	96	7
NMTAP	48	192	4
NMTAP	48	192	5
NMTAP	48	288	2
NMTAP	48	288	6
NMHLD	49	0	1	96
NMTAP	49	96	0
NMTAP	49	192	2
NMTAP	49	192	3
NMTAP	49	288	1
NMTAP	49	288	5
NMSTR	50	0	6
NMSI_	50	0	6	96	48	3
NMTAP	50	96	2
NMTAP	50	192	1
NMTAP	50	288	0
NMTAP	50	288	1
NMSTR	51	0	1
NMSI_	51	0	1	96	48	4
NMTAP	51	96	5
NMTAP	51	192	6
NMTAP	51	288	6
NMTAP	51	288	7
NMSTR	52	0	0
NMSCR	52	0	0	96	48	3
NMTAP	52	96	5
NMSTR	52	192	7
NMSCL	52	192	7	96	48	4
NMTAP	52	288	2
NMSTR	53	0	0
NMSV_	53	0	0	96	48	3
NMSV_	53	0	0	96	48	5
BXTAP	53	192	1
BXTAP	53	192	7
NMHLD	54	0	6	288
NMTAP	54	96	4
NMTAP	54	192	5
NMTAP	54	288	7
NMTAP	55	0	5
NMTAP	55	96	3
NMTAP	55	192	4
NMTAP	55	192	5
NMTAP	55	288	2
NMTAP	55	288	6
NMHLD	56	0	1	288
NMTAP	56	96	3
NMTAP	56	192	2
NMTAP	56	288	0
NMTAP	57	0	2
NMTAP	57	96	4
NMTAP	57	192	2
NMTAP	57	192	3
NMTAP	57	288	1
NMTAP	57	288	5
NMTAP	58	0	0
NMSTR	58	0	6
NMSXL	58	0	6	96	240	3
EXTAP	59	0	0
EXTAP	59	0	1
EXTAP	59	96	2
EXTAP	59	96	3
EXTAP	59	192	4
EXTAP	59	192	5
EXTAP	59	288	6
EXTAP	59	288	7
BRTAP	60	0	0
BRTAP	60	0	4
NMTAP	60	96	5
NMTAP	60	192	7
NMSTR	60	288	1
NMSLR	60	288	1	96	144	7
EXTAP	60	336	1
NMTAP	61	192	5
NMTAP	61	288	4
NMTAP	61	288	5
NMHLD	62	0	6	96
NMTAP	62	96	7
NMHLD	62	192	1	96
NMSTR	62	288	0
NMSI_	62	288	0	96	96	4
EXTAP	62	336	0
CNSI_	63	96	4	0	48	6
NMTAP	63	192	7
NMTAP	63	288	0
NMTAP	63	288	6
NMHLD	64	0	1	96
NMHLD	64	96	2	96
NMHLD	64	192	3	96
NMHLD	64	288	4	96
NMHLD	65	0	5	96
NMHLD	65	96	6	96
NMHLD	65	192	7	96
NMHLD	65	288	0	96
NMTHO	66	0	0	336	C	1	M1
NMHLD	68	0	4	3072
NMTTP	69	0	4	E	0	M1
NMTTP	70	0	5	E	0	M1
NMTTP	71	0	6	E	0	M1
NMTTP	72	0	7	E	0	M1
NMTTP	73	0	0	E	0	M1
NMTTP	74	0	1	E	0	M1
NMTTP	75	0	2	E	0	M1
NMTAP	76	0	3
NMTAP	76	96	3
NMTAP	76	192	2
NMTAP	76	288	2
NMTAP	76	288	3
NMTAP	77	0	4
NMTAP	77	96	4
NMTAP	77	192	5
NMTAP	77	288	4
NMTAP	77	288	5
NMTAP	78	0	6
NMTAP	78	96	6
NMTAP	78	96	7
NMTAP	78	192	1
NMTAP	78	288	0
NMTAP	78	288	1
NMSTR	79	0	2
NMSXL	79	0	2	96	192	3
NMSLL	79	0	2	96	192	3
BXTAP	80	0	1
BXTAP	80	0	5
NMTAP	80	96	2
NMTAP	80	144	2
NMTAP	80	192	3
NMTAP	80	240	3
NMTAP	80	288	1
NMTAP	80	336	1
NMTAP	81	0	7
NMTAP	81	48	7
NMTAP	81	96	0
NMTAP	81	144	0
NMTAP	81	192	6
NMTAP	81	240	6
EXTAP	81	288	4
EXTAP	81	288	5
BRTAP	82	0	2
BRTAP	82	0	6
NMTAP	82	96	5
NMTAP	82	144	5
NMTAP	82	192	4
NMTAP	82	240	4
NMTAP	82	288	6
NMTAP	82	336	6
NMTAP	83	0	0
NMTAP	83	48	0
NMTAP	83	96	7
NMTAP	83	144	7
NMTAP	83	192	1
NMTAP	83	240	1
NMTAP	83	288	3
NMTAP	83	336	3
NMTAP	84	0	2
NMTAP	84	48	2
NMTAP	84	96	6
NMTAP	84	144	6
NMTAP	84	192	4
NMTAP	84	240	4
NMTAP	84	288	7
NMTAP	84	336	7
BXTAP	85	0	0
BXTAP	85	0	6
NMTAP	85	96	1
NMTAP	85	96	5
NMTAP	85	192	2
NMTAP	85	240	2
NMTAP	85	288	3
NMTAP	86	0	4
NMTAP	86	0	5
NMHLD	86	96	2	96
NMSTR	86	96	3
NMSI_	86	96	3	96	48	7
NMTAP	86	288	0
NMTAP	87	0	3
NMTAP	87	0	4
NMTAP	87	96	6
NMTAP	87	96	7
NMTAP	87	192	0
NMTAP	87	192	5
NMTAP	87	288	2
NMTAP	87	288	3
NMTAP	88	0	0
NMTAP	88	0	7
NMTAP	88	96	4
NMTAP	88	96	5
NMSTR	88	192	3
NMSCL	88	192	3	96	48	0
NMTAP	88	192	6
NMTAP	89	0	6
NMTAP	89	96	6
NMTAP	89	96	7
NMTAP	89	192	5
NMTAP	89	240	5
NMTAP	89	288	4
NMTAP	90	0	2
NMTAP	90	0	3
NMSTR	90	96	4
NMSI_	90	96	4	96	48	0
NMHLD	90	96	5	96
NMTAP	90	288	7
NMTAP	91	0	3
NMTAP	91	0	4
NMTAP	91	96	0
NMTAP	91	96	1
NMTAP	91	192	2
NMTAP	91	192	7
NMTAP	91	288	4
NMTAP	91	288	5
NMTAP	92	0	0
NMTAP	92	0	7
NMTAP	92	96	2
NMTAP	92	96	3
NMTAP	92	192	1
NMSTR	92	192	4
NMSCR	92	192	4	96	48	7
EXTAP	93	0	0
NMTAP	93	96	1
NMTAP	93	144	1
NMTAP	93	192	0
NMTAP	93	288	6
NMTAP	93	336	6
NMTAP	94	0	7
NMTAP	94	96	0
NMTAP	94	144	0
NMTAP	94	192	7
NMTAP	94	288	2
NMTAP	94	336	2
NMTAP	95	0	1
NMTAP	95	0	3
NMTAP	95	96	5
NMTAP	95	144	5
NMTAP	95	192	4
NMTAP	95	192	6
NMTAP	95	288	1
NMTAP	95	336	1
NMTAP	96	0	0
NMTAP	96	0	1
NMTAP	96	96	6
NMTAP	96	144	6
NMSTR	96	192	6
NMSI_	96	192	6	96	48	2
NMTAP	96	192	7
EXTAP	96	288	0
NMHLD	97	0	1	288
NMTAP	97	96	3
NMTAP	97	192	2
NMTAP	97	288	0
NMTAP	98	0	2
NMTAP	98	0	3
NMTAP	98	96	1
NMTAP	98	96	3
NMTAP	98	192	4
NMTAP	98	192	6
NMTAP	98	288	4
NMTAP	98	288	5
NMHLD	99	0	6	288
NMTAP	99	96	4
NMTAP	99	192	5
NMTAP	99	288	7
NMTAP	100	0	4
NMTAP	100	0	5
NMTAP	100	96	3
NMTAP	100	96	6
NMTAP	100	192	1
NMTAP	100	192	4
NMSTR	100	288	2
NMSXR	100	288	2	96	288	4
NMTAP	100	288	3
EXTAP	102	0	6
EXTAP	102	0	7
EXTAP	102	96	0
EXSTR	102	96	1
NMSI_	102	96	1	96	48	4
EXSTR	102	192	5
NMSI_	102	192	5	96	48	0
EXSTR	102	288	1
NMSCR	102	288	1	96	288	7
BXHLD	104	0	0	192
NMTAP	104	96	7
NMTAP	104	192	5
NMTAP	104	288	4
NMTAP	104	288	6
NMTAP	105	0	2
NMTAP	105	96	1
NMTAP	105	96	3
NMHLD	105	192	0	96
NMTAP	105	288	7
NMSTR	106	0	2
NMSCR	106	0	2	96	96	5
NMSTR	106	192	6
NMSI_	106	192	6	96	96	2
NMSTR	107	0	1
NMSCL	107	0	1	96	96	6
NMTAP	107	192	4
NMTAP	107	288	4
NMTAP	108	0	2
NMTAP	108	96	1
NMTAP	108	96	3
NMTAP	108	192	2
NMTAP	108	288	2
NMTAP	108	288	3
NMTAP	109	0	5
NMTAP	109	96	4
NMTAP	109	96	5
NMTAP	109	192	5
NMTAP	109	288	4
NMTAP	109	288	6
NMHLD	110	0	1	96
NMHLD	110	0	3	96
NMHLD	110	144	4	96
NMHLD	110	144	5	96
NMHLD	110	288	2	96
NMHLD	110	288	3	96
NMHLD	111	48	4	96
NMHLD	111	48	6	96
EXTAP	111	192	3
EXTAP	111	192	7
EXTAP	111	240	3
EXTAP	111	240	7
NMSTR	112	0	4
NMSCR	112	0	4	96	1056	3

T_REC_TAP	349
T_REC_BRK	6
T_REC_XTP	48
T_REC_BXX	7
T_REC_HLD	64
T_REC_XHO	0
T_REC_BHO	0
T_REC_BXH	1
T_REC_STR	33
T_REC_BST	0
T_REC_XST	4
T_REC_XBS	0
T_REC_TTP	10
T_REC_THO	1
T_REC_SLD	39
T_REC_BSL	0
T_REC_ALL	562
T_NUM_TAP	444
T_NUM_BRK	14
T_NUM_HLD	65
T_NUM_SLD	39
T_NUM_ALL	562
T_JUDGE_TAP	457
T_JUDGE_HLD	258
T_JUDGE_SLD	39
T_JUDGE_ALL	754
TTM_EACHPAIRS	123
TTM_SCR_TAP	222000
TTM_SCR_BRK	36400
TTM_SCR_HLD	65000
TTM_SCR_SLD	58500
TTM_SCR_ALL	381900
TTM_SCR_S	369100
TTM_SCR_SS	380500
TTM_RAT_ACV	10036

