VERSION	0.00.00	1.04.00
FES_MODE	0
BPM_DEF	141.000	141.000	141.000	141.000
MET_DEF	4	4
RESOLUTION	384
CLK_DEF	384
COMPATIBLE_CODE	MA2

BPM	0	0	141.000
MET	0	0	4	4

BRTAP	1	0	0
BRTAP	1	0	6
NMTAP	1	96	2
NMTAP	1	96	4
NMTAP	1	192	2
NMTAP	1	192	4
EXTAP	1	288	3
EXTAP	1	312	3
EXTAP	1	336	3
EXTAP	1	360	3
EXTAP	2	0	3
NMTAP	2	96	2
NMTAP	2	96	4
NMTAP	2	192	2
NMTAP	2	192	4
NMTAP	2	288	2
NMTAP	2	336	3
NMTAP	3	0	4
NMTAP	3	96	3
NMTAP	3	96	5
NMTAP	3	192	3
NMTAP	3	192	5
EXTAP	3	288	4
EXTAP	3	312	4
EXTAP	3	336	4
EXTAP	3	360	4
EXTAP	4	0	4
NMTAP	4	96	3
NMTAP	4	96	5
NMTAP	4	192	3
NMTAP	4	192	5
NMTAP	4	288	3
NMTAP	4	288	5
NMTAP	4	336	6
BRTAP	5	0	1
BRTAP	5	0	7
NMTAP	5	96	3
NMTAP	5	96	5
NMTAP	5	192	3
NMTAP	5	192	5
NMTAP	5	288	4
NMTAP	5	312	4
NMTAP	5	336	4
NMTAP	5	360	4
NMTAP	6	0	4
NMTAP	6	96	3
NMTAP	6	96	5
NMTAP	6	192	3
NMTAP	6	192	5
NMTAP	6	288	5
NMTAP	6	336	4
BRTAP	7	0	3
NMTAP	7	96	2
NMTAP	7	96	4
NMTAP	7	192	2
NMTAP	7	192	4
NMTAP	7	288	3
NMTAP	7	312	3
NMTAP	7	336	3
NMTAP	7	360	3
NMSTR	8	0	3
NMSCL	8	0	3	96	144	5
NMTAP	8	96	4
NMSTR	8	192	4
NMSI_	8	192	4	96	48	7
EXTAP	8	288	4
NMTAP	9	0	0
NMTAP	9	0	6
NMTAP	9	48	5
NMTAP	9	72	4
NMTAP	9	120	4
NMTAP	9	144	6
NMTAP	9	192	1
NMTAP	9	192	7
NMTAP	9	240	2
NMTAP	9	264	3
NMTAP	9	312	3
NMTAP	9	336	1
NMTAP	10	0	0
NMTAP	10	0	6
NMTAP	10	48	5
NMTAP	10	72	4
NMTAP	10	120	4
NMTAP	10	144	6
NMHLD	10	192	1	48
NMTAP	10	192	7
NMTAP	10	240	3
NMHLD	10	288	5	48
NMTAP	10	336	3
NMTAP	11	0	1
NMTAP	11	0	7
NMTAP	11	48	2
NMTAP	11	72	3
NMTAP	11	120	3
NMTAP	11	144	1
NMTAP	11	192	0
NMTAP	11	192	6
NMTAP	11	240	5
NMTAP	11	264	4
NMTAP	11	312	4
NMTAP	11	336	6
NMTAP	12	0	1
NMTAP	12	0	7
NMTAP	12	48	2
NMTAP	12	72	3
NMTAP	12	120	3
NMTAP	12	144	1
NMTAP	12	192	0
NMHLD	12	192	6	48
NMTAP	12	240	4
NMHLD	12	288	2	48
NMTAP	12	336	4
NMTAP	13	0	3
NMTAP	13	0	5
NMTAP	13	48	6
NMTAP	13	72	7
NMTAP	13	120	7
NMTAP	13	144	5
NMTAP	13	192	2
NMTAP	13	192	4
NMTAP	13	240	1
NMTAP	13	264	0
NMTAP	13	312	0
NMTAP	13	336	2
NMTAP	14	0	3
NMTAP	14	0	5
NMTAP	14	48	6
NMTAP	14	72	7
NMTAP	14	120	7
NMTAP	14	144	5
NMHLD	14	192	1	48
NMTAP	14	192	4
NMTAP	14	240	3
NMHLD	14	288	6	48
NMTAP	14	336	0
NMTAP	15	0	2
NMTAP	15	0	4
NMTAP	15	48	1
NMTAP	15	72	0
NMTAP	15	120	0
NMTAP	15	144	2
NMTAP	15	192	3
NMTAP	15	192	5
NMTAP	15	240	6
NMTAP	15	264	7
NMTAP	15	312	7
NMTAP	15	336	5
NMTAP	16	0	2
NMTAP	16	0	4
NMTAP	16	48	1
NMTAP	16	72	0
NMTAP	16	120	0
NMTAP	16	144	2
NMTAP	16	192	3
NMTAP	16	192	5
NMTAP	16	224	3
NMTAP	16	224	5
NMTAP	16	256	3
NMTAP	16	256	5
NMTAP	16	288	2
NMTAP	16	288	4
NMTAP	16	320	2
NMTAP	16	320	4
NMTAP	16	352	2
NMTAP	16	352	4
NMHLD	17	0	1	672
NMTAP	17	0	5
NMTAP	17	96	3
NMTAP	17	192	3
NMTAP	17	288	3
NMTAP	18	0	3
NMSTR	18	96	3
NMSXR	18	96	3	96	144	4
NMTAP	19	0	2
NMHLD	19	0	6	576
NMTAP	19	96	4
NMTAP	19	192	4
NMSTR	19	288	3
NMSUR	19	288	3	96	96	4
CNSCR	20	96	4	0	96	2
NMTAP	20	288	3
NMTAP	20	288	5
NMTAP	21	0	4
NMTAP	21	48	5
NMHLD	21	96	0	72
NMTAP	21	96	6
NMTAP	21	168	3
NMTAP	21	192	3
NMTAP	21	240	2
NMTAP	21	288	1
NMHLD	21	288	7	72
NMTAP	21	360	4
NMTAP	22	0	4
NMTAP	22	48	5
NMHLD	22	96	0	72
NMTAP	22	96	6
NMTAP	22	168	3
NMTAP	22	192	3
NMTAP	22	240	2
NMTAP	22	288	1
NMHLD	22	288	5	72
NMTAP	22	360	4
NMTAP	23	0	4
NMTAP	23	48	5
NMHLD	23	96	0	72
NMTAP	23	96	6
NMTAP	23	168	3
NMTAP	23	192	3
NMTAP	23	240	2
NMTAP	23	288	1
NMHLD	23	288	7	72
NMTAP	23	360	4
NMSTR	24	0	4
NMSI_	24	0	4	96	48	0
NMTAP	24	96	4
NMSTR	24	96	5
NMSI_	24	96	5	96	48	1
NMSTR	24	192	0
NMSI_	24	192	0	96	48	4
NMTAP	24	192	5
NMTAP	24	288	0
BRTAP	24	288	7
NMTAP	25	0	6
NMHLD	25	48	6	48
NMTAP	25	96	4
NMHLD	25	144	4	48
NMTAP	25	192	7
NMHLD	25	240	7	48
NMTAP	25	288	2
NMTAP	25	336	2
NMTAP	25	360	3
NMTAP	26	0	1
NMHLD	26	48	1	48
NMTAP	26	96	7
NMHLD	26	144	7	48
NMTAP	26	192	4
NMTAP	26	240	4
NMSTR	26	288	2
NMSI_	26	288	2	96	48	0
NMSTR	26	288	6
NMSV_	26	288	6	96	48	3
NMTAP	27	0	2
NMTAP	27	0	6
NMTAP	27	96	0
NMHLD	27	144	0	48
NMTAP	27	192	3
NMTAP	27	240	3
NMSTR	27	288	1
NMSXL	27	288	1	96	48	3
NMSTR	27	288	5
NMSCR	27	288	5	96	48	7
NMTAP	28	0	1
NMTAP	28	0	5
NMSTR	28	96	2
NMSCL	28	96	2	96	48	0
NMSTR	28	96	6
NMSXR	28	96	6	96	48	4
NMTAP	28	192	2
NMTAP	28	192	6
NMSTR	28	288	1
NMSI_	28	288	1	96	48	6
NMSTR	28	288	5
NMSCL	28	288	5	96	48	2
NMTAP	29	0	1
NMTAP	29	0	5
NMTAP	29	96	3
NMHLD	29	144	3	48
NMTAP	29	192	0
NMHLD	29	240	0	48
NMTAP	29	288	5
NMTAP	29	336	5
NMTAP	29	360	4
NMTAP	30	0	6
NMHLD	30	48	6	48
NMTAP	30	96	0
NMHLD	30	144	0	48
NMTAP	30	192	3
NMTAP	30	240	3
NMSTR	30	288	1
NMSV_	30	288	1	96	48	4
NMSTR	30	288	5
NMSI_	30	288	5	96	48	7
NMTAP	31	0	1
NMTAP	31	0	5
NMTAP	31	96	6
NMHLD	31	144	6	48
NMTAP	31	192	2
NMHLD	31	240	2	48
NMSTR	31	288	3
NMSI_	31	288	3	96	48	0
NMSTR	32	0	3
NMSI_	32	0	3	96	48	6
NMTAP	32	0	5
NMTAP	32	96	1
NMSTR	32	96	3
NMSI_	32	96	3	96	48	0
NMTAP	32	192	3
NMTAP	32	192	7
BRTAP	32	288	1
BRTAP	32	288	6
NMSTR	33	0	0
NMSCR	33	0	0	96	96	5
NMTAP	33	48	0
NMTAP	33	96	5
NMTAP	33	144	6
NMTAP	33	192	7
NMTAP	33	240	7
NMTAP	33	264	0
NMTAP	33	312	2
NMTAP	33	336	3
NMSTR	34	0	7
NMSCL	34	0	7	96	96	3
NMTAP	34	48	7
NMTAP	34	96	2
NMTAP	34	144	1
NMTAP	34	192	0
NMTAP	34	240	0
NMTAP	34	264	7
NMTAP	34	312	5
NMTAP	34	336	4
NMSTR	35	0	2
NMSCL	35	0	2	96	96	6
NMTAP	35	48	2
NMTAP	35	96	6
NMTAP	35	144	5
NMTAP	35	192	4
NMTAP	35	240	1
NMTAP	35	264	3
NMTAP	35	312	6
NMTAP	35	336	4
NMSTR	36	0	5
NMSCR	36	0	5	96	96	1
NMTAP	36	48	5
NMTAP	36	96	1
NMTAP	36	144	2
NMSTR	36	192	3
NMSI_	36	192	3	96	48	0
NMSI_	36	192	3	96	48	6
EXTAP	36	288	3
NMSTR	37	0	7
NMSCL	37	0	7	96	96	2
NMTAP	37	48	7
NMTAP	37	96	2
NMTAP	37	144	1
NMTAP	37	192	0
NMTAP	37	240	0
NMTAP	37	264	7
NMTAP	37	312	5
NMTAP	37	336	4
NMSTR	38	0	0
NMSCR	38	0	0	96	96	4
NMTAP	38	48	0
NMTAP	38	96	5
NMTAP	38	144	6
NMTAP	38	192	7
NMTAP	38	240	7
NMTAP	38	264	0
NMTAP	38	312	2
NMTAP	38	336	3
NMSTR	39	0	5
NMSCR	39	0	5	96	96	1
NMTAP	39	48	5
NMTAP	39	96	1
NMTAP	39	144	2
NMTAP	39	192	3
NMTAP	39	240	6
NMTAP	39	264	4
NMTAP	39	312	1
NMTAP	39	336	3
NMSTR	40	0	2
NMSCL	40	0	2	96	96	6
NMTAP	40	48	2
NMTAP	40	96	6
NMTAP	40	144	5
NMTAP	40	192	4
NMTAP	40	288	2
NMTAP	40	288	6
NMTAP	40	336	7
NMSTR	41	0	1
NMSI_	41	0	1	96	48	7
NMTAP	41	48	1
NMSTR	41	96	1
NMSI_	41	96	1	96	48	3
NMTAP	41	96	4
NMTAP	41	144	5
NMTAP	41	192	6
NMTAP	41	240	7
NMTAP	41	264	7
NMTAP	41	288	4
NMTAP	41	312	5
NMHLD	41	336	3	48
NMSTR	42	0	6
NMSI_	42	0	6	96	48	0
NMTAP	42	48	6
NMTAP	42	96	3
NMSTR	42	96	6
NMSI_	42	96	6	96	48	4
NMTAP	42	144	2
NMTAP	42	192	1
NMTAP	42	240	0
NMTAP	42	264	0
NMTAP	42	288	3
NMTAP	42	312	2
NMHLD	42	336	4	48
NMSTR	43	0	0
NMSI_	43	0	0	96	48	2
NMTAP	43	48	0
NMSTR	43	96	0
NMSI_	43	96	0	96	48	4
NMTAP	43	96	4
NMTAP	43	144	5
NMTAP	43	192	6
NMTAP	43	240	7
NMTAP	43	264	7
NMTAP	43	288	4
NMTAP	43	312	5
NMHLD	43	336	3	48
NMSTR	44	0	6
NMSI_	44	0	6	96	48	0
NMTAP	44	48	6
NMSTR	44	96	2
NMSUL	44	96	2	96	48	6
NMTAP	44	144	2
NMTAP	44	192	4
NMTAP	44	288	3
NMTAP	44	288	5
NMTAP	44	336	3
NMTAP	44	336	5
NMSTR	45	0	6
NMSI_	45	0	6	96	48	0
NMTAP	45	48	6
NMTAP	45	96	3
NMSTR	45	96	6
NMSI_	45	96	6	96	48	4
NMTAP	45	144	2
NMTAP	45	192	1
NMTAP	45	240	0
NMTAP	45	264	0
NMTAP	45	288	3
NMTAP	45	312	2
NMHLD	45	336	4	48
NMSTR	46	0	1
NMSI_	46	0	1	96	48	7
NMTAP	46	48	1
NMSTR	46	96	1
NMSI_	46	96	1	96	48	3
NMTAP	46	96	4
NMTAP	46	144	5
NMTAP	46	192	6
NMTAP	46	240	7
NMTAP	46	264	7
NMTAP	46	288	4
NMTAP	46	312	5
NMHLD	46	336	3	48
NMSTR	47	0	7
NMSI_	47	0	7	96	48	5
NMTAP	47	48	7
NMTAP	47	96	3
NMSTR	47	96	7
NMSI_	47	96	7	96	48	3
NMTAP	47	144	2
NMTAP	47	192	1
NMTAP	47	240	0
NMTAP	47	264	0
NMTAP	47	288	3
NMTAP	47	312	2
NMTAP	47	336	4
NMSTR	48	0	0
NMSI_	48	0	0	96	48	4
NMSTR	48	48	7
BRSI_	48	48	7	96	48	3
NMTAP	48	96	0
NMTAP	48	144	7
BRTAP	48	192	1
EXSTR	48	264	3
NMSI_	48	264	3	96	72	0
EXTAP	48	264	5
EXTAP	48	336	7
BXTAP	49	0	7
NMTAP	49	144	0
NMTAP	49	168	0
NMTAP	49	192	7
NMTAP	49	288	3
NMTAP	49	288	5
NMTAP	49	336	4
NMTAP	49	360	4
NMTAP	50	0	3
NMTAP	50	48	2
NMTAP	50	144	1
NMTAP	50	168	1
NMTAP	50	192	7
NMTAP	50	288	2
NMTAP	50	288	4
NMTAP	50	336	3
NMTAP	50	360	3
NMSTR	51	0	3
NMSI_	51	0	3	96	48	0
NMTAP	51	144	7
NMTAP	51	168	7
NMTAP	51	192	0
NMTAP	51	288	2
NMTAP	51	336	1
NMTAP	51	360	1
NMTAP	52	0	3
NMTAP	52	48	4
NMTAP	52	144	5
NMTAP	52	168	5
NMTAP	52	192	4
NMTAP	52	264	2
NMTAP	52	264	3
NMTAP	52	336	1
NMTAP	52	360	3
BRTAP	53	0	0
NMTAP	53	96	3
NMTAP	53	96	5
NMTAP	53	144	4
NMTAP	53	168	4
NMSTR	53	192	4
NMSI_	53	192	4	96	48	7
NMTAP	53	336	0
NMTAP	53	360	0
NMTAP	54	0	7
NMTAP	54	48	6
NMTAP	54	144	5
NMTAP	54	168	5
NMTAP	54	192	3
NMTAP	54	288	2
NMTAP	54	288	4
NMTAP	54	336	3
NMTAP	54	360	3
NMSTR	55	0	3
NMSI_	55	0	3	96	48	0
NMTAP	55	144	6
NMTAP	55	168	6
NMHLD	55	192	7	96
NMHLD	55	288	0	96
NMTAP	56	0	1
NMTAP	56	48	0
NMTAP	56	48	1
NMTAP	56	144	2
NMTAP	56	168	2
NMTAP	56	192	3
NMTAP	56	240	5
NMTAP	56	264	5
NMTAP	56	288	4
NMTAP	56	336	0
NMTAP	56	360	0
NMHLD	57	0	7	288
NMTTP	57	48	0	E	0	M1
NMTTP	57	96	7	E	0	M1
NMTTP	57	144	6	E	0	M1
NMTTP	57	192	5	E	0	M1
NMTAP	57	288	2
NMTAP	57	336	1
NMHLD	58	0	0	288
NMTTP	58	48	0	E	0	M1
NMTTP	58	96	1	E	0	M1
NMTTP	58	144	2	E	0	M1
NMTTP	58	192	3	E	0	M1
NMTAP	58	288	3
NMTAP	58	336	3
NMHLD	59	0	4	288
NMTTP	59	48	3	E	0	M1
NMTTP	59	96	4	E	0	M1
NMTTP	59	144	5	E	0	M1
NMTTP	59	192	6	E	0	M1
NMTAP	59	288	1
NMTAP	59	336	2
NMHLD	60	0	3	288
NMTTP	60	48	5	E	0	M1
NMTTP	60	96	4	E	0	M1
NMTTP	60	144	3	E	0	M1
NMTTP	60	192	2	E	0	M1
NMSTR	60	288	7
NMSCL	60	288	7	96	192	2
NMTAP	60	336	7
NMTTP	61	0	4	E	0	M1
NMTTP	61	48	5	E	0	M1
NMTTP	61	96	6	E	0	M1
NMTTP	61	144	7	E	0	M1
NMTTP	61	192	0	E	0	M1
NMSTR	61	288	0
NMSCR	61	288	0	96	192	5
NMTAP	61	336	0
NMTTP	62	0	4	E	0	M1
NMTTP	62	48	3	E	0	M1
NMTTP	62	96	2	E	0	M1
NMTTP	62	144	1	E	0	M1
NMTTP	62	192	0	E	0	M1
EXTAP	62	288	1
EXTAP	62	288	6
NMTAP	63	0	0
NMTAP	63	0	7
NMTAP	63	48	0
NMTAP	63	48	7
NMTAP	63	96	1
NMTAP	63	96	6
NMTAP	63	144	1
NMTAP	63	144	6
NMTAP	63	192	2
NMTAP	63	192	5
NMTAP	63	240	2
NMTAP	63	240	5
NMTAP	63	288	3
NMSTR	63	288	4
NMSV_	63	288	4	96	72	7
NMTAP	63	336	3
NMTAP	63	336	4
NMSTR	64	0	3
NMSCR	64	0	3	96	48	6
NMTAP	64	0	4
CNSCR	64	72	7	0	72	2
NMTTP	64	288	2	B	0	M1
NMTTP	64	288	2	E	0	M1
NMTTP	64	288	2	A	0	M1
NMTTP	64	288	3	B	0	M1
NMTTP	64	288	3	E	0	M1
NMTTP	64	288	4	B	0	M1
NMTTP	64	288	4	E	1	M1
NMTTP	64	288	5	B	0	M1
NMTTP	64	288	5	E	0	M1
NMTTP	64	288	5	A	0	M1
NMTTP	64	288	6	E	0	M1
NMSTR	65	0	0
NMSCR	65	0	0	96	48	2
NMTAP	65	48	0
NMSTR	65	96	0
NMSCL	65	96	0	96	48	6
NMTAP	65	96	5
NMTAP	65	144	4
NMTAP	65	192	3
NMTAP	65	240	4
NMTAP	65	264	4
NMTAP	65	288	2
NMTAP	65	312	3
NMHLD	65	336	1	48
NMSTR	66	0	7
NMSCL	66	0	7	96	48	5
NMTAP	66	48	7
NMTAP	66	96	2
NMSTR	66	96	7
NMSCR	66	96	7	96	48	1
NMTAP	66	144	3
NMTAP	66	192	4
NMTAP	66	240	3
NMTAP	66	264	3
NMTAP	66	288	5
NMTAP	66	312	4
NMHLD	66	336	6	48
NMSTR	67	0	2
NMSCR	67	0	2	96	48	4
NMTAP	67	48	2
NMSTR	67	96	2
NMSCL	67	96	2	96	48	0
NMTAP	67	96	7
NMTAP	67	144	6
NMTAP	67	192	5
NMTAP	67	240	4
NMTAP	67	264	4
NMTAP	67	288	2
NMTAP	67	312	3
NMHLD	67	336	1	48
NMSTR	68	0	5
NMSCL	68	0	5	96	48	3
NMTAP	68	48	5
NMTAP	68	96	0
NMSTR	68	96	5
NMSCR	68	96	5	96	48	7
NMTAP	68	144	1
NMTAP	68	192	2
NMTAP	68	288	1
NMTAP	68	288	6
NMSTR	69	0	7
NMSCL	69	0	7	96	48	4
NMTAP	69	48	7
NMTAP	69	96	2
NMSTR	69	96	7
NMSV_	69	96	7	96	48	2
NMTAP	69	144	3
NMTAP	69	192	4
NMTAP	69	240	3
NMTAP	69	264	3
NMTAP	69	288	5
NMTAP	69	312	4
NMHLD	69	336	6	48
NMSTR	70	0	0
NMSCR	70	0	0	96	48	3
NMTAP	70	48	0
NMSTR	70	96	0
NMSV_	70	96	0	96	48	5
NMTAP	70	96	5
NMTAP	70	144	4
NMTAP	70	192	3
NMTAP	70	240	4
NMTAP	70	264	4
NMTAP	70	288	2
NMTAP	70	312	3
NMHLD	70	336	1	48
NMSTR	71	0	5
NMSCL	71	0	5	96	48	3
NMTAP	71	48	5
NMTAP	71	96	0
NMSTR	71	96	5
NMSV_	71	96	5	96	48	0
NMTAP	71	144	1
NMTAP	71	192	2
NMTAP	71	240	3
NMTAP	71	264	3
NMTAP	71	288	5
NMTAP	71	312	4
NMHLD	71	336	6	48
NMSTR	72	0	2
NMSCR	72	0	2	96	48	4
NMTAP	72	48	2
NMTAP	72	96	7
NMTAP	72	144	7
BRTAP	72	192	0
BRTAP	72	192	6
NMSTR	72	288	6
NMSI_	72	288	6	96	48	3
NMSTR	72	288	7
NMSI_	72	288	7	96	48	2
NMTAP	73	0	6
NMTAP	73	0	7
NMSTR	73	96	0
NMSI_	73	96	0	96	48	5
NMTAP	73	96	1
NMTAP	73	192	0
NMTAP	73	192	3
NMTAP	73	240	4
NMSTR	73	288	6
NMSCL	73	288	6	96	48	3
NMSTR	73	288	7
NMSUL	73	288	7	96	48	2
NMTAP	74	0	6
NMTAP	74	0	7
NMSTR	74	96	0
NMSV_	74	96	0	96	48	3
NMTAP	74	96	1
NMTAP	74	192	0
NMTAP	74	192	2
NMTAP	74	240	2
NMSTR	74	288	0
NMSI_	74	288	0	96	48	5
NMSTR	74	288	1
NMSI_	74	288	1	96	48	4
NMTAP	75	0	0
NMTAP	75	0	1
NMTAP	75	96	6
NMSTR	75	96	7
NMSI_	75	96	7	96	48	2
NMTAP	75	192	4
NMTAP	75	192	7
NMTAP	75	240	3
NMSTR	75	288	0
NMSUR	75	288	0	96	48	5
NMSTR	75	288	1
NMSCR	75	288	1	96	48	4
NMTAP	76	0	0
NMTAP	76	0	1
NMTAP	76	96	6
NMSTR	76	96	7
NMSV_	76	96	7	96	48	4
NMTAP	76	192	5
NMTAP	76	192	7
NMTAP	76	240	5
NMTAP	76	288	6
NMTAP	76	288	7
NMTAP	76	336	0
NMTAP	76	336	7
NMTAP	77	0	0
NMTAP	77	0	1
NMTAP	77	96	1
NMTAP	77	96	3
NMTAP	77	144	2
NMTAP	77	192	4
NMTAP	77	192	6
NMTAP	77	240	5
NMTAP	77	264	5
NMTAP	77	288	4
NMTAP	77	336	3
NMTAP	78	0	0
NMTAP	78	0	2
NMTAP	78	48	1
NMTAP	78	96	5
NMTAP	78	96	7
NMTAP	78	144	6
NMTAP	78	192	0
NMTAP	78	192	2
NMTAP	78	240	1
NMTAP	78	264	1
NMTAP	78	288	0
NMTAP	78	336	7
NMTAP	79	0	4
NMTAP	79	0	6
NMTAP	79	48	3
NMTAP	79	48	4
NMTAP	79	96	1
NMTAP	79	96	3
NMTAP	79	144	0
NMTAP	79	144	7
BRTAP	79	192	4
BRTAP	79	192	6
BRTAP	79	240	3
BRTAP	79	240	4
BRTAP	79	288	1
BRTAP	79	288	3
BRTAP	79	336	0
BRTAP	79	336	7
NMSTR	80	96	2
NMSI_	80	96	2	96	48	0
NMSTR	80	96	4
NMSI_	80	96	4	96	48	6
BXTAP	80	192	2
BXTAP	80	192	4
NMTAP	80	288	7
NMTAP	80	312	7
NMTAP	80	336	7
NMTAP	80	360	7
BXSTR	81	0	1
BRSCR	81	0	1	96	480	0
BXHLD	81	0	5	1488
NMTTP	83	0	0	B	0	M1
NMTHO	83	0	0	720	C	0	M1
NMTTP	83	0	7	B	0	M1

T_REC_TAP	533
T_REC_BRK	20
T_REC_XTP	16
T_REC_BXX	3
T_REC_HLD	43
T_REC_XHO	0
T_REC_BHO	0
T_REC_BXH	1
T_REC_STR	81
T_REC_BST	0
T_REC_XST	1
T_REC_XBS	1
T_REC_TTP	39
T_REC_THO	1
T_REC_SLD	82
T_REC_BSL	2
T_REC_ALL	823
T_NUM_TAP	670
T_NUM_BRK	27
T_NUM_HLD	44
T_NUM_SLD	82
T_NUM_ALL	823
T_JUDGE_TAP	694
T_JUDGE_HLD	141
T_JUDGE_SLD	84
T_JUDGE_ALL	919
TTM_EACHPAIRS	134
TTM_SCR_TAP	335000
TTM_SCR_BRK	70200
TTM_SCR_HLD	44000
TTM_SCR_SLD	123000
TTM_SCR_ALL	572200
TTM_SCR_S	552450
TTM_SCR_SS	569500
TTM_RAT_ACV	10047

