VERSION	0.00.00	1.04.00
FES_MODE	0
BPM_DEF	141.000	141.000	141.000	141.000
MET_DEF	4	4
RESOLUTION	384
CLK_DEF	384
COMPATIBLE_CODE	MA2

BPM	0	0	141.000
MET	0	0	4	4

NMHLD	1	0	2	384
NMTAP	1	96	4
NMTAP	1	192	4
NMTAP	1	288	4
NMHLD	2	0	4	384
NMTAP	2	96	3
NMTAP	2	192	3
NMTAP	2	288	3
NMHLD	3	0	3	288
NMTAP	3	96	5
NMTAP	3	192	5
NMTAP	3	288	5
NMTAP	4	0	4
NMTAP	4	96	5
NMTAP	4	192	4
NMTAP	4	192	5
NMHLD	5	0	5	384
NMTAP	5	96	3
NMTAP	5	192	3
NMTAP	5	288	3
NMHLD	6	0	3	288
NMTAP	6	96	4
NMTAP	6	192	4
NMSTR	6	288	4
NMSCR	6	288	4	96	384	3
NMTAP	8	192	3
NMTAP	8	192	4
BRTAP	8	288	0
BRTAP	8	288	7
NMTAP	9	0	0
NMTAP	9	48	0
NMTAP	9	96	5
NMTAP	9	144	5
NMTAP	9	192	1
NMTAP	9	240	1
NMTAP	9	288	3
NMTAP	9	336	3
NMTAP	10	0	7
NMTAP	10	48	7
NMTAP	10	96	6
NMTAP	10	144	6
NMTAP	10	192	4
NMTAP	10	192	5
NMTAP	10	288	2
NMTAP	10	288	3
NMTAP	11	0	6
NMTAP	11	48	6
NMTAP	11	96	2
NMTAP	11	144	2
NMTAP	11	192	7
NMTAP	11	240	7
NMTAP	11	288	4
NMTAP	11	336	4
NMTAP	12	0	0
NMTAP	12	48	0
NMTAP	12	96	1
NMTAP	12	144	1
NMTAP	12	192	2
NMTAP	12	192	3
NMTAP	12	288	4
NMTAP	12	288	5
NMTAP	13	0	3
NMTAP	13	48	3
NMTAP	13	96	6
NMTAP	13	144	6
NMTAP	13	192	2
NMTAP	13	240	2
NMTAP	13	288	0
NMTAP	13	336	0
NMTAP	14	0	4
NMTAP	14	48	4
NMTAP	14	96	5
NMTAP	14	144	5
NMTAP	14	192	6
NMTAP	14	192	7
NMTAP	14	288	0
NMTAP	14	288	1
NMTAP	15	0	7
NMTAP	15	48	7
NMTAP	15	96	2
NMTAP	15	144	2
NMTAP	15	192	5
NMTAP	15	240	5
NMTAP	15	288	7
NMTAP	15	336	7
NMTAP	16	0	6
NMTAP	16	48	6
NMTAP	16	96	4
NMTAP	16	144	4
NMSTR	16	192	4
NMSI_	16	192	4	96	48	1
NMTAP	16	192	5
NMHLD	17	0	7	576
NMTTP	17	96	6	E	0	M1
NMTTP	17	192	5	E	0	M1
NMTTP	17	288	4	E	0	M1
NMTTP	18	0	4	B	0	M1
NMTTP	18	96	5	B	0	M1
NMTTP	18	192	6	B	0	M1
NMTAP	18	288	0
NMTAP	18	288	7
NMHLD	19	0	0	576
NMTTP	19	96	2	E	0	M1
NMTTP	19	192	3	E	0	M1
NMTTP	19	288	4	E	0	M1
NMTTP	20	0	3	B	0	M1
NMTTP	20	96	2	B	0	M1
NMTTP	20	192	1	B	0	M1
NMTAP	20	288	0
NMTAP	20	288	7
NMHLD	21	0	3	576
NMTTP	21	96	2	B	0	M1
NMTTP	21	192	1	B	0	M1
NMTTP	21	288	0	B	0	M1
NMTTP	22	0	1	E	0	M1
NMTTP	22	96	2	E	0	M1
NMTTP	22	192	3	E	0	M1
NMTAP	22	288	3
NMTAP	22	288	4
NMHLD	23	0	4	288
NMTTP	23	96	5	B	0	M1
NMTTP	23	192	6	B	0	M1
NMTTP	23	288	7	B	0	M1
NMTAP	24	0	0
NMTAP	24	0	1
NMTAP	24	96	6
NMTAP	24	96	7
NMTAP	24	192	0
NMTAP	24	192	7
BXTAP	24	288	1
BXTAP	24	288	6
NMSTR	25	0	0
NMSI_	25	0	0	96	48	3
NMSTR	25	192	0
NMSI_	25	192	0	96	48	5
NMSTR	26	0	0
NMSI_	26	0	0	96	48	2
NMSTR	26	192	0
NMSCL	26	192	0	96	96	4
NMTAP	27	0	3
NMTAP	27	48	3
NMTAP	27	96	3
NMTAP	27	96	4
NMTAP	27	192	2
NMTAP	27	192	3
NMTAP	27	288	2
NMTAP	27	288	3
NMSTR	28	0	1
NMSSR	28	0	1	96	192	5
NMTAP	29	0	6
NMTAP	29	48	6
NMTAP	29	96	5
NMTAP	29	96	6
NMTAP	29	192	0
NMTAP	29	192	7
NMTAP	29	288	0
NMTAP	29	288	7
NMSTR	30	0	1
NMSCR	30	0	1	96	96	4
NMSTR	30	192	5
NMSCR	30	192	5	96	96	0
NMTAP	31	0	1
NMTAP	31	48	1
NMTAP	31	96	0
NMTAP	31	96	1
NMTAP	31	192	2
NMTAP	31	192	3
NMTAP	31	288	2
NMTAP	31	288	3
NMTAP	32	0	4
NMTAP	32	0	6
NMTAP	32	96	1
NMTAP	32	96	3
NMTAP	32	192	3
NMTAP	32	192	4
BRTAP	32	288	1
BRTAP	32	288	6
NMTAP	33	0	0
NMTAP	33	48	0
NMTAP	33	96	4
NMTAP	33	144	5
NMTAP	33	192	3
NMHLD	33	192	6	96
NMTAP	33	288	4
NMTAP	33	336	4
NMTAP	34	0	7
NMTAP	34	48	7
NMTAP	34	96	3
NMTAP	34	144	2
NMHLD	34	192	1	96
NMTAP	34	192	4
NMTAP	34	288	3
NMTAP	34	336	3
NMTAP	35	0	0
NMTAP	35	48	0
NMTAP	35	96	5
NMTAP	35	144	6
NMTAP	35	192	4
NMHLD	35	192	7	96
NMTAP	35	288	5
NMTAP	35	336	5
NMTAP	36	0	6
NMTAP	36	48	6
NMTAP	36	96	2
NMTAP	36	144	1
NMTAP	36	192	0
NMTAP	36	192	3
NMTAP	36	288	6
NMTAP	36	336	6
NMTAP	37	0	2
NMTAP	37	48	2
NMTAP	37	96	4
NMTAP	37	144	5
NMTAP	37	192	3
NMHLD	37	192	6	96
NMTAP	37	288	4
NMTAP	37	336	4
NMTAP	38	0	7
NMTAP	38	48	7
NMTAP	38	96	3
NMTAP	38	144	2
NMHLD	38	192	1	96
NMTAP	38	192	4
NMTAP	38	288	3
NMTAP	38	336	3
NMTAP	39	0	2
NMTAP	39	48	2
NMTAP	39	96	1
NMTAP	39	96	3
NMTAP	39	192	5
NMTAP	39	240	5
NMTAP	39	288	4
NMTAP	39	288	6
NMTAP	40	0	0
NMTAP	40	0	1
NMTAP	40	96	6
NMTAP	40	96	7
BRTAP	40	192	1
BRTAP	40	192	6
NMTAP	41	0	4
NMTAP	41	0	6
NMTAP	41	48	7
NMTAP	41	96	0
NMTAP	41	144	1
NMTAP	41	192	2
NMTAP	41	192	3
NMTAP	41	288	2
NMTAP	41	336	2
NMTAP	42	0	1
NMTAP	42	0	3
NMTAP	42	48	0
NMTAP	42	96	7
NMTAP	42	144	6
NMTAP	42	192	4
NMTAP	42	192	5
NMTAP	42	288	1
NMTAP	42	336	1
NMTAP	43	0	0
NMTAP	43	0	2
NMTAP	43	48	3
NMTAP	43	96	4
NMTAP	43	144	5
NMTAP	43	192	6
NMTAP	43	192	7
NMTAP	43	288	6
NMTAP	43	336	6
NMTAP	44	0	5
NMTAP	44	0	7
NMTAP	44	48	4
NMTAP	44	96	3
NMTAP	44	144	2
NMTAP	44	192	0
NMTAP	44	192	1
NMTAP	44	288	5
NMTAP	44	336	5
NMTAP	45	0	4
NMTAP	45	0	6
NMTAP	45	48	7
NMTAP	45	96	0
NMTAP	45	144	1
NMTAP	45	192	2
NMTAP	45	192	3
NMTAP	45	288	2
NMTAP	45	336	2
NMTAP	46	0	1
NMTAP	46	0	3
NMTAP	46	48	0
NMTAP	46	96	7
NMTAP	46	144	6
NMTAP	46	192	4
NMTAP	46	192	5
NMTAP	46	288	3
NMTAP	46	336	2
NMHLD	47	0	1	96
NMHLD	47	96	3	96
NMHLD	47	192	5	96
NMTAP	47	288	7
NMTHO	48	0	0	192	C	1	M1
NMTTP	48	0	1	B	0	M1
NMTTP	48	0	2	B	0	M1
NMTTP	48	0	5	B	0	M1
NMTTP	48	0	6	B	0	M1
NMSTR	49	0	0
NMSCR	49	0	0	96	192	5
NMHLD	49	0	7	288
NMHLD	50	0	0	288
NMSTR	50	0	7
NMSCL	50	0	7	96	192	2
NMSTR	51	0	1
NMSXL	51	0	1	96	192	5
NMHLD	51	0	6	288
NMHLD	52	0	1	288
NMSTR	52	0	6
NMSXR	52	0	6	96	192	2
NMHLD	53	0	1	192
NMHLD	53	192	3	192
NMHLD	54	0	4	192
NMTAP	54	192	6
NMTAP	54	288	4
NMTAP	54	288	6
NMHLD	55	0	6	192
NMHLD	55	192	4	192
NMTAP	56	0	3
NMTAP	56	96	1
BRTAP	56	192	0
BRTAP	56	192	1
NMHLD	57	0	1	288
NMTTP	57	96	4	B	0	M1
NMTTP	57	96	4	A	0	M1
NMTTP	57	192	3	B	0	M1
NMTTP	57	192	3	A	0	M1
NMHLD	58	0	6	288
NMTTP	58	96	3	B	0	M1
NMTTP	58	96	3	A	0	M1
NMTTP	58	192	4	B	0	M1
NMTTP	58	192	4	A	0	M1
NMHLD	59	0	2	288
NMTTP	59	96	3	B	0	M1
NMTTP	59	96	3	A	0	M1
NMTTP	59	192	1	B	0	M1
NMTTP	59	192	1	A	0	M1
NMTAP	60	0	6
NMTAP	60	0	7
NMTAP	60	96	0
NMTAP	60	96	1
NMTAP	60	192	0
NMTAP	60	192	7
NMTAP	61	0	0
NMTAP	61	0	1
NMTAP	61	96	0
NMTAP	61	96	1
NMTAP	61	192	2
NMTAP	61	192	3
NMTAP	61	288	2
NMTAP	61	288	3
NMTAP	62	0	4
NMTAP	62	0	5
NMTAP	62	96	4
NMTAP	62	96	5
NMTAP	62	192	6
NMTAP	62	192	7
NMTAP	62	288	6
NMTAP	62	288	7
EXTAP	63	0	0
EXTAP	63	0	7
EXTAP	63	48	0
EXTAP	63	48	7
EXTAP	63	96	0
EXTAP	63	96	7
EXTAP	63	144	0
EXTAP	63	144	7
EXTAP	63	192	0
EXTAP	63	192	7
NMTAP	63	288	1
NMTAP	63	288	6
NMHLD	64	0	1	192
NMHLD	64	0	6	192
BRTAP	64	288	1
BRTAP	64	288	6
NMTAP	65	0	0
NMTAP	65	48	7
NMTAP	65	96	2
NMTAP	65	144	1
NMTAP	65	192	0
NMHLD	65	192	3	96
NMTAP	65	288	1
NMTAP	65	336	1
NMTAP	66	0	7
NMTAP	66	48	0
NMTAP	66	96	5
NMTAP	66	144	6
NMHLD	66	192	4	96
NMTAP	66	192	7
NMTAP	66	288	6
NMTAP	66	336	6
NMTAP	67	0	0
NMTAP	67	48	7
NMTAP	67	96	2
NMTAP	67	144	1
NMTAP	67	192	0
NMHLD	67	192	4	96
NMTAP	67	288	1
NMTAP	67	336	1
NMTAP	68	0	7
NMTAP	68	48	0
NMTAP	68	96	5
NMTAP	68	144	6
NMTAP	68	192	3
NMTAP	68	192	7
NMTAP	68	288	4
NMTAP	68	336	4
NMTAP	69	0	4
NMTAP	69	0	5
NMTAP	69	48	6
NMTAP	69	96	0
NMTAP	69	96	7
NMTAP	69	144	1
NMTAP	69	192	2
NMTAP	69	192	3
NMTAP	69	288	3
NMTAP	69	336	3
NMTAP	70	0	2
NMTAP	70	0	3
NMTAP	70	48	1
NMTAP	70	96	0
NMTAP	70	96	7
NMTAP	70	144	6
NMTAP	70	192	4
NMTAP	70	192	5
NMTAP	70	288	2
NMTAP	70	288	3
NMTAP	71	0	1
NMTAP	71	48	1
NMTAP	71	96	1
NMTAP	71	96	2
NMTAP	71	192	6
NMTAP	71	240	6
NMTAP	71	288	5
NMTAP	71	288	6
NMTAP	72	0	3
NMTAP	72	0	4
NMTAP	72	48	3
NMTAP	72	48	4
NMTAP	72	96	2
NMTAP	72	96	5
BRTAP	72	192	0
BRTAP	72	192	7
NMTAP	73	0	2
NMTAP	73	96	1
NMTAP	73	96	3
NMTAP	73	192	2
NMTAP	73	240	2
NMTAP	73	288	1
NMTAP	73	288	3
NMTAP	74	0	5
NMTAP	74	96	4
NMTAP	74	96	6
NMTAP	74	192	5
NMTAP	74	240	5
NMTAP	74	288	4
NMTAP	74	288	6
NMTAP	75	0	6
NMTAP	75	96	5
NMTAP	75	96	7
NMTAP	75	192	6
NMTAP	75	240	6
NMTAP	75	288	5
NMTAP	75	288	7
NMTAP	76	0	1
NMTAP	76	96	0
NMTAP	76	96	2
NMTAP	76	192	1
NMTAP	76	240	1
NMTAP	76	288	0
NMTAP	76	288	2
NMTAP	77	0	3
NMTAP	77	48	3
NMTAP	77	96	2
NMTAP	77	144	2
NMTAP	77	192	1
NMTAP	77	240	1
NMTAP	77	288	0
NMTAP	77	336	0
NMTAP	78	0	7
NMTAP	78	48	7
NMTAP	78	96	6
NMTAP	78	144	6
NMTAP	78	192	5
NMTAP	78	240	5
NMTAP	78	288	4
NMTAP	78	336	4
NMTAP	79	0	3
NMTAP	79	48	4
NMTAP	79	96	5
NMTAP	79	144	6
NMTAP	79	192	7
NMTAP	79	240	0
NMTAP	79	288	1
NMTAP	79	336	2
NMTAP	80	0	3
NMTAP	80	0	4
BRTAP	80	192	5
BRTAP	80	192	6
BRTAP	80	288	1
BRTAP	80	288	2
BRSTR	81	0	0
NMSCR	81	0	0	96	408	3
BRTAP	81	0	7
CNSUR	82	120	3	0	648	4
CNSCR	84	0	4	0	384	7

T_REC_TAP	379
T_REC_BRK	17
T_REC_XTP	10
T_REC_BXX	2
T_REC_HLD	34
T_REC_XHO	0
T_REC_BHO	0
T_REC_BXH	0
T_REC_STR	13
T_REC_BST	1
T_REC_XST	0
T_REC_XBS	0
T_REC_TTP	37
T_REC_THO	1
T_REC_SLD	14
T_REC_BSL	0
T_REC_ALL	508
T_NUM_TAP	439
T_NUM_BRK	20
T_NUM_HLD	35
T_NUM_SLD	14
T_NUM_ALL	508
T_JUDGE_TAP	459
T_JUDGE_HLD	174
T_JUDGE_SLD	14
T_JUDGE_ALL	647
TTM_EACHPAIRS	107
TTM_SCR_TAP	219500
TTM_SCR_BRK	52000
TTM_SCR_HLD	35000
TTM_SCR_SLD	21000
TTM_SCR_ALL	327500
TTM_SCR_S	315750
TTM_SCR_SS	325500
TTM_RAT_ACV	10061

