VERSION	0.00.00	1.04.00
FES_MODE	0
BPM_DEF	190.000	190.000	190.000	190.000
MET_DEF	4	4
RESOLUTION	384
CLK_DEF	384
COMPATIBLE_CODE	MA2

BPM	0	0	190.000
MET	0	0	4	4

NMHLD	5	0	6	192
NMHLD	5	192	7	192
NMHLD	6	0	0	192
NMSTR	6	192	1
NMSI_	6	192	1	96	48	4
NMHLD	7	0	5	192
NMHLD	7	192	4	192
NMHLD	8	0	3	192
NMSTR	8	192	2
NMSI_	8	192	2	96	48	7
NMTAP	9	0	6
NMHLD	9	48	6	144
NMTAP	9	192	7
NMHLD	9	240	7	144
NMTAP	10	0	0
NMHLD	10	48	0	144
NMSTR	10	192	1
NMSI_	10	192	1	96	48	5
NMTAP	10	240	1
NMTAP	11	0	6
NMHLD	11	48	6	144
NMTAP	11	192	4
NMHLD	11	240	4	144
NMTAP	12	0	5
NMTAP	12	48	5
NMTAP	12	96	4
BRTAP	12	192	3
BRTAP	12	192	4
BRTAP	12	288	0
BRTAP	12	288	7
NMTAP	13	0	0
NMTAP	13	0	6
NMTAP	13	48	6
NMTAP	13	96	1
NMTAP	13	96	7
NMTAP	13	144	1
NMTAP	13	192	0
NMTAP	13	192	6
NMTAP	13	240	6
NMTAP	13	288	1
NMTAP	13	288	7
NMTAP	13	336	1
NMTAP	14	0	0
NMTAP	14	0	6
NMTAP	14	48	6
NMTAP	14	96	1
NMTAP	14	96	7
NMTAP	14	144	1
NMTAP	14	192	0
NMTAP	14	192	6
NMTAP	14	240	5
NMTAP	14	288	3
NMTAP	14	288	5
NMTAP	14	336	2
NMTAP	15	0	2
NMTAP	15	0	4
NMTAP	15	48	5
NMTAP	15	96	3
NMTAP	15	96	5
NMTAP	15	144	2
NMTAP	15	192	2
NMTAP	15	192	4
NMTAP	15	240	5
NMTAP	15	288	3
NMTAP	15	288	5
NMTAP	15	336	2
NMTAP	16	0	2
NMTAP	16	0	6
NMTAP	16	48	7
NMTAP	16	96	1
NMTAP	16	96	7
NMTAP	16	144	0
NMTAP	16	192	0
NMTAP	16	192	6
NMTAP	16	240	6
BRTAP	16	288	1
BRTAP	16	288	5
NMTAP	17	0	1
NMTAP	17	0	7
NMTAP	17	48	7
NMTAP	17	96	0
NMTAP	17	96	6
NMTAP	17	144	0
NMTAP	17	192	1
NMTAP	17	192	7
NMTAP	17	240	7
NMTAP	17	288	0
NMTAP	17	288	6
NMTAP	17	336	0
NMTAP	18	0	1
NMTAP	18	0	7
NMTAP	18	48	6
NMTAP	18	96	2
NMTAP	18	96	6
NMTAP	18	144	3
NMTAP	18	192	3
NMTAP	18	192	5
NMTAP	18	240	6
NMTAP	18	288	0
NMTAP	18	288	6
NMTAP	18	336	1
NMTAP	19	0	1
NMTAP	19	0	4
NMTAP	19	48	5
NMTAP	19	96	3
NMTAP	19	96	5
NMTAP	19	144	2
NMTAP	19	192	2
NMTAP	19	192	4
NMTAP	19	240	5
NMSTR	19	288	6
NMSUL	19	288	6	96	192	1
NMSTR	19	288	7
NMSUL	19	288	7	96	192	0
BRTAP	20	288	1
BRTAP	20	288	7
NMHLD	21	0	2	96
NMHLD	21	96	3	96
NMTAP	21	192	1
NMTAP	21	240	1
NMTAP	21	288	3
NMHLD	21	336	2	96
NMHLD	22	48	3	96
NMTAP	22	144	1
NMTAP	22	192	1
NMTAP	22	240	3
NMTAP	22	288	2
NMTAP	22	336	2
NMHLD	23	0	5	96
NMHLD	23	96	4	96
NMTAP	23	192	6
NMTAP	23	240	6
NMTAP	23	288	4
NMHLD	23	336	5	96
NMHLD	24	48	4	96
NMTAP	24	144	6
NMTAP	24	192	6
NMTAP	24	240	4
NMTAP	24	288	3
NMTAP	24	288	5
NMHLD	25	0	2	96
NMHLD	25	96	3	96
NMTAP	25	192	1
NMTAP	25	240	1
NMTAP	25	288	3
NMHLD	25	336	2	96
NMHLD	26	48	3	96
NMTAP	26	144	1
NMTAP	26	192	1
NMTAP	26	240	3
NMTAP	26	288	2
NMTAP	26	336	4
NMHLD	27	0	5	96
NMHLD	27	96	4	96
NMTAP	27	192	6
NMTAP	27	240	6
NMTAP	27	288	4
NMSTR	27	336	5
NMSUL	27	336	5	96	168	3
NMTAP	29	0	1
NMTAP	29	48	2
NMTAP	29	96	3
NMTAP	29	144	2
EXTAP	29	192	1
NMTAP	29	240	2
NMTAP	29	288	3
NMTAP	29	336	2
NMSTR	30	0	1
NMSI_	30	0	1	96	96	7
NMSTR	30	0	6
NMSUR	30	0	6	96	96	4
EXTAP	30	288	4
EXTAP	30	288	5
NMTAP	31	0	6
NMTAP	31	48	5
NMTAP	31	96	4
NMTAP	31	144	5
EXTAP	31	192	6
NMTAP	31	240	5
NMTAP	31	288	4
NMTAP	31	336	5
NMSTR	32	0	6
NMSI_	32	0	6	96	96	0
NMSTR	32	0	7
NMSV_	32	0	7	96	48	5
CNSCL	32	144	5	0	48	3
EXTAP	32	288	0
EXTAP	32	288	1
NMTAP	33	0	3
NMTAP	33	48	2
NMTAP	33	96	1
NMTAP	33	144	2
EXTAP	33	192	3
NMTAP	33	240	2
NMSTR	33	288	0
NMSI_	33	288	0	96	48	6
NMSTR	33	288	1
NMSI_	33	288	1	96	48	5
EXSTR	34	96	7
BRSV_	34	96	7	96	48	5
BRTAP	34	192	0
CNSCL	34	240	5	0	48	3
NMTAP	34	288	1
NMTAP	35	0	2
NMTAP	35	0	4
NMTAP	35	48	2
NMTAP	35	48	4
NMTAP	35	96	2
NMTAP	35	96	4
NMTAP	35	192	3
NMTAP	35	192	5
NMTAP	35	240	3
NMTAP	35	240	5
NMTAP	35	288	3
NMHLD	35	288	5	288
NMTTP	36	0	4	B	0	M1
NMTTP	36	0	5	B	0	M1
NMTTP	36	96	2	B	0	M1
NMTTP	36	96	3	B	0	M1
NMTHO	36	192	0	96	C	0	M1
EXTAP	36	288	7
NMTAP	37	0	7
NMTAP	37	48	6
NMTAP	37	96	5
NMTAP	37	144	6
EXTAP	37	192	7
NMTAP	37	240	6
NMTAP	37	288	5
NMTAP	37	336	6
NMSTR	38	0	6
NMSUR	38	0	6	96	96	4
NMSTR	38	0	7
NMSI_	38	0	7	96	96	1
EXTAP	38	288	2
EXTAP	38	288	3
NMTAP	39	0	0
NMTAP	39	48	1
NMTAP	39	96	2
NMTAP	39	144	1
EXTAP	39	192	0
NMTAP	39	240	1
NMTAP	39	288	2
NMTAP	39	336	1
NMSTR	40	0	0
NMSI_	40	0	0	96	96	6
NMSTR	40	0	7
NMSV_	40	0	7	96	48	5
CNSCL	40	144	5	0	48	3
EXTAP	40	288	2
EXTAP	40	288	3
NMTAP	41	0	1
NMTAP	41	48	2
NMTAP	41	96	3
NMTAP	41	144	2
EXTAP	41	192	1
NMTAP	41	240	2
NMTAP	41	288	3
NMTAP	41	336	2
NMSTR	42	0	1
NMSI_	42	0	1	96	48	5
NMSTR	42	0	3
NMSI_	42	0	3	96	48	7
EXTAP	42	192	7
NMTAP	42	288	0
NMTAP	42	288	6
NMHLD	43	0	2	48
NMHLD	43	0	4	48
NMHLD	43	96	3	48
NMHLD	43	96	5	48
NMHLD	43	192	2	48
NMHLD	43	192	4	48
NMHLD	43	288	3	48
NMHLD	43	288	5	48
NMTAP	44	0	2
NMTAP	44	0	4
NMTAP	44	48	2
NMTAP	44	96	3
NMTAP	44	96	5
NMTAP	44	144	5
NMSTR	44	192	3
NMSI_	44	192	3	96	48	0
NMSTR	44	192	4
NMSI_	44	192	4	96	48	7
NMTAP	44	240	2
NMTAP	44	240	5
NMTAP	44	288	3
NMTAP	44	288	4
BXHLD	45	0	0	96
BXTAP	45	0	7
NMTAP	45	96	2
NMSTR	45	144	2
NMSI_	45	144	2	96	48	6
NMTAP	45	240	1
NMSTR	45	288	1
NMSI_	45	288	1	96	48	3
NMTAP	46	0	7
NMTAP	46	48	7
NMSTR	46	96	4
NMSI_	46	96	4	96	48	0
NMTAP	46	192	5
NMTAP	46	240	6
NMSTR	46	288	1
NMSI_	46	288	1	96	48	3
NMTAP	46	288	7
NMSTR	47	0	0
NMSCL	47	0	0	96	48	5
NMTAP	47	96	4
NMSTR	47	144	4
NMSCL	47	144	4	96	48	1
NMTAP	47	240	6
NMTAP	47	288	6
NMTAP	47	336	6
BXSTR	48	0	0
NMSI_	48	0	0	96	48	2
BXSTR	48	0	7
NMSI_	48	0	7	96	48	3
BXTAP	48	96	0
BXTAP	48	96	7
BXSTR	48	192	0
NMSI_	48	192	0	96	48	4
BXSTR	48	192	7
NMSI_	48	192	7	96	48	5
BXTAP	48	288	0
BXTAP	48	288	7
NMTAP	49	0	1
NMHLD	49	0	7	96
NMTAP	49	96	5
NMSTR	49	144	5
NMSI_	49	144	5	96	48	1
NMTAP	49	240	6
NMSTR	49	288	6
NMSI_	49	288	6	96	48	4
NMTAP	50	0	0
NMTAP	50	48	0
NMSTR	50	96	3
NMSI_	50	96	3	96	48	7
NMTAP	50	192	2
NMTAP	50	240	1
NMTAP	50	288	0
NMSTR	50	288	6
NMSI_	50	288	6	96	48	2
NMSTR	51	0	7
NMSCR	51	0	7	96	48	2
NMTAP	51	96	3
NMSTR	51	144	3
NMSI_	51	144	3	96	48	7
NMTAP	51	240	1
NMTAP	51	288	1
NMTAP	51	336	1
BXSTR	52	0	0
NMSI_	52	0	0	96	48	4
BXSTR	52	0	7
NMSI_	52	0	7	96	48	5
BXTAP	52	96	0
BXTAP	52	96	7
BXSTR	52	192	0
NMSI_	52	192	0	96	48	2
BXSTR	52	192	7
NMSI_	52	192	7	96	48	3
BXTAP	52	288	0
BXTAP	52	288	7
EXTAP	53	0	3
NMSTR	53	0	4
NMSI_	53	0	4	96	48	6
NMTAP	53	96	7
NMSTR	53	144	7
NMSCR	53	144	7	96	48	2
NMTAP	53	240	6
NMTAP	53	288	5
NMTAP	53	336	4
NMSTR	54	0	3
NMSCR	54	0	3	96	48	6
NMTAP	54	48	2
NMHLD	54	96	1	96
NMTAP	54	192	0
NMTAP	54	240	0
NMSTR	54	288	1
NMSI_	54	288	1	96	48	4
NMHLD	55	0	7	96
NMTAP	55	96	5
NMSTR	55	144	5
NMSI_	55	144	5	96	48	1
NMTAP	55	240	6
NMTAP	55	288	6
NMTAP	55	336	6
BRSTR	56	0	0
NMSI_	56	0	0	96	48	2
BRSTR	56	0	7
NMSI_	56	0	7	96	48	3
BRTAP	56	96	0
BRTAP	56	96	7
BRSTR	56	192	0
NMSI_	56	192	0	96	48	4
BRSTR	56	192	7
NMSI_	56	192	7	96	48	5
BRTAP	56	288	0
BRTAP	56	288	7
NMSTR	57	0	3
NMSI_	57	0	3	96	48	1
EXTAP	57	0	4
NMTAP	57	96	0
NMSTR	57	144	0
NMSCL	57	144	0	96	48	5
NMTAP	57	240	1
NMTAP	57	288	2
NMTAP	57	336	3
NMSTR	58	0	4
NMSCL	58	0	4	96	48	1
NMTAP	58	48	5
NMTAP	58	96	6
NMTAP	58	144	7
NMTAP	58	192	0
NMTAP	58	240	0
NMTAP	58	288	1
NMTAP	58	288	7
NMTAP	58	336	2
NMTAP	58	336	6
NMSTR	59	0	5
NMSI_	59	0	5	96	48	3
NMTAP	59	96	2
NMSTR	59	144	1
NMSI_	59	144	1	96	48	5
NMTAP	59	240	5
NMTAP	59	288	6
NMTAP	59	336	7
BRSTR	60	0	0
NMSI_	60	0	0	96	48	2
BRSTR	60	0	7
NMSI_	60	0	7	96	48	5
BRSTR	60	96	0
NMSI_	60	96	0	96	48	4
BRSTR	60	96	7
NMSI_	60	96	7	96	48	3
BRTAP	60	192	0
BRTAP	60	192	7
BRTAP	60	288	2
BRTAP	60	288	5
NMTAP	61	0	0
NMSTR	61	0	7
NMSCL	61	0	7	96	96	4
NMSTR	61	96	4
NMSCL	61	96	4	96	96	1
NMTAP	61	192	1
NMTAP	61	240	0
NMTAP	61	288	7
NMTAP	61	336	6
NMTAP	62	0	5
NMTAP	62	48	4
NMTAP	62	96	3
NMTAP	62	144	2
NMTAP	62	168	3
NMHLD	62	192	2	96
BRTAP	62	288	1
NMSTR	63	0	0
NMSCR	63	0	0	96	96	3
NMTAP	63	0	7
NMSTR	63	96	3
NMSCR	63	96	3	96	96	6
NMTAP	63	192	6
NMTAP	63	240	7
NMTAP	63	288	0
NMTAP	63	336	1
NMTAP	64	0	2
NMTAP	64	48	3
NMTAP	64	96	4
NMTAP	64	144	5
NMTAP	64	168	4
NMHLD	64	192	5	96
BRTAP	64	288	6
NMSTR	65	0	3
NMSCL	65	0	3	96	96	0
NMTAP	65	0	7
NMSTR	65	96	0
NMSCL	65	96	0	96	96	5
NMTAP	65	192	5
NMTAP	65	240	4
NMTAP	65	288	3
NMTAP	65	336	2
NMTAP	66	0	1
NMTAP	66	48	0
NMTAP	66	96	7
NMTAP	66	144	6
NMTAP	66	168	5
NMHLD	66	192	6	96
BRTAP	66	288	7
NMTAP	67	0	0
NMSTR	67	0	4
NMSCR	67	0	4	96	96	7
NMSTR	67	96	7
NMSCR	67	96	7	96	96	2
NMTAP	67	192	2
NMTAP	67	240	3
NMTAP	67	288	4
NMTAP	67	336	5
NMTAP	68	0	6
NMTAP	68	48	7
NMSTR	68	96	0
NMSI_	68	96	0	96	48	3
NMSI_	68	96	0	96	48	5
NMTAP	68	96	1
BRTAP	68	288	2
BRTAP	68	288	6
NMTAP	69	0	3
NMTAP	69	0	4
NMTAP	69	48	2
NMTAP	69	72	3
NMSTR	69	96	1
NMSI_	69	96	1	96	48	4
NMTAP	69	144	1
NMSTR	69	192	0
NMSI_	69	192	0	96	48	5
NMTAP	69	240	0
NMTAP	69	288	3
NMTAP	69	336	3
NMTAP	70	0	3
NMTAP	70	0	4
NMTAP	70	48	5
NMTAP	70	72	4
NMSTR	70	96	6
NMSI_	70	96	6	96	48	3
NMTAP	70	144	6
NMSTR	70	192	7
NMSI_	70	192	7	96	48	2
NMTAP	70	240	7
NMTAP	70	288	4
NMTAP	70	336	4
NMTAP	71	0	3
NMTAP	71	0	4
NMTAP	71	48	2
NMTAP	71	72	3
NMSTR	71	96	1
NMSI_	71	96	1	96	48	4
NMTAP	71	144	1
NMTAP	71	192	7
NMTAP	71	240	7
NMTAP	71	288	6
NMTAP	71	336	6
NMTAP	72	0	0
NMTAP	72	0	7
NMTAP	72	48	1
NMTAP	72	96	0
NMTAP	72	96	1
NMTAP	72	144	7
NMTAP	72	192	6
NMTAP	72	192	7
NMTAP	72	240	0
BRTAP	72	288	1
BRTAP	72	288	7
NMTAP	73	0	0
NMTAP	73	0	7
NMTAP	73	48	1
NMTAP	73	72	0
NMSTR	73	96	2
NMSI_	73	96	2	96	48	7
NMTAP	73	144	2
NMSTR	73	192	3
NMSI_	73	192	3	96	48	6
NMTAP	73	240	3
NMTAP	73	288	0
NMTAP	73	336	0
NMTAP	74	0	0
NMTAP	74	0	7
NMTAP	74	48	6
NMTAP	74	72	7
NMSTR	74	96	5
NMSI_	74	96	5	96	48	0
NMTAP	74	144	5
NMSTR	74	192	4
NMSI_	74	192	4	96	48	1
NMTAP	74	240	4
NMTAP	74	288	7
NMTAP	74	336	7
NMTAP	75	0	0
NMTAP	75	0	7
NMTAP	75	48	1
NMTAP	75	72	0
NMSTR	75	96	2
NMSI_	75	96	2	96	48	7
NMTAP	75	144	2
NMSTR	75	192	3
NMSI_	75	192	3	96	48	6
NMTAP	75	240	3
NMSTR	75	288	1
NMSI_	75	288	1	96	48	4
NMTAP	75	336	1
BRTAP	76	0	0
NMTAP	76	48	7
NMTAP	76	96	6
NMTAP	76	144	5
NMSTR	76	192	3
NMSI_	76	192	3	96	48	0
NMSTR	76	192	4
NMSI_	76	192	4	96	48	7
NMTAP	76	288	3
NMSTR	76	288	4
NMSCR	76	288	4	96	384	3
NMTTP	77	0	0	C	1	M1
NMTAP	78	288	3
NMTAP	78	288	4
NMHLD	79	0	5	96
NMTAP	79	96	4
NMTAP	79	144	4
NMTAP	79	192	4
NMTAP	79	192	6
NMTAP	79	288	3
NMTAP	79	288	5
NMHLD	80	0	2	96
NMTAP	80	96	3
NMTAP	80	144	3
NMTAP	80	192	1
NMTAP	80	192	3
NMTAP	80	288	2
NMTAP	80	288	4
NMHLD	81	0	5	96
NMTAP	81	96	4
NMTAP	81	144	4
NMTAP	81	192	5
NMTAP	81	240	4
NMTAP	81	288	3
NMTAP	81	288	6
NMHLD	82	0	2	96
NMTAP	82	96	3
NMTAP	82	144	3
NMTAP	82	192	2
NMTAP	82	240	3
NMTAP	82	288	1
NMTAP	82	288	4
NMTAP	83	0	2
NMHLD	83	0	5	96
NMTAP	83	96	4
NMTAP	83	144	4
NMTAP	83	192	4
NMTAP	83	192	5
NMTAP	83	288	3
NMTAP	83	288	6
NMHLD	84	0	2	96
NMTAP	84	0	5
NMTAP	84	96	3
NMTAP	84	144	3
NMTAP	84	192	2
NMTAP	84	192	3
NMTAP	84	288	3
NMTAP	84	288	4
NMTAP	85	0	5
NMTAP	85	48	5
NMSTR	85	96	4
NMSCR	85	96	4	96	96	7
NMTAP	85	144	3
NMTAP	85	192	2
NMTAP	85	240	1
NMSTR	85	288	0
NMSCR	85	288	0	96	96	3
NMTAP	86	0	6
NMHLD	86	96	5	96
NMTAP	86	192	4
NMTAP	86	240	3
NMTAP	86	288	2
NMTAP	86	288	4
NMTAP	86	336	1
NMHLD	87	0	0	96
NMTAP	87	0	6
NMTAP	87	96	4
NMHLD	87	144	4	96
NMTAP	87	240	2
NMTAP	87	288	4
NMTAP	87	336	0
NMTAP	88	0	1
NMTAP	88	48	2
NMTAP	88	96	3
NMSTR	88	144	4
NMSI_	88	144	4	96	48	0
NMTAP	88	144	6
NMTAP	88	240	5
NMSTR	88	288	5
BRSCR	88	288	5	96	120	2
BRTAP	89	0	0
NMTAP	89	192	3
NMTAP	89	240	3
NMTAP	89	288	3
NMTAP	89	336	4
NMTAP	90	0	3
NMTAP	90	0	5
NMTAP	90	48	5
NMTAP	90	96	2
NMTAP	90	96	4
NMTAP	90	144	2
NMHLD	90	192	3	48
NMHLD	90	192	4	48
NMTAP	90	288	2
NMSTR	90	288	5
NMSI_	90	288	5	96	48	0
BRTAP	91	0	0
NMSTR	91	96	2
NMSI_	91	96	2	96	48	7
BRTAP	91	192	7
NMSTR	91	288	5
NMSI_	91	288	5	96	48	1
BRSTR	92	0	2
NMSI_	92	0	2	96	48	6
BRSTR	92	96	4
NMSF_	92	96	4	96	48	0
NMTTP	92	192	4	A	1	M1
NMSTR	93	0	7
NMSI_	93	0	7	96	48	3
NMTAP	93	48	7
NMSTR	93	96	0
NMSI_	93	96	0	96	48	4
NMTAP	93	144	0
NMSTR	93	192	6
NMSI_	93	192	6	96	48	2
NMTAP	93	240	6
NMSTR	93	288	1
NMSI_	93	288	1	96	48	5
NMTAP	93	336	1
NMSTR	94	0	7
NMSI_	94	0	7	96	48	2
NMTAP	94	48	7
NMSTR	94	96	0
NMSI_	94	96	0	96	48	4
NMTAP	94	144	0
NMTAP	94	192	5
NMTAP	94	240	5
NMTAP	94	288	3
NMTAP	94	336	3
NMSTR	95	0	4
NMSI_	95	0	4	96	48	0
NMTAP	95	48	4
NMSTR	95	96	3
NMSI_	95	96	3	96	48	7
NMTAP	95	144	3
NMSTR	95	192	5
NMSI_	95	192	5	96	48	1
NMTAP	95	240	5
NMSTR	95	288	2
NMSI_	95	288	2	96	48	6
NMTAP	95	336	2
NMSTR	96	0	4
NMSI_	96	0	4	96	48	1
NMTAP	96	48	4
NMSTR	96	96	3
NMSI_	96	96	3	96	48	7
NMTAP	96	144	3
NMTAP	96	192	6
NMTAP	96	240	6
NMTAP	96	288	0
NMTAP	96	336	0
NMSTR	97	0	6
NMSI_	97	0	6	96	48	2
NMTAP	97	48	6
NMSTR	97	96	7
NMSI_	97	96	7	96	48	3
NMTAP	97	144	7
NMSTR	97	192	5
NMSI_	97	192	5	96	48	1
NMTAP	97	240	5
NMSTR	97	288	0
NMSI_	97	288	0	96	48	4
NMTAP	97	336	0
NMSTR	98	0	6
NMSI_	98	0	6	96	48	1
NMTAP	98	48	6
NMSTR	98	96	7
NMSI_	98	96	7	96	48	3
NMTAP	98	144	7
NMTAP	98	192	4
NMTAP	98	240	4
NMTAP	98	288	2
NMTAP	98	336	2
NMSTR	99	0	1
NMSI_	99	0	1	96	48	5
NMTAP	99	48	1
NMSTR	99	96	0
NMSI_	99	96	0	96	48	4
NMTAP	99	144	0
NMSTR	99	192	2
NMSI_	99	192	2	96	48	5
NMTAP	99	240	2
NMSTR	99	288	1
BRSCL	99	288	1	96	96	6
BRSTR	100	0	6
BRSCL	100	0	6	96	96	3
NMTAP	100	96	3
NMTAP	100	192	2
BRTAP	100	288	0
BRTAP	100	288	1
NMSTR	101	0	7
NMSI_	101	0	7	96	48	2
NMTAP	101	48	7
NMSTR	101	96	0
NMSI_	101	96	0	96	48	5
NMTAP	101	144	0
NMSTR	101	192	7
NMSI_	101	192	7	96	48	4
NMTAP	101	240	7
NMTAP	101	288	1
NMTAP	101	336	2
NMSTR	102	0	3
NMSI_	102	0	3	96	48	6
NMTAP	102	48	3
NMSTR	102	96	4
NMSI_	102	96	4	96	48	1
NMTAP	102	144	4
NMSTR	102	192	3
NMSI_	102	192	3	96	48	0
NMTAP	102	240	3
NMTAP	102	288	7
NMTAP	102	336	7
NMSTR	103	0	6
NMSI_	103	0	6	96	48	2
NMTAP	103	48	6
NMSTR	103	96	4
NMSI_	103	96	4	96	48	7
NMTAP	103	144	4
NMSTR	103	192	5
NMSI_	103	192	5	96	48	2
NMTAP	103	240	5
NMTAP	103	288	0
NMTAP	103	336	0
NMSTR	104	0	1
NMSI_	104	0	1	96	48	5
NMTAP	104	48	1
NMSTR	104	96	3
NMSI_	104	96	3	96	48	0
NMTAP	104	144	3
NMSTR	104	192	2
NMSI_	104	192	2	96	48	5
NMTAP	104	240	2
NMTAP	104	288	7
NMTAP	104	336	7
NMSTR	105	0	6
NMSI_	105	0	6	96	48	2
NMTAP	105	48	6
NMSTR	105	96	5
NMSI_	105	96	5	96	48	1
NMTAP	105	144	5
NMSTR	105	192	6
NMSI_	105	192	6	96	48	3
NMTAP	105	240	6
NMTAP	105	288	0
NMTAP	105	336	1
NMSTR	106	0	2
NMSI_	106	0	2	96	48	6
NMTAP	106	48	2
NMSTR	106	96	1
NMSI_	106	96	1	96	48	5
NMTAP	106	144	1
NMSTR	106	192	2
NMSI_	106	192	2	96	48	7
NMTAP	106	240	2
NMTAP	106	288	4
NMTAP	106	336	5
NMSTR	107	0	6
NMSI_	107	0	6	96	48	3
NMTAP	107	48	6
NMSTR	107	96	0
NMSI_	107	96	0	96	48	5
NMTAP	107	144	0
NMSTR	107	192	4
NMSI_	107	192	4	96	48	1
NMTAP	107	240	4
NMTAP	107	288	0
NMTAP	107	336	0
BRTAP	108	0	0
NMTAP	108	24	7
NMTAP	108	48	0
NMTAP	108	72	7
NMTAP	108	96	0
NMTAP	108	120	7
NMTAP	108	144	0
NMTAP	108	168	7
NMTAP	108	192	0
NMTAP	108	204	1
NMTAP	108	216	2
NMTAP	108	228	3
NMTAP	108	240	4
NMTAP	108	252	5
NMTAP	108	264	6
NMTAP	108	276	7
NMSTR	108	288	0
BRSF_	108	288	0	96	48	4
NMTAP	108	300	1
NMTAP	108	312	2
NMTAP	108	324	3
NMTAP	108	336	4
NMTAP	108	348	5
NMTAP	108	360	6
NMTAP	108	372	7
NMTTP	109	0	0	C	1	M1
NMTTP	109	0	1	B	0	M1
NMTTP	109	0	1	E	0	M1
NMTTP	109	0	2	B	0	M1
NMTTP	109	0	3	B	0	M1
NMTTP	109	0	4	B	0	M1
NMTTP	109	0	5	B	0	M1
NMTTP	109	0	6	B	0	M1
NMTTP	109	0	7	E	0	M1

T_REC_TAP	492
T_REC_BRK	31
T_REC_XTP	18
T_REC_BXX	9
T_REC_HLD	51
T_REC_XHO	0
T_REC_BHO	0
T_REC_BXH	1
T_REC_STR	117
T_REC_BST	11
T_REC_XST	1
T_REC_XBS	8
T_REC_TTP	15
T_REC_THO	1
T_REC_SLD	133
T_REC_BSL	5
T_REC_ALL	893
T_NUM_TAP	643
T_NUM_BRK	65
T_NUM_HLD	52
T_NUM_SLD	133
T_NUM_ALL	893
T_JUDGE_TAP	702
T_JUDGE_HLD	117
T_JUDGE_SLD	138
T_JUDGE_ALL	957
TTM_EACHPAIRS	121
TTM_SCR_TAP	321500
TTM_SCR_BRK	169000
TTM_SCR_HLD	52000
TTM_SCR_SLD	199500
TTM_SCR_ALL	742000
TTM_SCR_S	713450
TTM_SCR_SS	735500
TTM_RAT_ACV	10088

