VERSION	0.00.00	1.04.00
FES_MODE	0
BPM_DEF	190.000	190.000	190.000	190.000
MET_DEF	4	4
RESOLUTION	384
CLK_DEF	384
COMPATIBLE_CODE	MA2

BPM	0	0	190.000
MET	0	0	4	4

NMHLD	5	0	6	192
NMHLD	5	192	4	192
NMHLD	6	0	3	192
NMTAP	6	192	1
NMTAP	6	288	1
NMHLD	7	0	1	192
NMHLD	7	192	3	192
NMHLD	8	0	4	192
NMTAP	8	192	6
NMTAP	8	288	6
NMHLD	9	0	5	192
NMHLD	9	192	7	192
NMHLD	10	0	0	768
NMTAP	12	0	7
NMTAP	12	96	0
NMTAP	12	96	7
BXTAP	12	192	1
BXTAP	12	192	6
BRTAP	12	288	1
BRTAP	12	288	6
NMTAP	13	0	2
NMTAP	13	96	1
NMTAP	13	96	3
NMTAP	13	192	5
NMTAP	13	288	4
NMTAP	13	288	6
NMTAP	14	0	2
NMTAP	14	96	1
NMTAP	14	96	3
NMTAP	14	192	5
NMTAP	14	288	4
NMTAP	14	288	6
NMTAP	15	0	1
NMTAP	15	96	0
NMTAP	15	96	2
NMTAP	15	192	6
NMTAP	15	288	5
NMTAP	15	288	7
NMTAP	16	0	1
NMTAP	16	96	0
NMTAP	16	96	2
NMTAP	16	192	7
NMTAP	16	288	0
NMTAP	16	288	6
NMTAP	17	0	5
NMTAP	17	96	4
NMTAP	17	96	6
NMTAP	17	192	2
NMTAP	17	288	1
NMTAP	17	288	3
NMTAP	18	0	5
NMTAP	18	96	4
NMTAP	18	96	6
NMTAP	18	192	2
NMTAP	18	288	1
NMTAP	18	288	3
NMTAP	19	0	6
NMTAP	19	96	5
NMTAP	19	96	7
NMTAP	19	192	0
NMTAP	19	288	1
NMSTR	19	288	7
NMSCL	19	288	7	96	240	0
NMTAP	21	0	0
NMTAP	21	0	7
NMTAP	21	96	0
NMTAP	21	96	7
NMTAP	21	192	0
NMTAP	21	192	7
NMTAP	21	288	0
NMTAP	21	288	7
NMTAP	22	0	1
NMTAP	22	0	6
NMTAP	22	96	1
NMTAP	22	96	6
NMTAP	22	192	1
NMTAP	22	192	6
NMHLD	23	0	5	192
NMTAP	23	96	4
NMHLD	23	192	3	192
NMTAP	23	288	4
NMTAP	24	0	5
EXTAP	24	96	2
EXTAP	24	96	6
EXTAP	24	192	1
EXTAP	24	192	7
NMHLD	25	0	2	192
NMTAP	25	96	3
NMHLD	25	192	4	192
NMTAP	25	288	3
NMTAP	26	0	2
EXTAP	26	96	1
EXTAP	26	96	5
EXTAP	26	192	2
EXTAP	26	192	6
EXTAP	26	288	1
EXTAP	26	288	5
NMTAP	27	0	0
NMTAP	27	0	7
NMTAP	27	96	0
NMTAP	27	96	7
NMTAP	27	192	0
NMTAP	27	192	7
NMSTR	27	288	0
NMSI_	27	288	0	96	96	4
NMSTR	27	288	7
NMSI_	27	288	7	96	96	3
EXHLD	28	192	2	96
EXHLD	28	192	4	96
NMHLD	29	0	6	288
NMTAP	29	96	4
NMTAP	29	192	4
NMSTR	29	288	5
NMSUL	29	288	5	96	240	3
NMHLD	31	0	1	288
NMTAP	31	96	3
NMTAP	31	192	3
NMSTR	31	288	2
NMSXL	31	288	2	96	240	5
NMHLD	33	0	6	288
NMTAP	33	96	4
NMTAP	33	192	4
NMSTR	33	288	5
NMSCL	33	288	5	96	96	2
EXTAP	34	192	0
EXTAP	34	192	7
NMHLD	35	0	1	96
NMTAP	35	96	3
NMHLD	35	192	6	96
NMTAP	35	288	4
NMTAP	36	0	0
NMTAP	36	0	6
NMTAP	36	96	0
NMTAP	36	96	6
NMTAP	36	192	1
NMTAP	36	192	7
NMTAP	36	288	1
NMTAP	36	288	7
NMHLD	37	0	2	288
NMTAP	37	96	3
NMTAP	37	192	3
NMTAP	37	288	3
NMTTP	38	0	0	B	0	M1
NMTTP	38	0	1	B	0	M1
NMTTP	38	96	6	B	0	M1
NMTTP	38	96	7	B	0	M1
NMTTP	38	192	4	B	0	M1
NMTTP	38	192	5	B	0	M1
NMTTP	38	288	2	B	0	M1
NMTTP	38	288	3	B	0	M1
NMHLD	39	0	1	288
NMTAP	39	96	0
NMTAP	39	192	0
NMSTR	39	288	0
BRSSL	39	288	0	96	240	4
NMHLD	41	0	5	288
NMTAP	41	96	4
NMTAP	41	192	4
NMTAP	41	288	4
NMTAP	42	0	4
NMTAP	42	0	5
EXSTR	42	96	6
NMSI_	42	96	6	96	96	2
EXSTR	42	96	7
NMSI_	42	96	7	96	96	3
NMTAP	43	0	2
NMTAP	43	0	4
NMTAP	43	96	1
NMTAP	43	192	3
NMTAP	43	192	5
NMTAP	43	288	6
NMTAP	44	0	1
NMTAP	44	0	3
NMTAP	44	96	0
NMTAP	44	192	4
NMTAP	44	192	6
BRTAP	44	288	7
NMHLD	45	0	0	96
NMHLD	45	96	1	96
NMHLD	45	192	2	96
NMHLD	45	288	3	96
NMHLD	46	0	4	96
NMHLD	46	96	5	96
NMHLD	46	192	6	96
NMTAP	46	288	7
NMTAP	47	0	6
NMTAP	47	0	7
NMTAP	47	96	6
NMTAP	47	96	7
NMTAP	47	192	0
NMTAP	47	192	1
NMTAP	47	288	0
NMTAP	47	288	1
BXTAP	48	0	4
BXTAP	48	0	5
BXTAP	48	96	6
BXTAP	48	96	7
BXTAP	48	192	2
BXTAP	48	192	3
BXTAP	48	288	0
BXTAP	48	288	1
NMHLD	49	0	7	96
NMHLD	49	96	6	96
NMHLD	49	192	5	96
NMHLD	49	288	4	96
NMHLD	50	0	3	96
NMHLD	50	96	2	96
NMHLD	50	192	1	96
NMTAP	50	288	0
NMTAP	51	0	0
NMTAP	51	0	1
NMTAP	51	96	0
NMTAP	51	96	1
NMTAP	51	192	6
NMTAP	51	192	7
NMTAP	51	288	6
NMTAP	51	288	7
BXTAP	52	0	2
BXTAP	52	0	3
BXTAP	52	96	0
BXTAP	52	96	1
BXTAP	52	192	4
BXTAP	52	192	5
BXTAP	52	288	3
BXTAP	52	288	6
NMHLD	53	0	4	96
NMHLD	53	96	5	96
NMHLD	53	192	6	96
NMHLD	53	288	7	96
NMHLD	54	0	0	96
NMHLD	54	96	1	96
NMHLD	54	192	2	96
NMTAP	54	288	3
NMTAP	55	0	2
NMTAP	55	0	3
NMTAP	55	96	2
NMTAP	55	96	3
NMTAP	55	192	4
NMTAP	55	192	5
NMTAP	55	288	4
NMTAP	55	288	5
BXTAP	56	0	2
BXTAP	56	0	3
BXTAP	56	96	0
BXTAP	56	96	1
BXTAP	56	192	6
BXTAP	56	192	7
BXTAP	56	288	4
BXTAP	56	288	5
NMHLD	57	0	3	96
NMHLD	57	96	2	96
NMHLD	57	192	1	96
NMHLD	57	288	0	96
NMHLD	58	0	7	96
NMHLD	58	96	6	96
NMHLD	58	192	5	96
NMTAP	58	288	4
NMTAP	59	0	4
NMTAP	59	0	5
NMTAP	59	96	4
NMTAP	59	96	5
NMTAP	59	192	2
NMTAP	59	192	3
NMTAP	59	288	2
NMTAP	59	288	3
BXTAP	60	0	4
BXTAP	60	0	5
BXTAP	60	96	6
BXTAP	60	96	7
BXTAP	60	192	0
BXTAP	60	192	1
BXTAP	60	288	2
BXTAP	60	288	3
NMHLD	61	0	5	288
NMTAP	61	96	4
NMTAP	61	192	4
NMTAP	61	288	4
NMTAP	62	0	4
NMHLD	62	0	6	288
NMTAP	62	96	4
NMTAP	62	192	4
NMTAP	62	288	4
NMTAP	63	0	4
NMHLD	63	0	7	96
NMTAP	63	96	4
NMTAP	63	192	4
NMTAP	63	192	6
NMTAP	63	288	3
NMTAP	63	288	4
NMTAP	64	0	1
NMTAP	64	0	3
NMTAP	64	96	0
NMTAP	64	96	7
NMTAP	64	192	4
NMTAP	64	192	6
NMTAP	64	288	3
NMTAP	64	288	4
NMHLD	65	0	2	288
NMTAP	65	96	3
NMTAP	65	192	3
NMTAP	65	288	3
NMHLD	66	0	1	288
NMTAP	66	0	3
NMTAP	66	96	3
NMTAP	66	192	3
NMTAP	66	288	3
NMHLD	67	0	0	96
NMTAP	67	0	3
NMTAP	67	96	3
NMTAP	67	192	1
NMTAP	67	192	3
NMTAP	67	288	3
NMTAP	67	288	4
NMTAP	68	0	4
NMTAP	68	0	6
NMTAP	68	96	0
NMTAP	68	96	7
NMTAP	68	192	1
NMTAP	68	192	3
NMTAP	68	288	3
NMTAP	68	288	4
NMHLD	69	0	5	288
NMTAP	69	96	4
NMTAP	69	192	4
NMTAP	69	288	4
NMTAP	70	0	4
NMHLD	70	0	6	288
NMTAP	70	96	4
NMTAP	70	192	4
NMTAP	70	288	4
NMTAP	71	0	4
NMHLD	71	0	7	96
NMTAP	71	96	4
NMTAP	71	192	0
NMTAP	71	192	7
NMTAP	71	288	1
NMTAP	71	336	1
NMTAP	72	0	3
NMTAP	72	96	3
NMTAP	72	96	4
NMTAP	72	192	4
NMTAP	72	192	6
NMTAP	72	288	0
NMTAP	72	288	7
NMHLD	73	0	2	288
NMTAP	73	96	3
NMTAP	73	192	3
NMTAP	73	288	3
NMHLD	74	0	1	288
NMTAP	74	0	3
NMTAP	74	96	3
NMTAP	74	192	3
NMTAP	74	288	3
NMHLD	75	0	0	96
NMTAP	75	0	3
NMTAP	75	96	3
NMTAP	75	192	0
NMTAP	75	192	7
NMTAP	75	288	6
NMTAP	75	336	6
NMTAP	76	0	4
NMTAP	76	96	3
NMTAP	76	96	4
NMTAP	76	192	1
NMTAP	76	192	3
NMSTR	76	288	0
NMSI_	76	288	0	96	96	6
NMTAP	76	288	7
CNSI_	77	96	6	0	96	2
CNSI_	77	192	2	0	96	4
NMTAP	78	0	5
NMTAP	78	96	6
NMTAP	78	96	7
NMTAP	78	192	5
NMTAP	78	240	5
NMTAP	78	288	3
NMTAP	79	0	2
NMTAP	79	96	0
NMTAP	79	96	1
NMTAP	79	192	2
NMTAP	79	240	2
NMTAP	79	288	4
NMTAP	80	0	5
NMTAP	80	96	4
NMTAP	80	96	6
NMTAP	80	192	2
NMTAP	80	288	1
NMTAP	80	288	3
NMTAP	81	0	6
NMTAP	81	96	4
NMTAP	81	96	5
NMTAP	81	192	6
NMTAP	81	240	6
NMTAP	81	288	0
NMTAP	82	0	1
NMTAP	82	96	2
NMTAP	82	96	3
NMTAP	82	192	1
NMTAP	82	240	1
NMTAP	82	288	7
NMTAP	83	0	6
NMTAP	83	96	4
NMTAP	83	96	5
NMTAP	83	192	6
NMTAP	83	240	6
NMTAP	83	288	0
NMTAP	84	0	1
NMTAP	84	96	2
NMTAP	84	96	3
NMTAP	84	192	6
NMTAP	84	288	4
NMTAP	84	288	5
NMHLD	85	0	2	96
NMTAP	85	96	3
NMTAP	85	144	3
NMTAP	85	240	0
NMTAP	85	240	1
NMTAP	85	288	0
NMTAP	85	288	1
NMHLD	86	0	5	96
NMTAP	86	96	4
NMTAP	86	144	4
NMTAP	86	240	6
NMTAP	86	240	7
NMTAP	86	288	6
NMTAP	86	288	7
NMSTR	87	0	2
NMSCR	87	0	2	96	96	5
NMSTR	87	192	6
NMSCR	87	192	6	96	96	1
NMSTR	88	0	2
NMSUL	88	0	2	96	96	5
NMHLD	89	0	6	96
NMTAP	89	96	7
NMTAP	89	144	7
NMTAP	89	240	4
NMTAP	89	240	5
NMTAP	89	288	4
NMTAP	89	288	5
NMHLD	90	0	2	96
NMTAP	90	96	4
EXTAP	90	192	1
EXTAP	90	192	5
EXTAP	90	288	1
EXTAP	90	288	5
NMTTP	91	0	0	B	1	M1
NMTTP	91	0	0	A	0	M1
NMTTP	91	0	6	B	0	M1
NMTTP	91	0	6	A	0	M1
NMTTP	91	192	1	B	0	M1
NMTTP	91	192	1	A	0	M1
NMTTP	91	192	7	B	1	M1
NMTTP	91	192	7	A	0	M1
NMTTP	92	0	0	B	1	M1
NMTTP	92	0	0	A	0	M1
NMTTP	92	0	6	B	0	M1
NMTTP	92	0	6	A	0	M1
NMTTP	92	96	1	E	0	M1
NMTTP	92	96	1	D	0	M1
NMTTP	92	96	7	E	1	M1
NMTTP	92	96	7	D	0	M1
NMTTP	92	192	1	B	1	M1
NMTTP	92	192	1	A	0	M1
NMTTP	92	192	7	B	0	M1
NMTTP	92	192	7	A	0	M1
EXHLD	93	0	2	192
EXTAP	93	96	3
NMHLD	93	192	5	192
NMTAP	93	288	3
NMHLD	94	0	1	96
NMSTR	94	96	3
NMSI_	94	96	3	96	48	7
NMTAP	94	192	0
NMTAP	94	288	0
NMHLD	95	0	5	192
NMTAP	95	96	4
NMHLD	95	192	2	192
NMTAP	95	288	4
NMHLD	96	0	6	96
NMSTR	96	96	4
NMSI_	96	96	4	96	48	0
NMTAP	96	192	7
NMTAP	96	288	7
NMHLD	97	0	2	192
NMTAP	97	96	3
NMHLD	97	192	5	192
NMTAP	97	288	3
NMHLD	98	0	1	96
NMSTR	98	96	3
NMSI_	98	96	3	96	48	7
NMTAP	98	192	0
NMTAP	98	288	0
NMHLD	99	0	5	192
NMTAP	99	96	4
NMHLD	99	192	2	192
NMTAP	99	288	4
NMHLD	100	0	6	96
NMHLD	100	96	4	96
NMHLD	100	192	3	96
NMTAP	100	288	1
NMHLD	101	0	0	48
NMHLD	101	0	6	48
NMHLD	101	96	0	48
NMHLD	101	96	6	48
NMHLD	101	192	1	48
NMHLD	101	192	7	48
NMHLD	101	288	1	48
NMHLD	101	288	7	48
NMHLD	102	0	0	48
NMHLD	102	0	6	48
NMHLD	102	96	1	48
NMHLD	102	96	7	48
NMHLD	102	192	0	48
NMHLD	102	192	6	48
NMHLD	102	288	1	48
NMHLD	102	288	7	48
NMHLD	103	0	2	48
NMHLD	103	0	3	48
NMHLD	103	96	2	48
NMHLD	103	96	3	48
NMHLD	103	192	4	48
NMHLD	103	192	5	48
NMHLD	103	288	4	48
NMHLD	103	288	5	48
NMHLD	104	0	2	48
NMHLD	104	0	3	48
NMHLD	104	96	4	48
NMHLD	104	96	5	48
NMHLD	104	192	2	48
NMHLD	104	192	3	48
NMHLD	104	288	4	48
NMHLD	104	288	5	48
NMHLD	105	0	3	48
NMHLD	105	0	6	48
NMHLD	105	96	3	48
NMHLD	105	96	6	48
NMHLD	105	192	1	48
NMHLD	105	192	4	48
NMHLD	105	288	1	48
NMHLD	105	288	4	48
NMHLD	106	0	2	48
NMHLD	106	0	7	48
NMHLD	106	96	0	48
NMHLD	106	96	5	48
NMHLD	106	192	2	48
NMHLD	106	192	7	48
NMHLD	106	288	0	48
NMHLD	106	288	5	48
NMHLD	107	0	6	48
NMHLD	107	0	7	48
NMHLD	107	96	6	48
NMHLD	107	96	7	48
NMHLD	107	192	0	48
NMHLD	107	192	1	48
NMSTR	107	288	0
BRSUR	107	288	0	96	240	7
NMSTR	107	288	1
BRSCR	107	288	1	96	240	7
BRTAP	109	0	0
BRTAP	109	0	7

T_REC_TAP	303
T_REC_BRK	5
T_REC_XTP	17
T_REC_BXX	34
T_REC_HLD	132
T_REC_XHO	3
T_REC_BHO	0
T_REC_BXH	0
T_REC_STR	16
T_REC_BST	0
T_REC_XST	2
T_REC_XBS	0
T_REC_TTP	28
T_REC_THO	0
T_REC_SLD	15
T_REC_BSL	3
T_REC_ALL	558
T_NUM_TAP	366
T_NUM_BRK	42
T_NUM_HLD	135
T_NUM_SLD	15
T_NUM_ALL	558
T_JUDGE_TAP	405
T_JUDGE_HLD	326
T_JUDGE_SLD	18
T_JUDGE_ALL	749
TTM_EACHPAIRS	151
TTM_SCR_TAP	183000
TTM_SCR_BRK	109200
TTM_SCR_HLD	135000
TTM_SCR_SLD	22500
TTM_SCR_ALL	449700
TTM_SCR_S	432150
TTM_SCR_SS	445500
TTM_RAT_ACV	10094

