VERSION	0.00.00	1.04.00
FES_MODE	0
BPM_DEF	190.000	190.000	190.000	190.000
MET_DEF	4	4
RESOLUTION	384
CLK_DEF	384
COMPATIBLE_CODE	MA2

BPM	0	0	190.000
MET	0	0	4	4

NMTAP	5	0	1
NMTAP	5	192	1
NMTAP	6	0	2
NMTAP	6	192	2
NMTAP	7	0	3
NMTAP	7	192	3
NMTAP	8	0	4
NMTAP	8	0	5
NMTAP	8	192	4
NMTAP	8	192	5
NMTAP	9	0	6
NMTAP	9	192	6
NMTAP	10	0	5
NMTAP	10	192	5
NMTAP	11	0	4
NMTAP	11	192	4
EXTAP	12	0	2
EXTAP	12	0	3
EXTAP	12	96	2
EXTAP	12	96	3
EXTAP	12	192	2
EXTAP	12	192	3
NMTAP	13	0	0
NMTAP	13	0	1
NMTAP	13	192	0
NMTAP	13	192	1
NMTAP	14	0	2
NMTAP	14	96	2
NMTAP	14	192	2
NMTAP	15	0	2
NMTAP	15	0	3
NMTAP	15	192	2
NMTAP	15	192	3
NMTAP	16	0	4
NMTAP	16	96	4
NMTAP	16	192	4
NMTAP	17	0	4
NMTAP	17	0	5
NMTAP	17	192	4
NMTAP	17	192	5
NMTAP	18	0	6
NMTAP	18	96	6
NMTAP	18	192	6
NMTAP	19	0	6
NMTAP	19	0	7
NMTAP	19	192	6
NMTAP	19	192	7
EXTAP	20	0	0
EXTAP	20	0	1
EXTAP	20	96	0
EXTAP	20	96	1
EXTAP	20	192	0
EXTAP	20	192	1
NMHLD	21	0	2	192
NMHLD	21	192	3	192
NMHLD	22	0	4	192
NMTAP	22	192	5
NMHLD	23	0	5	192
NMHLD	23	192	4	192
NMHLD	24	0	3	192
NMTAP	24	192	2
NMHLD	25	0	1	192
NMHLD	25	192	2	192
NMHLD	26	0	3	192
NMTAP	26	192	4
NMHLD	27	0	5	192
NMTAP	27	192	4
NMTAP	28	0	4
NMTAP	28	0	5
NMTAP	28	96	4
NMTAP	28	96	5
NMTAP	28	192	4
NMTAP	28	192	5
NMTAP	29	0	6
NMTAP	29	96	7
NMTAP	29	192	6
NMTAP	30	0	6
NMTAP	30	0	7
NMTAP	30	192	6
NMTAP	30	192	7
NMTAP	31	0	5
NMTAP	31	96	4
NMTAP	31	192	5
NMTAP	32	0	4
NMTAP	32	0	5
NMTAP	32	192	4
NMTAP	32	192	5
NMTAP	33	0	2
NMTAP	33	96	3
NMTAP	33	192	2
NMTAP	34	0	2
NMTAP	34	0	3
NMTAP	34	192	2
NMTAP	34	192	3
NMTAP	35	0	1
NMTAP	35	96	0
NMTAP	35	192	1
BXTAP	36	0	0
BXTAP	36	0	7
BXTAP	36	96	0
BXTAP	36	96	7
BXTAP	36	192	0
BXTAP	36	192	7
NMTTP	37	0	1	B	0	L1
NMTTP	37	96	2	B	0	L1
NMTTP	37	192	3	B	0	L1
NMTTP	37	288	4	B	0	L1
NMTTP	38	0	5	B	0	L1
NMTTP	38	192	0	C	0	L1
NMTTP	39	0	6	B	0	L1
NMTTP	39	96	5	B	0	L1
NMTTP	39	192	4	B	0	L1
NMTTP	39	288	3	B	0	L1
NMTTP	40	0	2	B	0	L1
NMTTP	40	192	0	C	0	L1
NMTTP	41	0	2	E	0	L1
NMTTP	41	96	3	E	0	L1
NMTTP	41	192	4	E	0	L1
NMTTP	41	288	5	E	0	L1
NMTTP	42	0	6	E	0	L1
NMTTP	42	192	0	C	0	L1
NMTTP	43	0	6	B	0	L1
NMTTP	43	96	7	B	0	L1
NMTTP	43	192	0	B	0	L1
NMTTP	43	288	1	B	0	L1
NMTTP	44	0	0	C	1	L1
NMTAP	45	0	1
NMTAP	45	96	1
NMTAP	45	192	0
NMTAP	45	288	0
NMTAP	46	0	7
NMTAP	46	96	7
NMTAP	46	192	6
NMTAP	46	192	7
NMTAP	47	0	5
NMTAP	47	96	5
NMTAP	47	192	4
NMTAP	47	288	4
NMTAP	48	0	4
NMTAP	48	0	5
NMTAP	48	96	4
NMTAP	48	96	5
NMTAP	48	192	4
NMTAP	48	192	5
NMTAP	49	0	6
NMTAP	49	96	6
NMTAP	49	192	7
NMTAP	49	288	7
NMTAP	50	0	0
NMTAP	50	96	0
NMTAP	50	192	0
NMTAP	50	192	1
NMTAP	51	0	2
NMTAP	51	96	2
NMTAP	51	192	3
NMTAP	51	288	3
NMTAP	52	0	2
NMTAP	52	0	3
NMTAP	52	96	2
NMTAP	52	96	3
NMTAP	52	192	2
NMTAP	52	192	3
NMTAP	53	0	2
NMTAP	53	96	2
NMTAP	53	192	0
NMTAP	53	192	1
NMTAP	53	288	0
NMTAP	53	288	1
NMTAP	54	0	7
NMTAP	54	96	7
NMTAP	54	192	6
NMTAP	54	192	7
NMTAP	55	0	7
NMTAP	55	96	6
NMTAP	55	192	5
NMTAP	55	288	4
NMTAP	56	0	3
NMTAP	56	0	4
NMTAP	56	96	3
NMTAP	56	96	4
NMTAP	56	192	3
NMTAP	56	192	4
NMTAP	57	0	5
NMTAP	57	96	5
NMTAP	57	192	6
NMTAP	57	192	7
NMTAP	57	288	6
NMTAP	57	288	7
NMTAP	58	0	0
NMTAP	58	96	0
NMTAP	58	192	0
NMTAP	58	192	1
NMTAP	59	0	0
NMTAP	59	96	1
NMTAP	59	192	2
NMTAP	59	288	3
NMTAP	60	0	4
NMTAP	60	0	5
NMTAP	60	96	4
NMTAP	60	96	5
NMTAP	60	192	4
NMTAP	60	192	5
NMSTR	61	0	6
NMSI_	61	0	6	96	192	3
NMSTR	62	0	2
NMSI_	62	0	2	96	192	7
NMSTR	63	0	6
NMSI_	63	0	6	96	192	2
NMTAP	64	0	1
NMTAP	64	96	1
NMTAP	64	192	0
NMTAP	64	192	1
NMSTR	65	0	1
NMSI_	65	0	1	96	192	4
NMSTR	66	0	5
NMSI_	66	0	5	96	192	0
NMSTR	67	0	1
NMSI_	67	0	1	96	192	5
NMTAP	68	0	6
NMTAP	68	96	6
NMTAP	68	192	6
NMTAP	68	192	7
NMSTR	69	0	6
NMSCL	69	0	6	96	192	3
NMSTR	70	0	2
NMSCL	70	0	2	96	192	7
NMSTR	71	0	6
NMSI_	71	0	6	96	192	2
NMTAP	72	0	1
NMTAP	72	96	1
NMTAP	72	192	0
NMTAP	72	192	1
NMSTR	73	0	1
NMSCR	73	0	1	96	192	4
NMSTR	74	0	5
NMSCR	74	0	5	96	192	0
NMSTR	75	0	1
NMSI_	75	0	1	96	192	5
NMSTR	76	0	6
NMSI_	76	0	6	96	192	2
NMHLD	77	0	1	192
NMHLD	77	192	0	192
NMHLD	78	0	7	192
NMTAP	78	192	6
NMHLD	79	0	6	192
NMHLD	79	192	7	192
NMHLD	80	0	0	192
NMTAP	80	192	1
NMHLD	81	0	2	192
NMHLD	81	192	1	192
NMHLD	82	0	0	192
NMTAP	82	192	7
NMHLD	83	0	5	192
NMHLD	83	192	6	192
NMHLD	84	0	7	192
NMTAP	84	192	0
NMHLD	85	0	1	192
NMTAP	85	192	0
NMHLD	86	0	6	192
NMTAP	86	192	7
NMHLD	87	0	1	192
NMTAP	87	192	0
NMHLD	88	0	6	192
NMTAP	88	192	7
NMHLD	89	0	5	192
NMHLD	89	192	4	192
NMHLD	90	0	3	192
NMTAP	90	192	2
NMHLD	91	0	3	192
NMHLD	91	0	4	192
EXTAP	92	0	3
EXTAP	92	0	4
EXTAP	92	96	3
EXTAP	92	96	4
BRTAP	92	192	3
BRTAP	92	192	4
NMTAP	93	0	5
NMTAP	93	96	5
NMTAP	93	192	4
NMTAP	93	192	5
NMTAP	93	288	4
NMTAP	93	288	5
NMTAP	94	0	6
NMTAP	94	96	6
NMTAP	94	192	6
NMTAP	94	192	7
NMTAP	94	288	6
NMTAP	94	288	7
NMTAP	95	0	0
NMTAP	95	96	0
NMTAP	95	192	0
NMTAP	95	192	1
NMTAP	95	288	0
NMTAP	95	288	1
NMTAP	96	0	2
NMTAP	96	0	3
NMTAP	96	96	2
NMTAP	96	96	3
NMTAP	96	192	2
NMTAP	96	192	3
NMTAP	97	0	2
NMTAP	97	96	2
NMTAP	97	192	2
NMTAP	97	192	3
NMTAP	97	288	2
NMTAP	97	288	3
NMTAP	98	0	1
NMTAP	98	96	1
NMTAP	98	192	0
NMTAP	98	192	1
NMTAP	98	288	0
NMTAP	98	288	1
NMTAP	99	0	7
NMTAP	99	96	7
NMTAP	99	192	6
NMTAP	99	192	7
NMTAP	99	288	6
NMTAP	99	288	7
NMTAP	100	0	4
NMTAP	100	0	5
NMTAP	100	96	4
NMTAP	100	96	5
NMTAP	100	192	4
NMTAP	100	192	5
NMTAP	101	0	5
NMTAP	101	96	6
NMTAP	101	192	7
NMTAP	101	288	0
NMTAP	102	0	1
NMTAP	102	96	2
NMTAP	102	192	3
NMTAP	102	288	4
NMTAP	103	0	5
NMTAP	103	96	6
NMTAP	103	192	7
NMTAP	103	288	0
NMTAP	104	0	1
NMTAP	104	96	2
NMTAP	104	192	3
NMTAP	104	192	4
NMTAP	105	0	2
NMTAP	105	96	1
NMTAP	105	192	0
NMTAP	105	288	7
NMTAP	106	0	6
NMTAP	106	96	5
NMTAP	106	192	4
NMTAP	106	288	3
NMTAP	107	0	2
NMTAP	107	96	1
NMTAP	107	192	0
NMTAP	107	288	7
NMTAP	108	0	6
NMTAP	108	96	5
NMTAP	108	192	3
NMTAP	108	192	4
NMTAP	108	288	3
NMTAP	108	288	4
NMHLD	109	0	2	384
NMHLD	109	0	5	384

T_REC_TAP	254
T_REC_BRK	2
T_REC_XTP	16
T_REC_BXX	6
T_REC_HLD	33
T_REC_XHO	0
T_REC_BHO	0
T_REC_BXH	0
T_REC_STR	13
T_REC_BST	0
T_REC_XST	0
T_REC_XBS	0
T_REC_TTP	23
T_REC_THO	0
T_REC_SLD	13
T_REC_BSL	0
T_REC_ALL	360
T_NUM_TAP	306
T_NUM_BRK	8
T_NUM_HLD	33
T_NUM_SLD	13
T_NUM_ALL	360
T_JUDGE_TAP	314
T_JUDGE_HLD	140
T_JUDGE_SLD	13
T_JUDGE_ALL	467
TTM_EACHPAIRS	77
TTM_SCR_TAP	153000
TTM_SCR_BRK	20800
TTM_SCR_HLD	33000
TTM_SCR_SLD	19500
TTM_SCR_ALL	226300
TTM_SCR_S	218750
TTM_SCR_SS	225500
TTM_RAT_ACV	10035

