VERSION	0.00.00	1.04.00
FES_MODE	0
BPM_DEF	180.000	180.000	180.000	180.000
MET_DEF	4	4
RESOLUTION	384
CLK_DEF	384
COMPATIBLE_CODE	MA2

BPM	0	0	180.000
MET	0	0	4	4

NMTTP	1	0	2	B	0	M1
NMTTP	1	96	1	B	0	M1
NMTTP	1	192	0	B	0	M1
NMTTP	1	288	7	B	0	M1
NMTTP	2	0	6	B	0	M1
NMTTP	2	96	5	B	0	M1
NMTHO	2	192	0	96	C	0	M1
NMTTP	3	0	5	B	0	M1
NMTTP	3	96	6	B	0	M1
NMTTP	3	192	7	B	0	M1
NMTTP	3	288	0	B	0	M1
NMTTP	4	0	1	B	0	M1
NMTTP	4	96	2	B	0	M1
NMTTP	4	192	0	C	1	M1
NMSTR	5	0	0
NMSI_	5	0	0	96	48	4
NMSTR	5	0	1
NMSI_	5	0	1	96	48	4
NMSTR	5	192	0
NMSI_	5	192	0	96	48	4
NMSTR	5	192	1
NMSI_	5	192	1	96	48	4
NMTAP	6	0	2
NMTAP	6	0	6
NMSTR	6	96	0
NMSF_	6	96	0	96	48	4
NMSTR	7	0	6
NMSI_	7	0	6	96	48	3
NMSTR	7	0	7
NMSI_	7	0	7	96	48	3
NMSTR	7	192	6
NMSI_	7	192	6	96	48	3
NMSTR	7	192	7
NMSI_	7	192	7	96	48	3
NMTAP	8	0	1
NMTAP	8	0	5
NMSTR	8	96	7
NMSF_	8	96	7	96	48	3
NMSTR	9	0	1
NMSUL	9	0	1	96	48	4
NMSTR	9	0	7
NMSI_	9	0	7	96	48	4
NMSTR	9	192	1
NMSUL	9	192	1	96	48	4
NMSTR	9	192	7
NMSI_	9	192	7	96	48	4
NMTAP	10	0	2
NMTAP	10	0	6
NMSTR	10	96	0
NMSF_	10	96	0	96	48	4
NMSTR	11	0	0
NMSI_	11	0	0	96	48	3
NMSTR	11	0	6
NMSUR	11	0	6	96	48	3
NMSTR	11	192	0
NMSI_	11	192	0	96	48	3
NMSTR	11	192	6
NMSUR	11	192	6	96	48	3
NMSTR	12	0	7
NMSI_	12	0	7	96	48	3
NMSTR	12	96	7
NMSF_	12	96	7	96	48	3
BRTAP	12	192	7
EXHLD	13	0	2	96
NMTAP	13	96	3
NMTAP	13	144	3
NMHLD	13	192	4	96
NMTAP	13	288	3
NMTAP	13	336	3
NMHLD	14	0	2	96
NMSTR	14	96	3
NMSI_	14	96	3	96	48	0
NMSTR	14	192	4
NMSI_	14	192	4	96	48	7
EXHLD	15	0	6	96
NMTAP	15	96	7
NMTAP	15	144	7
NMHLD	15	192	0	96
NMTAP	15	288	7
NMTAP	15	336	7
NMHLD	16	0	6	96
NMTAP	16	96	7
NMTAP	16	144	7
NMSTR	16	192	0
NMSUL	16	192	0	96	48	3
BXTAP	17	0	2
EXTAP	17	0	4
BXTAP	17	96	0
EXTAP	17	96	7
NMTAP	17	192	3
NMTAP	17	192	5
NMSTR	17	288	3
NMSV_	17	288	3	96	48	4
NMSTR	18	96	0
NMSSL	18	96	0	96	96	4
NMSTR	18	96	7
NMSSR	18	96	7	96	96	3
EXTAP	19	0	3
NMTAP	19	48	2
NMTAP	19	96	1
NMTAP	19	144	0
NMTAP	19	192	7
NMTAP	19	240	6
NMSTR	19	288	2
BRSXR	19	288	2	96	192	4
NMSTR	19	288	5
BRSXL	19	288	5	96	192	3
BRTAP	20	288	1
BRTAP	20	288	6
NMSTR	21	0	2
NMSCL	21	0	2	96	288	6
NMHLD	21	0	5	288
NMHLD	22	0	4	288
CNSCR	22	0	6	0	288	2
NMHLD	23	0	1	288
NMSTR	23	0	5
NMSCL	23	0	5	96	192	6
EXSTR	24	0	1
NMSI_	24	0	1	96	48	4
EXTAP	24	0	6
EXTAP	24	96	6
EXSTR	24	192	4
NMSI_	24	192	4	96	48	0
EXTAP	24	192	7
EXTAP	24	288	7
NMHLD	25	0	1	288
NMSTR	25	0	6
NMSCL	25	0	6	96	288	2
NMHLD	26	0	0	288
CNSCR	26	0	2	0	288	6
NMSTR	27	0	1
NMSCL	27	0	1	96	192	2
NMHLD	27	0	7	288
NMSTR	28	0	7
NMSI_	28	0	7	96	192	3
NMSCR	28	0	7	96	96	1
CNSV_	28	192	1	0	96	3
NMSTR	29	0	2
NMSCL	29	0	2	96	288	6
NMTAP	29	0	4
NMTAP	29	96	4
NMTAP	29	192	3
NMTAP	29	288	3
NMTAP	30	0	4
CNSCR	30	0	6	0	288	2
NMTAP	30	96	4
NMTAP	30	192	5
NMTAP	30	288	5
NMHLD	31	0	2	288
NMSTR	31	0	5
NMSCR	31	0	5	96	192	4
EXSTR	32	0	2
NMSI_	32	0	2	96	48	7
EXSTR	32	0	4
NMSI_	32	0	4	96	48	7
EXSTR	32	192	1
NMSI_	32	192	1	96	48	4
EXSTR	32	192	7
NMSI_	32	192	7	96	48	4
EXTAP	33	0	3
EXTAP	33	0	5
NMTAP	33	96	2
NMTAP	33	96	4
NMTAP	33	192	3
NMTAP	33	192	6
NMTAP	33	288	1
NMTAP	33	288	4
NMTAP	34	0	6
NMTAP	34	48	6
NMTAP	34	96	1
NMTAP	34	144	1
NMTAP	34	192	7
NMTAP	34	240	7
NMTAP	34	288	0
NMTAP	34	336	0
NMTAP	35	0	6
NMTAP	35	24	7
NMTAP	35	48	6
NMTAP	35	72	7
BXTAP	35	96	6
NMTAP	35	192	1
NMTAP	35	216	0
NMTAP	35	240	1
NMTAP	35	264	0
BXTAP	35	288	1
NMTTP	36	0	3	B	0	M1
NMTTP	36	0	3	E	0	M1
NMTTP	36	0	4	B	0	M1
NMTTP	36	0	4	E	0	M1
NMTTP	36	0	5	E	0	M1
NMTTP	36	96	0	B	0	M1
NMTTP	36	96	0	E	0	M1
NMTTP	36	96	1	E	0	M1
NMTTP	36	96	7	B	0	M1
NMTTP	36	96	7	E	0	M1
NMTTP	36	192	0	C	1	M1
NMTTP	36	192	2	B	0	M1
NMTTP	36	192	2	E	0	M1
NMTTP	36	192	5	B	0	M1
NMTTP	36	192	6	E	0	M1
NMSTR	37	0	0
NMSI_	37	0	0	96	48	4
NMSTR	37	0	1
NMSV_	37	0	1	96	48	4
NMSTR	37	192	0
NMSI_	37	192	0	96	48	4
NMSTR	37	192	1
NMSV_	37	192	1	96	48	4
NMTAP	38	0	2
NMTAP	38	0	6
NMTAP	38	48	1
NMTAP	38	48	7
NMSTR	38	96	0
NMSF_	38	96	0	96	48	4
NMSTR	39	0	6
NMSV_	39	0	6	96	48	3
NMSTR	39	0	7
NMSI_	39	0	7	96	48	3
NMSTR	39	192	6
NMSV_	39	192	6	96	48	3
NMSTR	39	192	7
NMSI_	39	192	7	96	48	3
NMTAP	40	0	1
NMTAP	40	0	5
NMTAP	40	48	0
NMTAP	40	48	6
NMSTR	40	96	7
NMSF_	40	96	7	96	48	3
NMSTR	41	0	1
NMSUL	41	0	1	96	48	3
NMSTR	41	0	7
NMSUL	41	0	7	96	48	3
NMSTR	41	192	1
NMSUL	41	192	1	96	48	3
NMSTR	41	192	7
NMSUL	41	192	7	96	48	3
NMTAP	42	0	2
NMTAP	42	0	6
NMTAP	42	48	1
NMTAP	42	48	7
NMSTR	42	96	0
NMSF_	42	96	0	96	48	4
NMSTR	43	0	0
NMSUR	43	0	0	96	48	4
NMSTR	43	0	6
NMSUR	43	0	6	96	48	4
NMSTR	43	192	0
NMSUR	43	192	0	96	48	4
NMSTR	43	192	6
NMSUR	43	192	6	96	48	4
NMSTR	44	0	7
NMSI_	44	0	7	96	48	1
NMSI_	44	0	7	96	48	5
NMSTR	44	96	7
NMSF_	44	96	7	96	48	3
BRTAP	44	192	7
EXHLD	45	0	2	48
EXHLD	45	0	3	48
NMHLD	45	96	4	48
NMHLD	45	96	5	48
NMTAP	45	192	6
NMTAP	45	192	7
NMTAP	45	240	6
NMTAP	45	240	7
NMTAP	45	288	0
NMTAP	45	288	5
NMHLD	46	0	4	48
NMHLD	46	0	5	48
NMHLD	46	96	2	48
NMHLD	46	96	3	48
NMTAP	46	192	0
NMTAP	46	192	1
NMTAP	46	240	0
NMTAP	46	240	1
NMTAP	46	288	2
NMTAP	46	288	7
NMHLD	47	0	6	48
NMHLD	47	0	7	48
NMHLD	47	96	4	48
NMHLD	47	96	5	48
NMTAP	47	192	2
NMTAP	47	192	3
NMTAP	47	240	2
NMTAP	47	240	3
NMTAP	47	288	1
NMTAP	47	288	4
NMHLD	48	0	0	48
NMHLD	48	0	1	48
NMHLD	48	96	2	48
NMHLD	48	96	3	48
NMTAP	48	192	4
NMTAP	48	192	5
BRTAP	48	240	7
BRTAP	48	288	7
NMHLD	49	0	1	48
NMHLD	49	0	3	48
NMHLD	49	96	4	48
NMHLD	49	96	6	48
NMTAP	49	192	6
NMTAP	49	192	7
NMTAP	49	240	6
NMTAP	49	240	7
NMTAP	49	288	0
NMTAP	49	288	5
NMHLD	50	0	4	48
NMHLD	50	0	6	48
NMHLD	50	96	1	48
NMHLD	50	96	3	48
NMTAP	50	192	0
NMTAP	50	192	1
NMTAP	50	240	0
NMTAP	50	240	1
NMTAP	50	288	2
NMTAP	50	288	7
NMHLD	51	0	4	48
NMHLD	51	0	5	48
NMHLD	51	96	0	48
NMHLD	51	96	1	48
NMTAP	51	192	2
NMTAP	51	192	3
NMTAP	51	240	2
NMTAP	51	240	3
NMTAP	51	288	1
NMTAP	51	288	4
NMHLD	52	0	0	48
NMHLD	52	0	7	48
NMHLD	52	96	2	48
NMHLD	52	96	5	48
NMTAP	52	192	0
NMTAP	52	192	7
BRTAP	52	240	1
BRTAP	52	240	6
BRTAP	52	288	1
BRTAP	52	288	6
NMSTR	53	0	1
NMSI_	53	0	1	96	48	3
NMHLD	53	0	5	1440
NMSTR	53	192	1
NMSI_	53	192	1	96	48	3
EXTAP	54	0	3
EXTAP	54	48	3
NMTAP	54	96	2
NMTAP	54	144	2
NMSTR	54	192	1
NMSCR	54	192	1	96	48	3
NMSTR	55	0	1
NMSI_	55	0	1	96	48	4
NMSTR	55	192	1
NMSI_	55	192	1	96	48	4
EXTAP	56	0	3
EXTAP	56	48	3
NMTAP	56	96	2
NMTAP	56	144	2
NMSTR	56	192	1
NMSCR	56	192	1	96	48	4
NMSTR	57	0	0
NMSI_	57	0	0	96	48	4
NMHLD	57	0	6	1344
NMSTR	57	192	0
NMSI_	57	192	0	96	48	4
EXTAP	58	0	2
EXTAP	58	48	2
NMTAP	58	96	1
NMTAP	58	144	1
NMSTR	58	192	0
NMSUR	58	192	0	96	48	4
NMSTR	59	0	0
NMSCR	59	0	0	96	48	4
NMSTR	59	192	0
NMSCR	59	192	0	96	48	4
EXTAP	60	0	2
EXTAP	60	48	2
NMTAP	60	96	1
NMTAP	60	144	1
NMTAP	60	192	0
BRTAP	60	288	1
BRTAP	60	288	5
NMTTP	61	48	5	A	0	M1
NMTTP	61	96	6	E	0	M1
NMTTP	61	144	5	B	0	M1
NMTTP	61	192	0	C	0	M1
NMTTP	61	240	2	B	0	M1
NMTTP	61	288	2	E	0	M1
NMTTP	61	336	2	A	0	M1
NMTTP	62	48	5	A	0	M1
NMTTP	62	96	6	E	0	M1
NMTTP	62	144	5	B	0	M1
NMTTP	62	192	0	C	0	M1
NMTTP	62	240	2	B	0	M1
NMTTP	62	288	2	E	0	M1
NMTTP	62	336	2	A	0	M1
NMTTP	63	48	5	A	0	M1
NMTTP	63	96	6	E	0	M1
NMTTP	63	144	5	B	0	M1
NMTTP	63	192	0	C	0	M1
NMTTP	63	240	2	B	0	M1
NMTTP	63	288	2	E	0	M1
NMTTP	63	336	2	A	0	M1
NMTTP	64	48	5	B	0	M1
NMTTP	64	96	4	B	0	M1
NMTTP	64	144	3	B	0	M1
NMTTP	64	192	2	B	0	M1
NMTAP	64	288	0
NMTAP	64	288	7
NMSTR	65	0	0
NMSI_	65	0	0	96	48	4
NMSTR	65	0	1
NMSCR	65	0	1	96	48	4
NMSTR	65	192	0
NMSI_	65	192	0	96	48	4
NMSTR	65	192	1
NMSCR	65	192	1	96	48	4
NMTAP	66	0	2
NMTAP	66	0	6
NMTAP	66	48	1
NMTAP	66	48	7
NMSTR	66	96	0
NMSF_	66	96	0	96	48	4
NMSTR	67	0	6
NMSCL	67	0	6	96	48	3
NMSTR	67	0	7
NMSI_	67	0	7	96	48	3
NMSTR	67	192	6
NMSCL	67	192	6	96	48	3
NMSTR	67	192	7
NMSI_	67	192	7	96	48	3
NMTAP	68	0	1
NMTAP	68	0	5
NMTAP	68	48	0
NMTAP	68	48	6
NMSTR	68	96	7
NMSF_	68	96	7	96	48	3
NMSTR	69	0	1
NMSCR	69	0	1	96	48	5
NMSTR	69	0	7
NMSUR	69	0	7	96	48	5
NMSTR	69	192	1
NMSCR	69	192	1	96	48	5
NMSTR	69	192	7
NMSUR	69	192	7	96	48	5
NMTAP	70	0	2
NMTAP	70	0	6
NMTAP	70	48	1
NMTAP	70	48	7
NMSTR	70	96	0
NMSF_	70	96	0	96	48	4
NMSTR	71	0	0
NMSUL	71	0	0	96	48	2
NMSTR	71	0	6
NMSCL	71	0	6	96	48	2
NMSTR	71	192	0
NMSUL	71	192	0	96	48	2
NMSTR	71	192	6
NMSCL	71	192	6	96	48	2
NMSTR	72	0	7
NMSCL	72	0	7	96	48	4
NMSCR	72	0	7	96	48	2
NMSTR	72	96	7
BRSF_	72	96	7	96	48	3
BRTAP	72	192	7
EXHLD	73	0	4	48
EXHLD	73	0	5	48
NMHLD	73	96	2	48
NMHLD	73	96	3	48
NMTAP	73	192	0
NMTAP	73	192	1
NMTAP	73	240	2
NMTAP	73	240	7
NMTAP	73	288	3
NMTAP	73	288	6
NMHLD	74	0	2	48
NMHLD	74	0	3	48
NMHLD	74	96	4	48
NMHLD	74	96	5	48
NMTAP	74	192	6
NMTAP	74	192	7
NMTAP	74	240	0
NMTAP	74	240	5
NMTAP	74	288	1
NMTAP	74	288	4
NMHLD	75	0	0	48
NMHLD	75	0	1	48
NMHLD	75	96	2	48
NMHLD	75	96	3	48
NMTAP	75	192	4
NMTAP	75	192	5
NMTAP	75	240	3
NMTAP	75	240	6
NMTAP	75	288	2
NMTAP	75	288	7
NMHLD	76	0	6	48
NMHLD	76	0	7	48
NMHLD	76	96	4	48
NMHLD	76	96	5	48
NMTAP	76	192	2
NMTAP	76	192	3
BRTAP	76	240	0
BRTAP	76	288	0
NMHLD	77	0	5	48
NMHLD	77	0	6	48
NMHLD	77	96	3	48
NMHLD	77	96	4	48
NMTAP	77	192	0
NMTAP	77	192	1
NMTAP	77	240	2
NMTAP	77	240	7
NMTAP	77	288	3
NMTAP	77	288	6
NMHLD	78	0	1	48
NMHLD	78	0	2	48
NMHLD	78	96	3	48
NMHLD	78	96	4	48
NMTAP	78	192	6
NMTAP	78	192	7
NMTAP	78	240	0
NMTAP	78	240	5
NMTAP	78	288	1
NMTAP	78	288	4
NMHLD	79	0	4	48
NMHLD	79	0	5	48
NMHLD	79	96	0	48
NMHLD	79	96	1	48
NMTAP	79	192	2
NMTAP	79	192	3
NMTAP	79	240	1
NMTAP	79	240	4
NMTAP	79	288	0
NMTAP	79	288	5
NMHLD	80	0	1	48
NMHLD	80	0	6	48
NMHLD	80	96	3	48
NMHLD	80	96	4	48
NMTAP	80	192	0
NMTAP	80	192	7
BRTAP	80	240	1
BRTAP	80	240	6
BRTAP	80	288	1
BRTAP	80	288	6
NMSTR	81	0	1
NMSI_	81	0	1	96	48	4
NMHLD	81	0	6	1344
NMSTR	81	192	1
NMSI_	81	192	1	96	48	4
EXTAP	82	0	5
EXTAP	82	48	4
NMTAP	82	96	3
NMTAP	82	144	2
NMSTR	82	192	1
NMSCR	82	192	1	96	48	4
EXSTR	83	0	1
NMSUR	83	0	1	96	48	5
NMSTR	83	192	1
NMSUR	83	192	1	96	48	5
EXTAP	84	0	5
EXTAP	84	48	4
NMTAP	84	96	3
NMTAP	84	144	2
NMSTR	84	192	1
NMSCR	84	192	1	96	48	5
NMSTR	85	0	0
NMSI_	85	0	0	96	48	5
NMHLD	85	0	7	1344
NMSTR	85	192	0
NMSI_	85	192	0	96	48	5
EXTAP	86	0	4
EXTAP	86	48	3
NMTAP	86	96	2
NMTAP	86	144	1
NMSTR	86	192	0
NMSV_	86	192	0	96	48	5
EXSTR	87	0	0
NMSUR	87	0	0	96	48	5
NMSTR	87	192	0
NMSUR	87	192	0	96	48	5
EXTAP	88	0	4
EXTAP	88	48	3
NMTAP	88	96	2
NMTAP	88	144	1
NMTAP	88	192	0
BRTAP	88	288	0
BRTAP	88	288	7
NMHLD	89	0	0	48
NMHLD	89	0	1	48
NMHLD	89	96	3	48
NMHLD	89	96	4	48
NMTAP	89	192	6
NMTAP	89	192	7
NMTAP	89	240	0
NMTAP	89	240	5
NMTAP	89	288	1
NMTAP	89	288	4
NMHLD	90	0	6	48
NMHLD	90	0	7	48
NMHLD	90	96	3	48
NMHLD	90	96	4	48
NMTAP	90	192	0
NMTAP	90	192	1
NMTAP	90	240	2
NMTAP	90	240	7
NMTAP	90	288	3
NMTAP	90	288	6
NMHLD	91	0	5	48
NMHLD	91	0	6	48
NMHLD	91	96	1	48
NMHLD	91	96	2	48
NMTAP	91	192	3
NMTAP	91	192	4
NMTAP	91	240	2
NMTAP	91	240	5
NMTAP	91	288	1
NMTAP	91	288	6
NMHLD	92	0	0	48
NMHLD	92	0	7	48
NMHLD	92	96	3	48
NMHLD	92	96	4	48
NMTAP	92	192	0
NMTAP	92	192	7
BRTAP	92	240	1
BRTAP	92	240	6
BRTAP	92	288	1
BRTAP	92	288	6
NMTAP	93	0	6
NMTAP	93	0	7
NMTAP	93	48	5
NMTAP	93	96	6
NMTAP	93	96	7
NMTAP	93	144	0
NMTAP	93	192	6
NMTAP	93	192	7
NMTAP	93	240	5
NMTAP	93	288	3
NMTAP	93	288	4
NMTAP	93	336	2
NMTAP	94	0	0
NMTAP	94	0	1
NMTAP	94	48	2
NMTAP	94	96	0
NMTAP	94	96	1
NMTAP	94	144	7
NMTAP	94	192	0
NMTAP	94	192	1
NMTAP	94	240	2
NMTAP	94	288	3
NMTAP	94	288	4
NMTAP	94	336	5
NMTAP	95	0	6
NMTAP	95	0	7
NMTAP	95	48	6
NMTAP	95	48	7
NMTAP	95	96	0
NMTAP	95	96	1
NMTAP	95	144	0
NMTAP	95	144	1
NMTAP	95	192	2
NMTAP	95	192	3
NMTAP	95	240	2
NMTAP	95	240	3
NMTAP	95	288	4
NMTAP	95	288	5
NMTAP	95	336	4
NMTAP	95	336	5
NMTAP	96	0	3
NMTAP	96	24	6
NMTAP	96	48	3
NMTAP	96	72	6
NMSTR	96	96	3
BRSI_	96	96	3	96	48	7
NMSTR	96	192	3
BRSF_	96	192	3	96	48	7
NMTTP	96	288	0	C	1	M1

T_REC_TAP	241
T_REC_BRK	25
T_REC_XTP	25
T_REC_BXX	4
T_REC_HLD	91
T_REC_XHO	6
T_REC_BHO	0
T_REC_BXH	0
T_REC_STR	100
T_REC_BST	0
T_REC_XST	8
T_REC_XBS	0
T_REC_TTP	54
T_REC_THO	1
T_REC_SLD	106
T_REC_BSL	5
T_REC_ALL	666
T_NUM_TAP	428
T_NUM_BRK	34
T_NUM_HLD	98
T_NUM_SLD	106
T_NUM_ALL	666
T_JUDGE_TAP	457
T_JUDGE_HLD	250
T_JUDGE_SLD	111
T_JUDGE_ALL	818
TTM_EACHPAIRS	178
TTM_SCR_TAP	214000
TTM_SCR_BRK	88400
TTM_SCR_HLD	98000
TTM_SCR_SLD	159000
TTM_SCR_ALL	559400
TTM_SCR_S	539350
TTM_SCR_SS	556000
TTM_RAT_ACV	10061

