VERSION	0.00.00	1.04.00
FES_MODE	0
BPM_DEF	180.000	180.000	180.000	180.000
MET_DEF	4	4
RESOLUTION	384
CLK_DEF	384
COMPATIBLE_CODE	MA2

BPM	0	0	180.000
MET	0	0	4	4

NMTAP	5	0	0
NMTAP	5	0	7
NMTAP	5	96	4
NMTAP	5	96	5
NMTAP	5	192	0
NMTAP	5	192	7
NMHLD	5	288	2	288
NMSTR	5	288	3
NMSUR	5	288	3	96	192	4
NMTAP	7	0	0
NMTAP	7	0	7
NMTAP	7	96	2
NMTAP	7	96	3
NMTAP	7	192	0
NMTAP	7	192	7
NMSTR	7	288	4
NMSUL	7	288	4	96	192	3
NMHLD	7	288	5	288
NMTAP	9	0	0
NMTAP	9	0	7
NMTAP	9	96	4
NMTAP	9	96	5
NMTAP	9	192	0
NMTAP	9	192	7
NMHLD	9	288	2	288
NMSTR	9	288	3
NMSUR	9	288	3	96	192	4
NMTAP	11	0	0
NMTAP	11	0	7
NMTAP	11	96	2
NMTAP	11	96	3
NMTAP	11	192	0
NMTAP	11	192	7
NMSTR	11	288	4
NMSUL	11	288	4	96	192	3
NMHLD	11	288	5	288
NMHLD	13	0	1	96
NMTAP	13	96	3
NMHLD	13	192	5	96
NMTAP	13	288	3
NMHLD	14	0	1	96
NMSTR	14	96	3
NMSI_	14	96	3	96	48	5
NMHLD	15	0	6	96
NMTAP	15	96	4
NMHLD	15	192	2	96
NMTAP	15	288	4
NMHLD	16	0	6	96
NMTAP	16	96	4
NMTTP	16	192	4	E	0	M1
EXTAP	17	0	1
EXTAP	17	0	7
EXTAP	17	96	1
EXTAP	17	96	7
EXTAP	17	192	0
EXTAP	17	192	6
EXTAP	17	288	0
EXTAP	17	288	6
EXTAP	18	0	1
EXTAP	18	0	7
EXTAP	18	96	0
EXTAP	18	96	6
BXTAP	18	192	1
BXTAP	18	192	7
NMTAP	19	0	0
NMTAP	19	0	6
NMTAP	19	96	0
NMTAP	19	96	6
NMTAP	19	192	1
NMTAP	19	192	7
NMTAP	19	288	1
NMTAP	19	288	7
NMTAP	20	0	0
NMTAP	20	0	6
NMHLD	20	96	0	96
NMHLD	20	96	6	96
BRTAP	20	288	7
NMSTR	21	0	0
NMSCR	21	0	0	96	192	5
NMHLD	21	0	6	288
NMHLD	22	0	1	288
NMSTR	22	0	7
NMSCL	22	0	7	96	192	2
NMSTR	23	0	0
NMSCR	23	0	0	96	192	5
NMHLD	23	0	6	288
NMTAP	24	0	1
NMTAP	24	0	7
NMTAP	24	96	1
NMTAP	24	96	7
NMTAP	24	192	3
NMTAP	24	192	5
NMTAP	24	288	3
NMTAP	24	288	5
NMHLD	25	0	2	288
NMSTR	25	0	4
NMSCL	25	0	4	96	192	7
NMSTR	26	0	3
NMSCR	26	0	3	96	192	0
NMHLD	26	0	5	288
NMHLD	27	0	2	288
NMSTR	27	0	4
NMSCL	27	0	4	96	192	7
BXTAP	28	0	3
BXTAP	28	0	5
BXTAP	28	96	3
BXTAP	28	96	5
BXTAP	28	192	2
BXTAP	28	192	6
BXTAP	28	288	2
BXTAP	28	288	6
NMSTR	29	0	1
NMSCL	29	0	1	96	96	6
NMHLD	29	0	5	288
CNSI_	29	192	6	0	96	3
NMHLD	30	0	2	288
NMSTR	30	0	6
NMSCR	30	0	6	96	96	1
CNSI_	30	192	1	0	96	4
NMSTR	31	0	1
NMSCL	31	0	1	96	96	6
NMHLD	31	0	5	288
CNSI_	31	192	6	0	96	3
NMTAP	32	0	2
NMTAP	32	0	6
NMTAP	32	96	2
NMTAP	32	96	6
NMTAP	32	192	1
NMTAP	32	192	5
NMTAP	32	288	2
NMTAP	32	288	6
NMHLD	33	0	1	288
NMSTR	33	0	5
NMSCL	33	0	5	96	96	2
CNSI_	33	192	2	0	96	7
NMSTR	34	0	2
NMSCR	34	0	2	96	96	5
NMHLD	34	0	6	288
CNSI_	34	192	5	0	96	0
NMTAP	35	0	1
NMTAP	35	0	5
BRTAP	35	96	7
NMTAP	35	192	2
NMTAP	35	192	6
BRTAP	35	288	0
NMTAP	36	0	2
NMTAP	36	0	4
NMTAP	36	96	1
NMTAP	36	96	5
NMHLD	36	192	0	96
NMTAP	36	192	6
BRTAP	36	288	7
NMTAP	37	0	0
NMTAP	37	0	7
NMTAP	37	96	3
NMTAP	37	96	5
NMTAP	37	192	0
NMTAP	37	192	7
NMHLD	37	288	2	288
NMSTR	37	288	4
NMSXR	37	288	4	96	192	7
NMTAP	39	0	0
NMTAP	39	0	7
NMTAP	39	96	2
NMTAP	39	96	4
NMTAP	39	192	0
NMTAP	39	192	7
NMSTR	39	288	3
NMSXL	39	288	3	96	192	0
NMHLD	39	288	5	288
NMTAP	41	0	0
NMTAP	41	0	7
NMTAP	41	96	3
NMTAP	41	96	5
NMTAP	41	192	0
NMTAP	41	192	7
NMHLD	41	288	2	288
NMSTR	41	288	4
NMSXR	41	288	4	96	192	6
NMTAP	43	0	0
NMTAP	43	0	7
NMTAP	43	96	2
NMTAP	43	96	4
NMTAP	43	192	0
NMTAP	43	192	7
NMSTR	43	288	3
NMSXL	43	288	3	96	192	1
NMHLD	43	288	5	288
NMHLD	45	0	4	48
NMHLD	45	0	6	48
NMHLD	45	96	4	48
NMHLD	45	96	6	48
NMTAP	45	192	7
NMTAP	45	240	7
NMTAP	45	288	0
NMHLD	46	0	1	48
NMHLD	46	0	3	48
NMHLD	46	96	1	48
NMHLD	46	96	3	48
NMTAP	46	192	0
NMTAP	46	240	0
NMTAP	46	288	7
NMHLD	47	0	4	48
NMHLD	47	0	6	48
NMHLD	47	96	4	48
NMHLD	47	96	6	48
NMTAP	47	192	7
NMTAP	47	240	7
NMTAP	47	288	0
NMHLD	48	0	1	48
NMHLD	48	0	3	48
NMHLD	48	96	1	48
NMHLD	48	96	3	48
NMTAP	48	192	0
EXTAP	48	240	0
EXTAP	48	288	0
EXTAP	48	288	7
NMHLD	49	0	1	48
NMHLD	49	0	3	48
NMHLD	49	96	1	48
NMHLD	49	96	3	48
NMTAP	49	192	0
NMTAP	49	240	0
NMTAP	49	288	7
NMHLD	50	0	4	48
NMHLD	50	0	6	48
NMHLD	50	96	4	48
NMHLD	50	96	6	48
NMTAP	50	192	7
NMTAP	50	240	7
NMTAP	50	288	0
NMHLD	51	0	1	48
NMHLD	51	0	3	48
NMHLD	51	96	1	48
NMHLD	51	96	3	48
NMTAP	51	192	0
NMTAP	51	240	0
NMTAP	51	288	7
NMHLD	52	0	4	48
NMHLD	52	0	6	48
NMHLD	52	96	4	48
NMHLD	52	96	6	48
NMTAP	52	192	7
EXTAP	52	240	0
EXTAP	52	240	7
EXTAP	52	288	0
EXTAP	52	288	7
NMTAP	53	0	1
NMHLD	53	0	7	672
NMTAP	53	96	3
NMTAP	53	192	1
NMTAP	53	288	3
NMTAP	54	0	2
NMTAP	54	96	4
NMTAP	54	192	1
NMTAP	54	288	3
NMTAP	55	0	0
NMHLD	55	0	6	672
NMTAP	55	96	4
NMTAP	55	192	0
NMTAP	55	288	4
NMTAP	56	0	1
NMTAP	56	96	3
NMTAP	56	192	0
NMTAP	56	288	4
NMTAP	57	0	1
NMHLD	57	0	7	672
NMTAP	57	96	3
NMTAP	57	192	1
NMTAP	57	288	3
NMTAP	58	0	2
NMTAP	58	96	4
NMTAP	58	192	1
NMTAP	58	288	3
NMTAP	59	0	0
NMHLD	59	0	6	576
NMTAP	59	96	4
NMTAP	59	192	0
NMTAP	59	288	4
NMTAP	60	0	1
NMTAP	60	96	3
BRTAP	60	192	0
NMTTP	61	0	5	E	0	M1
NMTTP	61	96	4	B	0	M1
NMTTP	61	192	3	B	0	M1
NMTTP	61	288	3	E	0	M1
NMTTP	62	0	5	E	0	M1
NMTTP	62	96	4	B	0	M1
NMTTP	62	192	3	B	0	M1
NMTTP	62	288	3	E	0	M1
NMTTP	63	0	5	E	0	M1
NMTTP	63	96	4	B	0	M1
NMTTP	63	192	3	B	0	M1
NMTTP	63	288	3	E	0	M1
NMTTP	64	0	5	B	0	M1
NMTTP	64	0	5	E	0	M1
NMTTP	64	96	3	B	0	M1
NMTTP	64	96	4	B	0	M1
NMTTP	64	192	2	B	0	M1
NMTTP	64	192	3	E	0	M1
NMSTR	65	0	0
NMSI_	65	0	0	96	48	4
NMSTR	65	0	1
NMSI_	65	0	1	96	48	3
NMSTR	65	192	0
NMSI_	65	192	0	96	48	4
NMSTR	65	192	1
NMSI_	65	192	1	96	48	3
NMTAP	66	0	1
NMTAP	66	48	1
NMTAP	66	96	0
NMTAP	66	192	2
NMTAP	66	192	7
NMTAP	66	288	4
NMTAP	66	288	5
NMSTR	67	0	6
NMSI_	67	0	6	96	48	4
NMSTR	67	0	7
NMSI_	67	0	7	96	48	3
NMSTR	67	192	6
NMSI_	67	192	6	96	48	4
NMSTR	67	192	7
NMSI_	67	192	7	96	48	3
NMTAP	68	0	6
NMTAP	68	48	6
NMTAP	68	96	7
NMTAP	68	192	0
NMTAP	68	192	5
NMTAP	68	288	2
NMTAP	68	288	3
NMSTR	69	0	0
NMSI_	69	0	0	96	48	4
NMSTR	69	0	1
NMSI_	69	0	1	96	48	3
NMSTR	69	192	0
NMSI_	69	192	0	96	48	4
NMSTR	69	192	1
NMSI_	69	192	1	96	48	3
NMTAP	70	0	1
NMTAP	70	48	1
NMTAP	70	96	0
NMTAP	70	192	2
NMTAP	70	192	7
NMTAP	70	288	4
NMTAP	70	288	5
NMSTR	71	0	6
NMSI_	71	0	6	96	48	4
NMSTR	71	0	7
NMSI_	71	0	7	96	48	3
NMSTR	71	192	6
NMSI_	71	192	6	96	48	4
NMSTR	71	192	7
NMSI_	71	192	7	96	48	3
NMTAP	72	0	6
NMTAP	72	48	6
NMTAP	72	96	7
NMTAP	72	192	0
NMTAP	72	192	5
BRTAP	72	288	0
BRTAP	72	288	5
NMHLD	73	0	1	48
NMHLD	73	0	7	48
NMHLD	73	96	1	48
NMHLD	73	96	7	48
NMTAP	73	192	5
NMTAP	73	240	5
NMTAP	73	288	4
NMHLD	74	0	0	48
NMHLD	74	0	6	48
NMHLD	74	96	0	48
NMHLD	74	96	6	48
NMTAP	74	192	2
NMTAP	74	240	2
NMTAP	74	288	3
NMHLD	75	0	1	48
NMHLD	75	0	7	48
NMHLD	75	96	1	48
NMHLD	75	96	7	48
NMTAP	75	192	5
NMTAP	75	240	5
NMTAP	75	288	4
NMHLD	76	0	0	48
NMHLD	76	0	6	48
NMHLD	76	96	0	48
NMHLD	76	96	6	48
NMTAP	76	192	2
EXTAP	76	240	2
EXTAP	76	288	2
EXTAP	76	288	3
NMHLD	77	0	0	48
NMHLD	77	0	6	48
NMHLD	77	96	0	48
NMHLD	77	96	6	48
NMTAP	77	192	2
NMTAP	77	240	2
NMTAP	77	288	3
NMHLD	78	0	1	48
NMHLD	78	0	7	48
NMHLD	78	96	1	48
NMHLD	78	96	7	48
NMTAP	78	192	5
NMTAP	78	240	5
NMTAP	78	288	4
NMHLD	79	0	0	48
NMHLD	79	0	6	48
NMHLD	79	96	0	48
NMHLD	79	96	6	48
NMTAP	79	192	2
NMTAP	79	240	2
NMTAP	79	288	3
NMHLD	80	0	1	48
NMHLD	80	0	7	48
NMHLD	80	96	1	48
NMHLD	80	96	7	48
NMTAP	80	192	5
EXTAP	80	240	5
EXTAP	80	288	4
EXTAP	80	288	5
NMTAP	81	0	1
NMHLD	81	0	7	576
NMTAP	81	96	3
NMTAP	81	192	2
NMTAP	81	288	4
NMTAP	82	0	1
NMTAP	82	96	3
NMSTR	82	192	1
NMSI_	82	192	1	96	48	3
NMTAP	83	0	0
NMHLD	83	0	6	576
NMTAP	83	96	4
NMTAP	83	192	1
NMTAP	83	288	3
NMTAP	84	0	0
NMTAP	84	96	4
NMSTR	84	192	0
NMSI_	84	192	0	96	48	4
NMTAP	85	0	1
NMHLD	85	0	7	576
NMTAP	85	96	3
NMTAP	85	192	2
NMTAP	85	288	4
NMTAP	86	0	1
NMTAP	86	96	3
NMSTR	86	192	1
NMSI_	86	192	1	96	48	3
NMTAP	87	0	0
NMHLD	87	0	6	576
NMTAP	87	96	4
NMTAP	87	192	1
NMTAP	87	288	3
NMTAP	88	0	0
NMTAP	88	96	4
NMSTR	88	192	0
NMSI_	88	192	0	96	48	4
NMHLD	89	0	3	48
NMHLD	89	0	5	48
NMHLD	89	96	3	48
NMHLD	89	96	5	48
NMTAP	89	192	7
NMTAP	89	240	7
NMTAP	89	288	0
NMTAP	89	288	6
NMHLD	90	0	2	48
NMHLD	90	0	4	48
NMHLD	90	96	2	48
NMHLD	90	96	4	48
NMTAP	90	192	0
NMTAP	90	240	0
NMTAP	90	288	1
NMTAP	90	288	7
NMHLD	91	0	3	48
NMHLD	91	0	5	48
NMHLD	91	96	3	48
NMHLD	91	96	5	48
NMTAP	91	192	7
NMTAP	91	240	7
NMTAP	91	288	0
NMTAP	91	288	6
NMHLD	92	0	2	48
NMHLD	92	0	4	48
NMHLD	92	96	2	48
NMHLD	92	96	4	48
NMTAP	92	192	0
NMTAP	92	240	0
BRTAP	92	288	0
BRTAP	92	288	7
NMHLD	93	0	1	48
NMHLD	93	0	5	48
NMHLD	93	96	2	48
NMHLD	93	96	4	48
NMTAP	93	192	0
NMTAP	93	240	0
NMTAP	93	288	1
NMTAP	93	288	7
NMHLD	94	0	2	48
NMHLD	94	0	6	48
NMHLD	94	96	3	48
NMHLD	94	96	5	48
NMTAP	94	192	7
NMTAP	94	240	7
NMTAP	94	288	0
NMTAP	94	288	6
NMHLD	95	0	1	48
NMHLD	95	0	5	48
NMHLD	95	96	2	48
NMHLD	95	96	4	48
NMTAP	95	192	0
NMTAP	95	240	0
NMTAP	95	288	1
NMTAP	95	288	7
NMHLD	96	0	2	48
NMHLD	96	0	6	48
NMHLD	96	96	1	48
NMHLD	96	96	7	48
NMSTR	96	192	0
BRSF_	96	192	0	96	96	4

T_REC_TAP	234
T_REC_BRK	9
T_REC_XTP	25
T_REC_BXX	10
T_REC_HLD	132
T_REC_XHO	0
T_REC_BHO	0
T_REC_BXH	0
T_REC_STR	41
T_REC_BST	0
T_REC_XST	0
T_REC_XBS	0
T_REC_TTP	19
T_REC_THO	0
T_REC_SLD	40
T_REC_BSL	1
T_REC_ALL	511
T_NUM_TAP	319
T_NUM_BRK	20
T_NUM_HLD	132
T_NUM_SLD	40
T_NUM_ALL	511
T_JUDGE_TAP	338
T_JUDGE_HLD	330
T_JUDGE_SLD	41
T_JUDGE_ALL	709
TTM_EACHPAIRS	157
TTM_SCR_TAP	159500
TTM_SCR_BRK	52000
TTM_SCR_HLD	132000
TTM_SCR_SLD	60000
TTM_SCR_ALL	403500
TTM_SCR_S	389500
TTM_SCR_SS	401500
TTM_RAT_ACV	10049

