VERSION	0.00.00	1.04.00
FES_MODE	0
BPM_DEF	190.000	190.000	190.000	190.000
MET_DEF	4	4
RESOLUTION	384
CLK_DEF	384
COMPATIBLE_CODE	MA2

BPM	0	0	190.000
MET	0	0	4	4

NMTAP	1	336	2
NMTAP	1	336	3
NMHLD	2	0	1	96
NMHLD	2	0	4	96
NMTAP	2	144	4
NMTAP	2	144	5
NMHLD	2	192	3	96
NMHLD	2	192	6	96
NMTAP	2	336	3
NMTAP	2	336	4
NMSTR	3	0	2
NMSI_	3	0	2	96	48	0
NMSTR	3	0	5
NMSI_	3	0	5	96	48	7
NMSTR	3	192	1
NMSI_	3	192	1	96	48	4
NMSTR	3	192	6
NMSI_	3	192	6	96	48	3
EXTAP	3	288	1
EXTAP	3	288	6
NMTAP	4	0	5
NMSTR	4	48	6
NMSCL	4	48	6	96	48	3
NMTAP	4	144	2
NMTAP	4	192	1
NMSTR	4	240	0
NMSCR	4	240	0	96	48	3
NMTAP	4	336	4
NMHLD	5	0	5	96
NMSTR	5	96	4
NMSI_	5	96	4	96	48	0
NMSTR	5	192	6
NMSCL	5	192	6	96	48	3
NMTAP	5	288	1
NMTAP	6	0	1
NMSTR	6	48	0
NMSCR	6	48	0	96	48	3
NMTAP	6	144	4
NMTAP	6	192	5
NMSTR	6	240	6
NMSCL	6	240	6	96	48	3
NMTAP	6	336	2
NMHLD	7	0	1	96
NMSTR	7	96	3
NMSXL	7	96	3	96	96	4
NMSXR	7	96	3	96	96	2
NMTAP	8	0	2
NMSTR	8	48	1
NMSCR	8	48	1	96	48	4
NMTAP	8	144	5
NMTAP	8	192	6
NMSTR	8	240	7
NMSCL	8	240	7	96	48	4
NMTAP	8	336	3
NMHLD	9	0	2	96
NMSTR	9	96	3
NMSI_	9	96	3	96	48	7
NMSTR	9	192	1
NMSCR	9	192	1	96	48	4
NMTAP	9	288	6
NMTAP	10	0	6
NMSTR	10	48	7
NMSCL	10	48	7	96	48	4
NMTAP	10	144	3
NMTAP	10	192	2
NMSTR	10	240	1
NMSCR	10	240	1	96	48	4
NMTAP	10	336	5
NMHLD	11	0	6	96
NMTAP	11	96	4
NMTAP	11	192	2
NMTAP	11	192	4
NMTAP	11	240	2
NMTAP	11	240	4
NMTAP	11	288	2
NMTAP	11	288	4
NMSTR	12	0	0
NMSI_	12	0	0	96	48	3
NMSTR	12	0	1
NMSI_	12	0	1	96	48	3
NMSTR	12	192	0
NMSI_	12	192	0	96	48	3
NMSTR	12	192	1
NMSI_	12	192	1	96	48	3
NMHLD	13	0	0	48
NMHLD	13	0	1	48
NMHLD	13	96	0	48
NMHLD	13	96	1	48
NMHLD	13	192	2	48
NMHLD	13	192	3	48
NMHLD	13	288	2	48
NMHLD	13	288	3	48
NMSTR	14	0	2
NMSI_	14	0	2	96	48	0
NMSTR	14	0	3
NMSI_	14	0	3	96	48	0
NMSTR	14	192	2
NMSI_	14	192	2	96	48	0
NMSTR	14	192	3
NMSI_	14	192	3	96	48	0
NMSTR	15	0	2
NMSCL	15	0	2	96	48	7
NMHLD	15	0	4	96
EXTAP	15	240	3
EXTAP	15	288	3
NMSTR	16	0	0
NMSI_	16	0	0	96	48	3
NMSTR	16	0	1
NMSI_	16	0	1	96	48	4
NMSTR	16	192	0
NMSI_	16	192	0	96	48	4
NMSTR	16	192	7
NMSI_	16	192	7	96	48	2
NMTAP	17	0	0
NMTAP	17	0	1
NMTAP	17	96	0
NMTAP	17	96	1
NMTAP	17	192	2
NMTAP	17	240	2
NMTAP	17	288	3
NMHLD	18	0	1	192
NMHLD	18	0	4	192
NMTAP	18	240	2
NMTAP	18	240	3
NMSTR	18	288	2
NMSI_	18	288	2	96	48	6
NMSTR	18	288	3
NMSI_	18	288	3	96	48	7
NMSTR	19	96	0
NMSI_	19	96	0	96	48	4
NMSTR	19	96	1
NMSI_	19	96	1	96	48	5
EXHLD	19	288	6	48
EXHLD	19	288	7	48
NMTAP	20	0	4
NMTAP	20	0	5
NMSTR	20	96	4
NMSXL	20	96	4	96	96	6
NMTAP	20	96	5
NMTAP	20	192	5
NMTAP	20	288	5
NMTAP	21	48	4
NMTAP	21	48	6
NMSTR	21	96	4
NMSXL	21	96	4	96	96	6
NMTAP	21	96	6
NMTAP	21	192	5
NMTAP	21	288	5
NMTAP	22	48	4
NMTAP	22	48	6
NMHLD	22	96	4	48
NMHLD	22	96	6	48
NMHLD	22	192	5	48
NMHLD	22	192	7	48
NMHLD	22	288	4	48
NMHLD	22	288	6	48
NMHLD	23	0	5	48
NMHLD	23	0	7	48
NMSTR	23	96	4
NMSCR	23	96	4	96	48	5
NMHLD	23	96	6	48
CNSV_	23	240	5	0	48	7
NMTAP	24	0	6
NMSTR	24	96	6
NMSI_	24	96	6	96	48	3
NMSTR	24	96	7
NMSI_	24	96	7	96	48	4
NMTAP	24	288	6
NMTAP	24	336	6
NMTAP	25	0	6
NMTAP	25	0	7
NMSTR	25	96	6
NMSCL	25	96	6	96	48	3
NMSTR	25	96	7
NMSI_	25	96	7	96	48	2
EXTAP	25	288	2
EXTAP	25	288	4
EXTAP	25	336	2
EXTAP	25	336	4
NMTAP	26	48	3
NMTAP	26	48	5
NMTAP	26	96	3
NMSTR	26	96	5
NMSI_	26	96	5	96	48	7
NMSTR	26	192	4
NMSI_	26	192	4	96	48	0
NMSTR	26	288	7
NMSI_	26	288	7	96	48	3
NMSTR	27	0	0
NMSCR	27	0	0	96	48	3
NMTAP	27	96	4
NMSTR	27	192	5
NMSCR	27	192	5	96	96	1
NMSTR	27	288	1
NMSCL	27	288	1	96	96	5
NMTAP	28	0	3
NMTAP	28	96	3
NMTAP	28	192	2
NMTAP	28	288	1
NMTAP	28	336	1
NMTAP	29	0	3
NMTAP	29	48	3
NMTAP	29	96	2
NMHLD	29	144	2	96
NMTAP	29	240	3
NMTAP	29	288	3
NMSTR	30	0	1
NMSI_	30	0	1	96	48	3
NMSTR	30	0	4
NMSI_	30	0	4	96	48	6
NMTAP	30	192	3
NMTAP	30	192	6
NMTAP	30	288	4
NMTAP	30	288	7
NMTAP	30	336	4
NMTAP	30	336	7
NMSTR	31	48	3
NMSI_	31	48	3	96	48	1
NMSTR	31	48	6
NMSI_	31	48	6	96	48	4
EXHLD	31	288	0	96
NMTAP	32	0	7
NMSTR	32	96	6
NMSCL	32	96	6	96	48	3
NMSTR	32	96	7
NMSCR	32	96	7	96	48	2
NMTAP	32	288	1
NMTAP	32	288	4
NMTAP	32	336	1
NMTAP	32	336	4
NMSTR	33	48	2
NMSCL	33	48	2	96	48	0
NMSTR	33	48	3
NMSUR	33	48	3	96	48	7
NMTAP	33	288	2
NMTAP	33	288	4
NMTAP	34	0	3
NMTAP	34	48	3
NMSTR	34	96	5
NMSXR	34	96	5	96	192	2
NMTAP	34	144	5
EXTAP	34	192	0
EXTAP	34	288	0
NMHLD	35	0	0	144
NMTAP	35	144	6
NMTAP	35	192	6
NMSTR	35	288	6
BRSI_	35	288	6	96	48	2
NMSTR	35	288	7
BRSI_	35	288	7	96	48	3
BRTAP	36	0	6
BRTAP	36	0	7
NMSTR	36	96	0
BRSI_	36	96	0	96	48	4
NMSTR	36	96	1
BRSI_	36	96	1	96	48	5
BRTAP	36	192	0
BRTAP	36	192	1
NMSTR	36	288	6
BRSI_	36	288	6	96	48	3
NMSTR	36	288	7
BRSI_	36	288	7	96	48	4
NMSTR	37	0	6
BRSI_	37	0	6	96	48	1
NMSTR	37	0	7
BRSI_	37	0	7	96	48	2
EXTAP	37	240	0
EXTAP	37	240	4
NMSTR	37	288	0
BRSV_	37	288	0	96	48	2
NMSTR	37	288	4
BRSV_	37	288	4	96	48	6
NMSTR	38	96	3
BRSV_	38	96	3	96	48	5
NMSTR	38	96	7
BRSV_	38	96	7	96	48	1
NMTAP	38	288	0
NMTAP	38	288	4
NMSTR	39	0	2
NMSCL	39	0	2	96	48	7
NMSTR	39	0	6
NMSCL	39	0	6	96	48	3
BRTAP	39	96	2
BRTAP	39	96	6
EXTAP	39	240	0
EXTAP	39	240	4
EXTAP	39	288	0
EXSTR	39	288	4
NMSI_	39	288	4	96	48	0
NMSTR	40	0	2
NMSI_	40	0	2	96	48	7
NMSTR	40	96	5
NMSI_	40	96	5	96	48	0
NMSTR	40	192	3
NMSI_	40	192	3	96	48	7
NMSTR	40	288	4
NMSI_	40	288	4	96	48	0
NMSTR	41	0	3
NMSF_	41	0	3	96	48	7
EXTAP	41	192	1
EXTAP	41	192	5
NMTAP	41	288	6
NMSTR	41	336	7
NMSI_	41	336	7	96	48	3
NMTAP	42	48	3
NMTAP	42	96	2
CNSI_	42	96	3	0	48	5
NMSTR	42	144	1
NMSCR	42	144	1	96	48	4
NMTAP	42	240	5
NMSTR	42	288	6
BRSI_	42	288	6	96	48	2
NMSTR	43	0	0
BRSI_	43	0	0	96	48	4
BRTAP	43	0	6
BRTAP	43	96	0
NMTAP	43	96	7
NMTAP	43	240	2
NMTAP	43	240	6
NMTAP	43	288	2
NMTAP	43	288	6
NMTAP	44	0	1
NMHLD	44	48	1	96
NMTAP	44	144	3
NMTAP	44	192	3
NMTAP	44	240	2
NMTAP	44	336	4
NMTAP	44	336	6
NMTAP	45	48	0
NMTAP	45	48	2
NMTAP	45	144	5
NMTAP	45	144	7
NMTAP	45	240	1
NMTAP	45	288	1
NMTAP	45	336	3
NMTAP	46	0	4
NMHLD	46	48	5	96
NMTAP	46	144	4
NMTAP	46	192	4
NMHLD	46	240	6	96
NMTAP	46	336	0
NMTAP	47	0	0
NMTAP	47	48	3
NMTAP	47	96	3
NMTAP	47	144	1
NMTAP	47	192	5
NMTAP	47	240	3
NMTAP	47	288	7
NMTAP	47	336	4
NMTAP	48	0	3
NMHLD	48	48	2	96
NMTAP	48	144	3
NMTAP	48	192	3
NMHLD	48	240	1	96
NMTAP	48	336	0
NMTTP	49	48	2	E	0	M1
NMTTP	49	96	3	E	0	M1
NMTTP	49	144	4	E	0	M1
NMTTP	49	192	5	E	0	M1
NMTTP	49	240	6	E	0	M1
NMTTP	49	288	7	E	0	M1
NMTTP	49	336	0	E	0	M1
NMTAP	50	0	2
NMHLD	50	48	1	96
NMTAP	50	144	3
NMTAP	50	192	3
NMTAP	50	240	0
NMTAP	50	336	4
NMTAP	50	336	7
NMTAP	51	48	6
NMTAP	51	96	5
NMTAP	51	144	4
NMTAP	51	192	3
NMTAP	51	240	2
NMTAP	51	288	1
NMSTR	52	0	0
NMSI_	52	0	0	96	48	4
NMSTR	52	0	1
NMSI_	52	0	1	96	48	4
NMSTR	52	192	6
NMSI_	52	192	6	96	48	3
NMSTR	52	192	7
NMSI_	52	192	7	96	48	3
NMTAP	53	0	2
NMTAP	53	0	4
NMTAP	53	48	1
NMTAP	53	48	5
NMSTR	53	96	0
NMSCR	53	96	0	96	48	3
NMSTR	53	96	6
NMSCL	53	96	6	96	48	3
NMTAP	53	288	1
NMTAP	53	288	5
NMHLD	54	0	2	48
NMHLD	54	0	4	48
NMHLD	54	96	3	48
NMHLD	54	96	5	48
NMHLD	54	192	1	48
NMHLD	54	192	3	48
NMHLD	54	288	4	48
NMHLD	54	288	6	48
NMTAP	55	0	3
NMTAP	55	48	2
NMTAP	55	96	1
NMTAP	55	144	0
BRSTR	55	192	7
NMSI_	55	192	7	96	48	3
BRTAP	55	240	7
BRTAP	55	288	1
NMSTR	56	0	0
NMSI_	56	0	0	96	48	3
NMSI_	56	0	0	96	48	4
NMSTR	56	192	7
NMSI_	56	192	7	96	48	2
NMSI_	56	192	7	96	48	3
NMHLD	57	0	1	48
NMHLD	57	0	4	48
NMHLD	57	96	3	48
NMHLD	57	96	6	48
NMSTR	57	192	1
NMSCR	57	192	1	96	48	3
NMSTR	57	192	4
NMSCR	57	192	4	96	48	6
NMSTR	58	0	7
NMSI_	58	0	7	96	48	4
NMTAP	58	48	7
NMSTR	58	96	0
NMSI_	58	96	0	96	48	3
NMTAP	58	144	0
NMSTR	58	192	7
NMSI_	58	192	7	96	48	4
NMTAP	58	240	7
NMHLD	58	288	0	96
NMHLD	59	0	2	96
NMHLD	59	96	4	96
NMHLD	59	192	6	96
NMSTR	59	288	0
NMSI_	59	288	0	96	48	4
NMTAP	60	0	0
NMTAP	60	0	7
NMTAP	60	96	7
NMTAP	60	192	0
NMTAP	60	192	6
NMHLD	60	288	1	48
NMHLD	60	288	5	48
NMHLD	61	0	1	48
NMHLD	61	0	5	48
NMHLD	61	96	2	48
NMHLD	61	96	6	48
NMHLD	61	192	2	48
NMHLD	61	192	6	48
NMTAP	61	288	3
NMSTR	61	288	5
BRSI_	61	288	5	96	48	7
NMSTR	62	0	4
BRSI_	62	0	4	96	48	2
NMSTR	62	96	5
BRSCR	62	96	5	96	48	7
NMSTR	62	192	4
BRSI_	62	192	4	96	48	1
NMSTR	62	288	5
BRSXL	62	288	5	96	192	0
NMTAP	63	0	1
NMTAP	63	96	1
NMTAP	63	192	2
NMTAP	63	288	1
NMTAP	63	288	3
NMHLD	64	0	2	48
NMHLD	64	0	3	48
NMHLD	64	96	2	48
NMHLD	64	96	3	48
NMHLD	64	192	2	144
NMHLD	64	192	4	144
NMHLD	65	0	2	48
NMHLD	65	0	3	48
NMHLD	65	96	1	144
NMHLD	65	96	3	144
NMSTR	65	288	0
BRSV_	65	288	0	96	48	6
NMSTR	65	288	4
BRSV_	65	288	4	96	48	2
NMSTR	66	96	3
BRSV_	66	96	3	96	48	1
NMSTR	66	96	7
BRSV_	66	96	7	96	48	5
NMSTR	66	288	3
BRSI_	66	288	3	96	48	0
NMSTR	66	288	4
BRSI_	66	288	4	96	48	7
NMTTP	67	0	3	A	0	M1
NMTTP	67	0	4	E	1	M1
NMTTP	67	0	4	A	0	M1
NMTAP	67	144	0
NMTAP	67	144	7
NMTAP	67	192	0
NMTAP	67	192	7
BRTAP	67	288	2
BRTAP	67	288	5
NMSTR	68	0	1
NMSI_	68	0	1	96	48	5
NMTAP	68	48	1
NMSTR	68	96	7
NMSI_	68	96	7	96	48	3
NMTAP	68	144	7
NMSTR	68	192	0
NMSI_	68	192	0	96	48	4
NMTAP	68	240	0
NMSTR	68	288	6
NMSXL	68	288	6	96	144	3
NMTAP	68	336	6
NMTAP	69	0	3
NMTAP	69	96	2
NMTAP	69	144	2
NMTAP	69	240	1
NMTAP	69	240	3
NMSTR	69	288	1
NMSI_	69	288	1	96	48	4
NMSTR	69	288	3
NMSI_	69	288	3	96	48	7
EXTAP	70	0	1
EXTAP	70	0	3
NMSTR	70	96	4
NMSI_	70	96	4	96	48	0
NMSTR	70	96	6
NMSI_	70	96	6	96	48	3
EXTAP	70	192	4
EXTAP	70	192	6
NMTAP	70	288	1
NMTAP	70	288	3
NMTTP	71	0	6	B	0	M1
NMTTP	71	0	6	A	0	M1
NMTTP	71	0	7	B	0	M1
NMTTP	71	0	7	E	0	M1
NMTTP	71	0	7	A	0	M1
NMTTP	71	0	7	D	1	M1
NMTTP	71	48	4	B	0	M1
NMTTP	71	48	4	A	0	M1
NMTTP	71	48	5	B	0	M1
NMTTP	71	48	5	E	0	M1
NMTTP	71	48	5	A	0	M1
NMTTP	71	48	5	D	1	M1
NMTTP	71	96	2	B	0	M1
NMTTP	71	96	2	A	0	M1
NMTTP	71	96	3	B	0	M1
NMTTP	71	96	3	E	0	M1
NMTTP	71	96	3	A	0	M1
NMTTP	71	96	3	D	1	M1
NMTTP	71	144	0	B	0	M1
NMTTP	71	144	0	A	0	M1
NMTTP	71	144	1	B	0	M1
NMTTP	71	144	1	E	0	M1
NMTTP	71	144	1	A	0	M1
NMTTP	71	144	1	D	1	M1
NMSTR	71	288	7
NMSCL	71	288	7	96	96	4
NMSTR	72	0	4
NMSCL	72	0	4	96	96	1
NMSTR	72	96	1
NMSCL	72	96	1	96	96	6
NMSTR	72	192	6
NMSCL	72	192	6	96	96	3
NMSTR	72	288	3
NMSCL	72	288	3	96	96	7
NMSTR	73	0	7
NMSCL	73	0	7	96	96	3
NMSTR	73	96	3
NMSCL	73	96	3	96	96	7
NMTAP	73	192	7
NMTAP	73	288	3
NMTAP	73	336	3
NMTAP	74	48	1
NMTAP	74	48	5
NMSTR	74	96	1
NMSI_	74	96	1	96	48	5
NMTAP	74	96	5
BRTAP	74	192	1
NMSTR	74	192	6
NMSI_	74	192	6	96	48	2
NMTAP	74	288	0
BRTAP	74	288	6
NMTAP	75	0	1
NMTAP	75	24	3
NMTAP	75	48	1
NMTAP	75	96	6
NMTAP	75	120	4
NMTAP	75	144	6
NMTAP	75	192	0
NMTAP	75	192	7
NMSTR	75	288	4
BRSI_	75	288	4	96	48	0
NMSTR	75	288	5
BRSI_	75	288	5	96	48	1
BRTAP	76	0	4
BRTAP	76	0	5
NMSTR	76	96	2
BRSI_	76	96	2	96	48	6
NMSTR	76	96	3
BRSI_	76	96	3	96	48	7
BRTAP	76	192	2
BRTAP	76	192	3
NMSTR	76	288	4
BRSI_	76	288	4	96	48	7
NMSTR	76	288	5
BRSI_	76	288	5	96	48	0
NMSTR	77	0	4
BRSI_	77	0	4	96	48	1
NMSTR	77	0	5
BRSI_	77	0	5	96	48	2
EXTAP	77	240	2
EXTAP	77	240	3
NMSTR	77	288	2
NMSI_	77	288	2	96	48	7
NMSTR	77	288	3
NMSI_	77	288	3	96	48	6
NMSTR	78	96	4
NMSI_	78	96	4	96	48	1
NMSTR	78	96	5
NMSI_	78	96	5	96	48	0
NMTAP	78	288	2
NMTAP	78	288	3
NMSTR	79	0	1
NMSI_	79	0	1	96	48	6
NMSTR	79	0	5
NMSI_	79	0	5	96	48	2
BRTAP	79	96	1
BRTAP	79	96	5
EXTAP	79	240	0
EXTAP	79	240	4
EXSTR	79	288	0
NMSI_	79	288	0	96	48	4
EXTAP	79	288	4
NMTAP	80	0	0
NMSTR	80	0	7
NMSI_	80	0	7	96	48	5
NMSTR	80	96	1
NMSI_	80	96	1	96	48	3
NMTAP	80	96	7
NMTAP	80	192	1
NMSTR	80	192	7
NMSI_	80	192	7	96	48	3
NMSTR	80	288	0
NMSI_	80	288	0	96	48	2
NMTAP	80	288	7
NMTAP	81	0	0
NMSTR	81	0	7
BRSF_	81	0	7	96	48	3
NMTAP	81	96	7
EXTAP	81	192	1
EXTAP	81	192	5
NMTAP	81	288	3
NMSTR	81	336	2
NMSI_	81	336	2	96	48	6
NMTAP	82	48	5
NMTAP	82	96	4
CNSI_	82	96	6	0	48	0
NMTAP	82	144	3
NMTAP	82	240	3
NMTAP	82	240	4
NMTAP	82	288	3
NMTAP	82	288	4
BRTAP	83	0	1
BRTAP	83	0	6
BRTAP	83	48	2
BRTAP	83	48	5
BRTAP	83	96	1
BRTAP	83	96	6
BRTAP	83	144	2
BRTAP	83	144	5
BRTAP	83	240	0
BRTAP	83	240	7
BRTAP	83	288	0
BRTAP	83	288	7
NMTAP	84	0	2
NMSTR	84	48	1
NMSCR	84	48	1	96	48	4
NMTAP	84	144	5
NMTAP	84	192	6
NMSTR	84	240	7
NMSCL	84	240	7	96	48	4
NMTAP	84	336	3
NMTAP	85	0	2
NMTAP	85	48	1
NMTAP	85	96	4
NMTAP	85	144	5
NMSTR	85	192	0
NMSCR	85	192	0	96	48	3
NMTAP	85	240	0
NMTAP	85	288	4
NMTAP	85	336	5
NMTAP	86	0	6
NMSTR	86	48	7
NMSCL	86	48	7	96	48	4
NMTAP	86	144	3
NMTAP	86	192	2
NMSTR	86	240	1
NMSCR	86	240	1	96	48	4
NMTAP	86	336	5
NMHLD	87	0	6	96
NMSTR	87	96	7
NMSXL	87	96	7	96	96	0
NMSXR	87	96	7	96	96	6
NMTAP	88	0	5
NMSTR	88	48	6
NMSCL	88	48	6	96	48	3
NMTAP	88	144	2
NMTAP	88	192	1
NMSTR	88	240	0
NMSCR	88	240	0	96	48	3
NMTAP	88	336	4
NMTAP	89	0	5
NMTAP	89	48	6
NMTAP	89	96	3
NMTAP	89	144	2
NMSTR	89	192	7
NMSCL	89	192	7	96	48	4
NMTAP	89	240	7
NMTAP	89	288	3
NMTAP	89	336	2
NMTAP	90	0	1
NMSTR	90	48	0
NMSCR	90	48	0	96	48	3
NMTAP	90	144	4
NMTAP	90	192	5
NMSTR	90	240	6
NMSCL	90	240	6	96	48	3
NMTAP	90	336	2
NMTAP	91	0	1
NMTAP	91	48	1
NMTAP	91	96	7
NMTAP	91	144	7
NMTAP	91	192	4
NMTAP	91	240	3
NMSTR	91	288	2
NMSI_	91	288	2	96	48	5
NMSTR	91	288	6
NMSI_	91	288	6	96	48	1
BRTAP	92	0	2
BRTAP	92	0	6

T_REC_TAP	247
T_REC_BRK	34
T_REC_XTP	28
T_REC_BXX	0
T_REC_HLD	71
T_REC_XHO	3
T_REC_BHO	0
T_REC_BXH	0
T_REC_STR	154
T_REC_BST	1
T_REC_XST	2
T_REC_XBS	0
T_REC_TTP	34
T_REC_THO	0
T_REC_SLD	127
T_REC_BSL	34
T_REC_ALL	735
T_NUM_TAP	465
T_NUM_BRK	69
T_NUM_HLD	74
T_NUM_SLD	127
T_NUM_ALL	735
T_JUDGE_TAP	500
T_JUDGE_HLD	112
T_JUDGE_SLD	161
T_JUDGE_ALL	773
TTM_EACHPAIRS	152
TTM_SCR_TAP	232500
TTM_SCR_BRK	179400
TTM_SCR_HLD	74000
TTM_SCR_SLD	190500
TTM_SCR_ALL	676400
TTM_SCR_S	649450
TTM_SCR_SS	669500
TTM_RAT_ACV	10103

