VERSION	0.00.00	1.04.00
FES_MODE	0
BPM_DEF	190.000	190.000	190.000	190.000
MET_DEF	4	4
RESOLUTION	384
CLK_DEF	384
COMPATIBLE_CODE	MA2

BPM	0	0	190.000
MET	0	0	4	4

EXTAP	1	336	3
EXHLD	2	0	3	144
EXTAP	2	144	4
EXHLD	2	192	4	144
EXTAP	2	336	3
EXTAP	3	0	3
NMTAP	3	96	2
NMTAP	3	96	4
NMTAP	3	192	1
NMTAP	3	192	5
NMTAP	4	0	2
NMTAP	4	96	2
NMTAP	4	192	4
NMTAP	4	288	3
NMTAP	4	288	5
NMTAP	5	0	6
NMTAP	5	96	5
NMTAP	5	192	3
NMTAP	5	288	2
NMTAP	5	288	4
NMTAP	6	0	1
NMTAP	6	96	2
NMTAP	6	192	4
NMTAP	6	288	3
NMTAP	6	288	5
NMTAP	7	0	2
NMTAP	7	0	6
NMTAP	7	96	2
NMTAP	7	96	6
EXTAP	7	192	1
EXTAP	7	192	7
NMTAP	8	0	2
NMTAP	8	96	1
NMTAP	8	192	7
NMTAP	8	288	0
NMTAP	8	288	6
NMTAP	9	0	5
NMTAP	9	96	6
NMTAP	9	192	0
NMTAP	9	288	1
NMTAP	9	288	7
NMTAP	10	0	2
NMTAP	10	96	2
NMTAP	10	96	3
NMTAP	10	192	5
NMTAP	10	288	4
NMTAP	10	288	5
NMTAP	11	0	6
NMTAP	11	96	7
EXTAP	11	192	0
EXTAP	11	192	6
NMHLD	12	0	5	1152
NMTAP	12	96	4
NMTAP	12	192	4
NMTAP	12	288	3
NMTAP	13	0	4
NMTAP	13	96	4
NMTAP	13	192	4
NMTAP	13	288	6
NMTAP	14	0	4
NMTAP	14	96	4
NMTAP	14	192	4
NMTAP	14	288	3
NMTAP	15	0	4
NMTAP	15	96	4
NMTAP	15	96	5
NMTAP	15	192	3
NMTAP	15	192	6
NMHLD	16	0	5	1152
NMTAP	16	96	4
NMTAP	16	192	4
NMTAP	16	288	3
NMTAP	17	0	4
NMTAP	17	96	4
NMTAP	17	192	4
NMTAP	17	288	6
NMTAP	18	0	4
NMTAP	18	96	3
NMTAP	18	192	4
NMTAP	18	288	2
NMTAP	19	0	4
NMTAP	19	96	4
NMTAP	19	96	5
BXTAP	19	192	3
BXTAP	19	192	4
NMTAP	19	288	2
NMTAP	19	288	3
NMHLD	20	0	2	1152
NMTAP	20	0	3
NMTAP	20	96	3
NMTAP	20	192	4
NMTAP	20	288	3
NMTAP	21	0	3
NMTAP	21	96	3
NMTAP	21	192	5
NMTAP	21	288	4
NMTAP	22	0	3
NMTAP	22	96	3
NMTAP	22	192	1
NMTAP	22	288	3
NMTAP	23	0	4
NMTAP	23	96	2
NMTAP	23	96	4
EXTAP	23	192	1
EXTAP	23	192	5
NMHLD	24	0	2	1152
NMTAP	24	0	3
NMTAP	24	96	3
NMTAP	24	192	4
NMTAP	24	288	3
NMTAP	25	0	3
NMTAP	25	96	4
NMTAP	25	192	3
NMTAP	25	288	1
NMTAP	26	0	3
NMTAP	26	96	3
NMTAP	26	192	4
NMTAP	26	288	3
NMTAP	27	0	3
NMTAP	27	96	1
NMTAP	27	192	0
NMTAP	27	192	7
NMTAP	27	288	0
NMTAP	27	288	7
NMSTR	28	0	1
NMSCR	28	0	1	96	96	4
NMTTP	28	192	5	B	0	M1
NMTTP	28	192	5	E	0	M1
NMTTP	29	0	7	E	0	M1
NMTTP	29	96	0	E	0	M1
NMTTP	29	192	1	B	0	M1
NMTTP	29	192	1	E	0	M1
NMSTR	30	0	6
NMSCL	30	0	6	96	96	3
NMTTP	30	192	2	B	0	M1
NMTTP	30	192	3	E	0	M1
NMTTP	31	0	1	E	0	M1
NMTTP	31	96	0	E	0	M1
NMTTP	31	192	6	B	0	M1
NMTTP	31	192	7	E	0	M1
NMSTR	32	0	5
NMSI_	32	0	5	96	96	2
NMTAP	32	192	1
NMTAP	32	288	1
NMSTR	33	0	2
NMSI_	33	0	2	96	96	5
NMTAP	33	192	6
NMTAP	33	288	6
NMHLD	34	0	7	288
NMHLD	34	192	0	96
EXTAP	35	0	1
EXTAP	35	0	7
EXTAP	35	192	3
EXTAP	35	192	5
EXTAP	35	288	3
EXTAP	35	288	5
BRTAP	36	0	6
BRTAP	36	0	7
NMTAP	36	96	2
NMTAP	36	96	4
NMTAP	36	192	1
NMHLD	36	240	1	96
NMTAP	36	336	0
NMTAP	37	0	0
NMTAP	37	96	3
NMTAP	37	96	6
NMTAP	37	144	3
NMTAP	37	144	6
NMTAP	37	240	2
NMTAP	37	240	4
NMTAP	37	288	2
NMTAP	37	288	4
NMHLD	38	0	1	96
NMTAP	38	96	3
NMTAP	38	192	5
NMTAP	38	240	5
NMTAP	38	288	3
BRTAP	39	0	2
BRTAP	39	0	6
BRTAP	39	96	2
BRTAP	39	96	6
EXTAP	39	240	0
EXTAP	39	288	0
NMTAP	40	0	1
NMTAP	40	0	3
NMTAP	40	96	4
NMTAP	40	96	5
NMTAP	40	192	6
NMTAP	40	240	6
NMTAP	40	288	7
NMTAP	41	0	4
NMTAP	41	0	6
NMTAP	41	96	2
NMTAP	41	96	3
NMHLD	41	192	1	96
NMTAP	41	288	0
NMTAP	41	336	0
NMTAP	42	48	2
NMTAP	42	48	3
NMTAP	42	144	3
NMTAP	42	144	4
NMTAP	42	240	4
NMTAP	42	240	5
NMTAP	42	288	4
NMTAP	42	288	5
BRTAP	43	0	0
BRTAP	43	0	6
BRTAP	43	96	1
BRTAP	43	96	7
EXTAP	43	240	3
EXTAP	43	240	4
EXTAP	43	288	3
EXTAP	43	288	4
NMTAP	44	0	5
NMTAP	44	96	4
NMTAP	44	96	6
NMTAP	44	192	2
NMTAP	44	288	1
NMTAP	44	288	3
NMHLD	45	0	1	96
NMHLD	45	96	0	96
NMHLD	45	192	7	96
NMTAP	45	288	6
NMTAP	46	0	5
NMTAP	46	96	4
NMTAP	46	96	6
NMTAP	46	192	3
NMSTR	46	288	2
NMSUR	46	288	2	96	240	4
NMTAP	46	288	4
NMHLD	48	0	5	96
NMTAP	48	96	4
NMHLD	48	192	2	96
NMTAP	48	288	3
NMHLD	49	0	4	96
NMHLD	49	96	5	96
NMHLD	49	192	6	96
NMTAP	49	288	7
NMHLD	50	0	1	96
NMTAP	50	96	0
NMHLD	50	192	6	96
NMTAP	50	288	7
NMTAP	51	0	0
NMTAP	51	96	0
NMTAP	51	192	1
NMTAP	51	192	7
NMTAP	51	288	1
NMTAP	51	288	7
NMTAP	52	0	2
NMTAP	52	48	2
NMTAP	52	96	3
NMHLD	52	192	1	384
NMTAP	52	192	4
NMTAP	52	288	4
NMTAP	53	0	3
NMTAP	53	96	2
EXTAP	53	192	0
EXTAP	53	288	0
EXTAP	53	288	1
NMTAP	54	0	6
NMTAP	54	48	6
NMTAP	54	96	7
NMTAP	54	192	0
NMHLD	54	192	5	384
NMTAP	54	288	0
NMTAP	55	0	7
NMTAP	55	96	6
EXTAP	55	192	4
EXTAP	55	288	4
EXTAP	55	288	5
NMTAP	56	0	3
NMTAP	56	96	2
NMTAP	56	96	3
NMTAP	56	192	1
NMTAP	56	240	1
NMTAP	56	288	0
NMTAP	57	0	0
NMTAP	57	0	1
NMSTR	57	96	0
NMSUR	57	96	0	96	96	4
NMSTR	57	96	1
NMSCR	57	96	1	96	96	3
NMTAP	58	0	5
NMTAP	58	96	4
NMTAP	58	96	5
NMTAP	58	192	6
NMTAP	58	240	6
NMTAP	58	288	7
NMTAP	59	0	6
NMTAP	59	0	7
NMTAP	59	96	6
NMTAP	59	96	7
NMTAP	59	192	4
NMTAP	59	192	5
NMTAP	59	288	4
NMTAP	59	288	5
NMTAP	60	0	4
NMSTR	60	0	5
NMSCR	60	0	5	96	96	0
NMTTP	60	192	1	B	0	M1
NMTTP	60	192	1	E	0	M1
NMTTP	61	0	3	E	0	M1
NMTTP	61	96	4	E	0	M1
NMTTP	61	192	5	B	0	M1
NMTTP	61	192	5	E	0	M1
NMSTR	62	0	2
NMSCL	62	0	2	96	96	7
NMTAP	62	0	3
NMTTP	62	192	6	B	0	M1
NMTTP	62	192	7	E	0	M1
NMTTP	63	0	5	E	0	M1
NMTTP	63	96	4	E	0	M1
NMTTP	63	192	2	B	0	M1
NMTTP	63	192	3	E	0	M1
NMSTR	64	0	1
NMSCL	64	0	1	96	96	6
NMTAP	64	192	5
NMTAP	64	288	5
NMSTR	65	0	6
NMSCR	65	0	6	96	96	1
NMTAP	65	192	2
NMTAP	65	288	2
NMHLD	66	0	3	288
BRHLD	66	192	4	96
EXTAP	67	0	2
EXTAP	67	0	5
NMTAP	67	192	0
NMTAP	67	192	7
BRTAP	67	288	0
BRTAP	67	288	7
BRTAP	68	0	0
BRTAP	68	0	1
NMTAP	68	96	3
NMTAP	68	96	5
NMTAP	68	192	6
NMHLD	68	240	6	96
NMTAP	68	336	7
NMTAP	69	0	7
NMTAP	69	96	1
NMTAP	69	96	4
NMTAP	69	144	1
NMTAP	69	144	4
NMTAP	69	240	3
NMTAP	69	240	5
NMTAP	69	288	3
NMTAP	69	288	5
NMHLD	70	0	6	96
NMTAP	70	96	4
NMTAP	70	192	2
NMTAP	70	240	2
NMTAP	70	288	4
BRTAP	71	0	1
BRTAP	71	0	5
BRTAP	71	96	1
BRTAP	71	96	5
EXTAP	71	240	7
EXTAP	71	288	7
NMTAP	72	0	3
NMHLD	72	0	6	96
NMTAP	72	96	4
NMHLD	72	192	1	96
NMTAP	72	192	4
NMTAP	72	288	3
NMTAP	73	0	2
NMTAP	73	0	3
NMTAP	73	96	4
NMTAP	73	96	5
NMTAP	73	192	6
NMTAP	73	192	7
NMTAP	73	288	1
NMHLD	73	336	1	96
NMTAP	74	48	0
NMTAP	74	96	0
NMTAP	74	192	2
NMSTR	74	192	7
NMSI_	74	192	7	96	144	2
NMSI_	74	192	7	96	144	4
EXTAP	75	192	2
EXTAP	75	192	4
EXTAP	75	288	2
EXTAP	75	288	4
BRTAP	76	0	0
BRTAP	76	0	1
NMTAP	76	96	3
NMTAP	76	96	4
NMTAP	76	192	6
NMHLD	76	240	6	96
NMTAP	76	336	4
NMTAP	77	0	4
NMTAP	77	96	3
NMTAP	77	96	7
NMTAP	77	144	3
NMTAP	77	144	7
NMTAP	77	240	2
NMTAP	77	288	2
NMTAP	77	336	3
NMHLD	78	0	1	96
NMHLD	78	96	3	96
NMHLD	78	192	4	96
NMHLD	78	288	6	96
BRTAP	79	0	0
BRTAP	79	96	1
BRTAP	79	96	7
EXTAP	79	240	2
EXTAP	79	240	4
EXTAP	79	288	2
EXTAP	79	288	4
NMTAP	80	0	4
NMTAP	80	0	6
NMTAP	80	96	7
NMTAP	80	192	1
NMTAP	80	192	3
NMTAP	80	288	0
NMTAP	81	0	2
NMTAP	81	0	3
NMTAP	81	96	4
NMTAP	81	96	5
NMHLD	81	192	6	96
NMTAP	81	288	7
NMTAP	81	336	7
NMTAP	82	48	0
NMTAP	82	48	1
NMTAP	82	144	2
NMTAP	82	144	3
NMTAP	82	240	4
NMTAP	82	240	5
NMTAP	82	288	4
NMTAP	82	288	5
BXHLD	83	0	2	96
BRSTR	83	0	7
BRSI_	83	0	7	96	48	3
EXTAP	83	240	1
EXTAP	83	240	4
EXTAP	83	288	1
EXTAP	83	288	4
NMHLD	84	0	2	96
NMTAP	84	96	3
NMHLD	84	192	6	96
NMTAP	84	288	4
NMHLD	85	0	2	96
NMHLD	85	96	1	96
NMHLD	85	192	0	96
NMTAP	85	288	7
NMHLD	86	0	6	96
NMTAP	86	96	7
NMHLD	86	192	1	96
NMTAP	86	288	0
NMTAP	87	0	2
NMTAP	87	48	2
NMTAP	87	96	3
EXTAP	87	192	1
EXTAP	87	192	5
NMHLD	88	0	6	96
NMTAP	88	96	7
NMHLD	88	192	2	96
NMTAP	88	288	0
NMHLD	89	0	7	96
NMHLD	89	96	6	96
NMHLD	89	192	5	96
NMTAP	89	288	4
NMHLD	90	0	2	96
NMTAP	90	96	3
NMHLD	90	192	6	96
NMTAP	90	288	4
NMTAP	91	0	0
NMTAP	91	48	7
NMTAP	91	96	0
EXTAP	91	192	1
EXTAP	91	192	5
NMSTR	91	288	2
NMSI_	91	288	2	96	48	7
NMSTR	91	288	6
NMSI_	91	288	6	96	48	3

T_REC_TAP	294
T_REC_BRK	23
T_REC_XTP	48
T_REC_BXX	2
T_REC_HLD	47
T_REC_XHO	2
T_REC_BHO	1
T_REC_BXH	1
T_REC_STR	14
T_REC_BST	1
T_REC_XST	0
T_REC_XBS	0
T_REC_TTP	24
T_REC_THO	0
T_REC_SLD	15
T_REC_BSL	1
T_REC_ALL	473
T_NUM_TAP	380
T_NUM_BRK	29
T_NUM_HLD	49
T_NUM_SLD	15
T_NUM_ALL	473
T_JUDGE_TAP	406
T_JUDGE_HLD	212
T_JUDGE_SLD	16
T_JUDGE_ALL	634
TTM_EACHPAIRS	107
TTM_SCR_TAP	190000
TTM_SCR_BRK	75400
TTM_SCR_HLD	49000
TTM_SCR_SLD	22500
TTM_SCR_ALL	336900
TTM_SCR_S	324000
TTM_SCR_SS	334000
TTM_RAT_ACV	10086

