VERSION	0.00.00	1.04.00
FES_MODE	0
BPM_DEF	115.000	115.000	115.000	115.000
MET_DEF	4	4
RESOLUTION	384
CLK_DEF	384
COMPATIBLE_CODE	MA2

BPM	0	0	115.000
MET	0	0	4	4

NMSTR	2	0	1
NMSCR	2	0	1	96	48	3
NMTAP	2	0	3
NMTAP	2	96	4
NMTAP	2	192	3
NMSTR	2	192	5
NMSCL	2	192	5	96	48	3
NMTAP	2	288	2
NMTAP	2	336	2
NMSTR	3	0	1
NMSCR	3	0	1	96	48	3
NMTAP	3	0	3
NMTAP	3	96	4
NMTAP	3	192	3
NMSTR	3	192	5
NMSCL	3	192	5	96	48	3
NMTAP	3	240	3
NMTAP	3	288	2
NMTAP	3	336	2
NMSTR	4	0	1
NMSCR	4	0	1	96	48	3
NMTAP	4	0	3
NMTAP	4	96	4
NMTAP	4	192	3
NMSTR	4	192	5
NMSCL	4	192	5	96	48	3
NMTAP	4	288	2
NMTAP	4	336	2
NMSTR	5	0	1
NMSCR	5	0	1	96	48	3
NMTAP	5	0	3
NMTAP	5	96	4
NMTAP	5	192	3
NMSTR	5	192	5
NMSI_	5	192	5	96	48	0
NMSTR	5	288	2
NMSI_	5	288	2	96	48	7
NMTAP	5	288	5
NMTAP	6	0	2
NMSTR	6	0	6
NMSCL	6	0	6	96	48	4
NMTAP	6	96	3
NMSTR	6	192	2
NMSCR	6	192	2	96	48	4
NMTAP	6	192	4
NMTAP	6	288	5
NMTAP	6	336	5
NMSTR	7	0	6
NMSCL	7	0	6	96	48	4
NMSTR	7	48	3
NMSCL	7	48	3	96	48	1
NMSTR	7	192	4
NMSI_	7	192	4	96	48	7
NMTAP	7	240	0
NMTAP	7	288	7
NMSTR	8	0	6
NMSCL	8	0	6	96	48	4
NMTAP	8	96	3
NMSTR	8	192	2
NMSCR	8	192	2	96	48	4
NMTAP	8	192	4
NMTAP	8	288	5
NMTAP	8	336	6
NMTAP	9	0	3
NMSTR	9	0	7
BRSF_	9	0	7	96	144	3
NMHLD	9	288	1	72
NMHLD	9	288	5	72
BRTAP	10	0	2
BRTAP	10	0	4
NMTAP	10	48	6
NMSTR	10	72	6
NMSI_	10	72	6	96	48	3
NMTAP	10	120	3
NMSTR	10	144	3
NMSI_	10	144	3	96	48	0
NMTAP	10	192	0
NMSTR	10	216	0
NMSI_	10	216	0	96	48	5
NMTAP	10	264	5
NMTAP	10	288	5
NMTAP	10	336	2
NMSTR	11	0	1
NMSCL	11	0	1	96	48	5
NMTAP	11	96	4
CNSV_	11	144	5	0	48	3
NMSTR	11	192	6
NMSCR	11	192	6	96	48	2
NMTAP	11	288	3
CNSV_	11	336	2	0	48	4
NMTAP	12	0	0
NMTAP	12	48	1
NMSTR	12	72	1
NMSI_	12	72	1	96	48	4
NMTAP	12	120	4
NMSTR	12	144	4
NMSI_	12	144	4	96	48	7
NMTAP	12	192	7
NMSTR	12	216	7
NMSI_	12	216	7	96	48	2
NMTAP	12	264	2
NMSTR	12	288	2
NMSF_	12	288	2	96	96	6
NMTAP	12	336	4
NMTAP	13	336	2
NMTAP	13	336	3
BRTAP	14	0	2
BRHLD	14	0	3	48
NMTAP	14	48	2
NMTAP	14	96	2
NMHLD	14	96	3	48
NMTAP	14	144	2
NMHLD	14	192	2	48
NMHLD	14	192	3	48
NMHLD	14	264	1	48
NMHLD	14	264	4	48
NMTAP	14	336	2
NMTAP	14	336	3
NMHLD	15	0	4	48
NMTAP	15	0	5
NMTAP	15	48	5
NMHLD	15	96	4	48
NMTAP	15	96	5
NMTAP	15	144	5
NMHLD	15	192	4	48
NMHLD	15	192	5	48
NMHLD	15	264	3	48
NMHLD	15	264	6	48
NMTAP	15	336	4
NMTAP	15	336	5
NMTAP	16	0	2
NMHLD	16	0	3	48
NMTAP	16	48	2
NMTAP	16	96	2
NMHLD	16	96	3	48
NMTAP	16	144	2
NMHLD	16	192	2	48
NMHLD	16	192	3	48
NMHLD	16	264	1	48
NMHLD	16	264	2	48
NMTAP	16	336	2
NMTAP	16	336	3
NMHLD	17	0	4	48
NMTAP	17	0	5
NMTAP	17	48	5
NMHLD	17	96	4	48
NMTAP	17	96	5
NMTAP	17	144	5
NMHLD	17	192	4	48
NMHLD	17	192	5	48
NMHLD	17	264	5	48
NMHLD	17	264	6	48
NMTAP	17	336	6
NMTAP	17	336	7
BRHLD	18	0	0	48
BRHLD	18	0	7	48
NMHLD	18	96	1	48
NMSTR	18	144	2
NMSI_	18	144	2	96	24	7
NMTAP	18	168	2
NMTAP	18	216	2
NMTAP	18	216	4
NMHLD	18	288	6	48
NMSTR	18	336	5
NMSI_	18	336	5	96	24	0
NMTAP	18	360	5
NMTAP	19	24	3
NMTAP	19	24	5
NMHLD	19	96	1	48
NMSTR	19	144	2
NMSCL	19	144	2	96	24	7
NMTAP	19	168	2
NMTAP	19	216	2
NMTAP	19	216	4
NMTAP	19	264	5
NMTAP	19	288	5
NMTAP	19	336	4
NMTAP	19	336	6
BRHLD	20	0	0	48
BRHLD	20	0	7	48
NMHLD	20	96	6	48
NMSTR	20	144	5
NMSI_	20	144	5	96	24	0
NMTAP	20	168	5
NMTAP	20	216	3
NMTAP	20	216	5
NMHLD	20	288	1	48
NMSTR	20	336	2
NMSI_	20	336	2	96	24	7
NMTAP	20	360	2
NMTAP	21	24	2
NMTAP	21	24	4
NMHLD	21	96	6	48
NMSTR	21	144	5
NMSCR	21	144	5	96	24	0
NMTAP	21	168	5
NMTAP	21	216	3
NMTAP	21	216	5
EXTAP	21	264	1
EXTAP	21	312	6
EXTAP	21	312	7
EXTAP	21	360	3
EXTAP	21	360	4
BRHLD	22	0	3	48
BRHLD	22	0	4	48
NMHLD	22	96	5	48
NMSTR	22	144	6
NMSI_	22	144	6	96	24	3
NMTAP	22	168	6
NMTAP	22	216	0
NMTAP	22	216	6
NMHLD	22	288	2	48
NMSTR	22	336	1
NMSI_	22	336	1	96	24	4
NMTAP	22	360	1
NMTAP	23	24	1
NMTAP	23	24	7
NMHLD	23	96	5	48
NMSTR	23	144	6
NMSCL	23	144	6	96	24	3
NMTAP	23	168	6
NMTAP	23	216	0
NMTAP	23	216	6
NMTAP	23	264	1
NMTAP	23	288	1
NMTAP	23	336	0
NMTAP	23	336	2
BRHLD	24	0	3	48
BRHLD	24	0	4	48
NMHLD	24	96	2	48
NMSTR	24	144	1
NMSI_	24	144	1	96	24	4
NMTAP	24	168	1
NMTAP	24	216	1
NMTAP	24	216	7
NMHLD	24	288	5	48
NMSTR	24	336	6
NMSI_	24	336	6	96	24	3
NMTAP	24	360	6
NMTAP	25	24	0
NMTAP	25	24	6
NMHLD	25	96	2	48
NMSTR	25	144	1
NMSCR	25	144	1	96	24	4
NMTAP	25	168	1
NMTAP	25	216	1
NMTAP	25	216	7
NMTAP	25	264	5
NMTAP	25	288	5
NMTAP	25	336	3
NMTAP	25	336	6
NMHLD	26	0	4	168
NMHLD	26	0	7	192
NMTAP	26	192	3
NMTAP	26	216	6
NMTAP	26	240	2
NMTAP	26	264	5
NMTAP	26	288	1
NMTAP	26	312	0
NMTAP	26	312	4
NMTAP	26	360	3
NMTAP	26	360	7
NMSTR	27	0	3
NMSI_	27	0	3	96	48	6
NMSTR	27	0	7
NMSI_	27	0	7	96	48	2
NMSTR	27	96	3
NMSCL	27	96	3	96	48	0
NMSTR	27	96	7
NMSCL	27	96	7	96	48	4
BRTAP	27	192	3
BRTAP	27	192	7
NMSTR	28	0	1
NMSCR	28	0	1	96	48	3
NMTAP	28	0	3
NMTAP	28	96	4
NMTAP	28	192	3
NMSTR	28	192	5
NMSCL	28	192	5	96	48	3
NMSTR	28	240	3
NMSCR	28	240	3	96	48	5
NMTAP	28	288	2
NMSTR	29	0	1
NMSCR	29	0	1	96	48	3
NMTAP	29	96	4
NMTAP	29	192	3
NMSTR	29	192	5
NMSCL	29	192	5	96	48	3
NMSTR	29	240	3
NMSCR	29	240	3	96	48	5
NMTAP	29	288	2
NMSTR	30	0	1
NMSI_	30	0	1	96	48	4
NMTAP	30	48	0
NMTAP	30	72	7
NMTAP	30	96	1
NMTAP	30	192	3
NMSTR	30	192	6
NMSI_	30	192	6	96	48	3
NMTAP	30	240	7
NMTAP	30	264	0
NMTAP	30	288	6
NMTAP	31	0	1
NMTAP	31	0	4
NMTAP	31	48	2
NMTAP	31	48	5
NMTAP	31	96	4
NMTAP	31	96	6
NMTAP	31	144	2
NMTAP	31	144	5
NMSTR	31	192	1
NMSI_	31	192	1	96	48	5
NMSTR	31	192	3
NMSI_	31	192	3	96	48	7
NMTAP	31	288	1
NMTAP	31	288	3
NMSTR	32	0	6
NMSCL	32	0	6	96	48	4
NMTAP	32	96	3
NMSTR	32	192	2
NMSCR	32	192	2	96	48	4
NMTAP	32	192	4
NMSTR	32	240	4
NMSCL	32	240	4	96	48	2
NMTAP	32	288	5
NMTAP	33	0	6
NMTAP	33	48	1
NMTAP	33	48	5
NMTAP	33	96	2
NMTAP	33	96	6
EXTAP	33	144	1
EXTAP	33	144	5
EXTAP	33	168	1
EXSTR	33	168	5
NMSV_	33	168	5	96	48	0
NMSTR	33	216	5
NMSV_	33	216	5	96	48	2
NMSTR	34	0	6
NMSCL	34	0	6	96	48	4
NMTAP	34	96	3
NMSTR	34	192	2
NMSCR	34	192	2	96	48	4
NMTAP	34	192	4
NMTAP	34	288	5
NMTAP	34	336	6
NMTAP	35	0	3
NMSTR	35	0	7
BRSF_	35	0	7	96	144	3
NMHLD	35	288	1	72
NMHLD	35	288	5	72
BRTAP	36	0	2
BRTAP	36	0	4
NMTAP	36	48	1
NMSTR	36	72	1
NMSI_	36	72	1	96	48	4
NMTAP	36	120	4
NMSTR	36	144	4
NMSI_	36	144	4	96	48	7
NMTAP	36	192	7
NMSTR	36	216	7
NMSI_	36	216	7	96	48	2
NMTAP	36	264	2
NMTAP	36	288	2
NMTAP	36	336	5
NMSTR	37	0	6
NMSCR	37	0	6	96	48	2
NMTAP	37	96	3
CNSV_	37	144	2	0	48	4
NMSTR	37	192	1
NMSCL	37	192	1	96	48	5
NMTAP	37	288	4
CNSV_	37	336	5	0	48	3
NMTAP	38	0	7
NMTAP	38	48	6
NMSTR	38	72	6
NMSI_	38	72	6	96	48	3
NMTAP	38	120	3
NMSTR	38	144	3
NMSI_	38	144	3	96	48	0
NMSTR	38	192	0
NMSF_	38	192	0	96	48	4
NMTAP	38	216	0
NMSTR	39	0	2
NMSI_	39	0	2	96	48	6
NMSTR	39	0	6
NMSI_	39	0	6	96	48	2
BRSTR	39	192	0
NMSI_	39	192	0	96	48	4
BRSTR	39	240	6
NMSI_	39	240	6	96	48	2
BRTAP	39	288	0
BRTAP	39	336	6
EXTAP	40	0	1
NMSTR	40	96	7
NMSCL	40	96	7	96	48	3
NMTAP	40	192	4
NMTAP	40	192	7
NMSTR	40	288	0
NMSCR	40	288	0	96	48	4
NMTTP	40	288	4	B	0	M1
NMTTP	40	288	5	B	0	M1
NMTTP	40	288	5	E	0	M1
NMTAP	41	0	0
NMTAP	41	0	3
NMTTP	41	96	2	B	0	M1
NMTTP	41	96	3	B	0	M1
NMTTP	41	96	3	E	0	M1
NMSTR	41	96	7
NMSCL	41	96	7	96	48	3
NMTAP	41	192	5
NMTAP	41	192	7
NMSTR	41	288	0
NMSCR	41	288	0	96	48	4
NMTTP	41	288	4	B	0	M1
NMTTP	41	288	5	B	0	M1
NMTTP	41	288	5	E	0	M1
NMTAP	42	0	0
NMTAP	42	0	2
NMTTP	42	96	2	B	0	M1
NMTTP	42	96	3	B	0	M1
NMTTP	42	96	3	E	0	M1
NMSTR	42	96	7
NMSCL	42	96	7	96	48	3
NMTAP	42	192	6
NMTAP	42	192	7
NMSTR	42	288	0
NMSCR	42	288	0	96	48	4
NMTTP	42	288	4	B	0	M1
NMTTP	42	288	5	B	0	M1
NMTTP	42	288	5	E	0	M1
NMTAP	43	0	0
NMTAP	43	0	1
NMTTP	43	96	0	B	0	M1
NMTTP	43	96	1	B	0	M1
NMTTP	43	96	1	E	0	M1
NMSTR	43	96	7
NMSI_	43	96	7	96	48	3
NMSTR	43	192	5
NMSI_	43	192	5	96	48	2
NMTAP	43	192	7
NMSTR	43	288	1
NMSI_	43	288	1	96	48	6
NMTAP	43	288	5
EXTAP	44	0	1
EXTAP	44	0	6
NMSTR	44	96	7
NMSCL	44	96	7	96	48	3
NMTAP	44	192	4
NMTAP	44	192	7
NMSTR	44	288	0
NMSCR	44	288	0	96	48	4
NMTTP	44	288	5	E	0	M1
NMTTP	44	288	5	A	0	M1
NMTTP	44	288	6	E	0	M1
NMTAP	45	0	0
NMTAP	45	0	3
NMTTP	45	96	2	E	0	M1
NMTTP	45	96	2	A	0	M1
NMTTP	45	96	3	E	0	M1
NMSTR	45	96	7
NMSCL	45	96	7	96	48	3
NMTAP	45	192	5
NMTAP	45	192	7
NMSTR	45	288	0
NMSCR	45	288	0	96	48	4
NMTTP	45	288	5	E	0	M1
NMTTP	45	288	5	A	0	M1
NMTTP	45	288	6	E	0	M1
NMTAP	46	0	0
NMTAP	46	0	2
NMTTP	46	96	2	E	0	M1
NMTTP	46	96	2	A	0	M1
NMTTP	46	96	3	E	0	M1
NMSTR	46	96	7
NMSCL	46	96	7	96	48	3
NMTAP	46	192	6
NMTAP	46	192	7
NMTAP	46	288	0
NMTTP	46	288	5	E	0	M1
NMTTP	46	288	5	A	0	M1
NMTTP	46	288	6	E	0	M1
NMTHO	47	0	0	288	C	1	M1
NMSTR	47	0	2
NMSCR	47	0	2	96	96	7
CNSUL	47	192	7	0	96	1
BRTAP	48	0	0
BRSTR	48	0	7
NMSI_	48	0	7	96	48	3
NMTAP	48	48	6
NMSTR	48	96	5
NMSI_	48	96	5	96	48	0
NMTAP	48	96	7
NMTAP	48	144	4
NMSTR	48	192	3
NMSCR	48	192	3	96	48	6
NMTAP	48	192	5
NMTAP	48	240	2
NMTAP	48	288	1
NMTAP	48	288	3
NMSTR	49	0	0
NMSI_	49	0	0	96	48	4
NMTAP	49	0	7
NMTAP	49	48	1
NMTAP	49	96	0
NMSTR	49	96	2
NMSI_	49	96	2	96	48	7
NMTAP	49	144	3
NMTAP	49	192	2
NMSTR	49	192	4
NMSCL	49	192	4	96	48	1
NMTAP	49	240	5
NMTAP	49	288	4
NMTAP	49	288	6
NMTAP	50	0	0
NMSTR	50	0	7
NMSI_	50	0	7	96	48	3
NMTAP	50	48	5
NMSTR	50	96	4
NMSI_	50	96	4	96	48	0
NMTAP	50	96	7
NMTAP	50	144	6
NMTAP	50	192	4
NMSTR	50	192	7
NMSUL	50	192	7	96	48	1
NMTAP	50	240	5
NMTAP	50	288	4
NMTAP	50	288	7
NMSTR	51	0	0
NMSI_	51	0	0	96	48	4
NMTAP	51	0	7
NMTAP	51	48	2
NMTAP	51	96	0
NMSTR	51	96	3
NMSXL	51	96	3	96	96	7
NMTAP	51	144	1
NMTAP	51	192	0
NMTAP	51	192	3
NMTAP	51	240	1
NMTAP	51	288	2
BRSTR	52	0	0
NMSI_	52	0	0	96	48	5
BRTAP	52	0	6
NMSTR	52	48	1
NMSI_	52	48	1	96	48	4
NMTAP	52	48	7
NMTAP	52	96	0
NMTAP	52	96	2
NMTAP	52	144	1
NMSTR	52	192	7
NMSI_	52	192	7	96	48	2
NMTAP	52	240	0
NMSTR	52	240	6
NMSI_	52	240	6	96	48	3
NMTAP	52	288	5
NMTAP	52	288	7
NMTAP	52	336	6
NMSTR	53	0	0
NMSI_	53	0	0	96	48	5
NMSTR	53	48	1
NMSI_	53	48	1	96	48	4
NMTAP	53	48	7
NMTAP	53	96	0
NMTAP	53	96	3
NMTAP	53	144	1
NMSTR	53	192	7
NMSI_	53	192	7	96	48	2
NMTAP	53	240	0
NMTAP	53	240	6
NMTAP	53	288	4
NMTAP	53	288	7
NMTAP	53	336	3
NMTAP	54	0	1
NMSTR	54	0	4
NMSI_	54	0	4	96	48	1
NMTAP	54	48	3
NMSTR	54	48	5
NMSI_	54	48	5	96	48	0
NMTAP	54	96	4
NMTAP	54	96	6
NMTAP	54	144	5
NMTAP	54	192	3
NMTAP	54	240	4
NMTAP	54	240	5
NMSTR	54	288	3
NMSI_	54	288	3	96	48	1
NMSTR	54	288	4
NMSI_	54	288	4	96	48	1
NMSTR	55	0	3
NMSI_	55	0	3	96	48	6
NMSTR	55	0	4
NMSI_	55	0	4	96	48	6
NMSTR	55	96	3
NMSCL	55	96	3	96	48	1
NMSTR	55	96	4
NMSI_	55	96	4	96	48	1
NMSTR	55	192	3
NMSI_	55	192	3	96	48	6
NMSTR	55	192	4
NMSCR	55	192	4	96	48	6
NMTAP	55	288	3
NMTAP	55	288	4
NMSTR	56	0	0
BRSI_	56	0	0	96	48	2
NMSTR	56	48	7
BRSI_	56	48	7	96	48	3
NMSTR	56	96	0
BRSI_	56	96	0	96	48	4
NMSTR	56	144	7
BRSI_	56	144	7	96	48	5
NMSTR	56	192	0
BRSCR	56	192	0	96	48	3
NMSTR	56	240	7
BRSCL	56	240	7	96	48	4
NMSTR	56	288	0
NMSI_	56	288	0	96	24	4
BRSI_	56	288	0	96	24	3
NMTAP	56	336	7
CNSI_	57	24	3	0	24	7
CNSI_	57	24	4	0	24	7

T_REC_TAP	261
T_REC_BRK	11
T_REC_XTP	11
T_REC_BXX	0
T_REC_HLD	41
T_REC_XHO	0
T_REC_BHO	9
T_REC_BXH	0
T_REC_STR	117
T_REC_BST	4
T_REC_XST	1
T_REC_XBS	0
T_REC_TTP	33
T_REC_THO	1
T_REC_SLD	114
T_REC_BSL	9
T_REC_ALL	612
T_NUM_TAP	423
T_NUM_BRK	33
T_NUM_HLD	42
T_NUM_SLD	114
T_NUM_ALL	612
T_JUDGE_TAP	438
T_JUDGE_HLD	127
T_JUDGE_SLD	123
T_JUDGE_ALL	688
TTM_EACHPAIRS	130
TTM_SCR_TAP	211500
TTM_SCR_BRK	85800
TTM_SCR_HLD	42000
TTM_SCR_SLD	171000
TTM_SCR_ALL	510300
TTM_SCR_S	491800
TTM_SCR_SS	507000
TTM_RAT_ACV	10065

